osu file format v14

[General]
AudioFilename: audio.mp3
AudioLeadIn: 0
PreviewTime: 54995
Countdown: 0
SampleSet: Soft
StackLeniency: 0.7
Mode: 0
LetterboxInBreaks: 0
WidescreenStoryboard: 1

[Editor]
Bookmarks: 991,89244
DistanceSpacing: 0.8
BeatDivisor: 8
GridSize: 4
TimelineZoom: 1

[Metadata]
Title:CLEAR
TitleUnicode:CLEAR
Artist:Maaya Sakamoto
ArtistUnicode:坂本真綾
Creator:Gero
Version:Insane
Source:カードキャプターさくら クリアカード編
Tags:Cardcaptor Captor Sakura Clear Card Lanturn -Sh1n1- Sekaii Sekai-nyan Sotarks Opening TV Size
BeatmapID:1517825
BeatmapSetID:718454

[Difficulty]
HPDrainRate:7
CircleSize:4
OverallDifficulty:7
ApproachRate:8.5
SliderMultiplier:1.8
SliderTickRate:1

[Events]
//Background and Video events
Video,-227,"Video.avi"
0,0,"BGero2.jpg",0,0
//Break Periods
//Storyboard Layer 0 (Background)
//Storyboard Layer 1 (Fail)
//Storyboard Layer 2 (Pass)
//Storyboard Layer 3 (Foreground)
//Storyboard Sound Samples

[TimingPoints]
991,769.230769230769,4,2,22,50,1,0
991,-83.3333333333333,4,2,22,50,0,0
17721,-87.719298245614,4,2,22,60,0,0
20361,363.636363636364,4,2,22,60,1,0
20542,363.636363636364,4,2,22,60,1,0
20930,363.636363636364,4,2,22,80,1,0
22729,363.636363636364,4,2,22,80,1,0
23820,363.636363636364,4,2,22,80,1,0
39638,-133.333333333333,4,2,22,70,0,0
39683,-133.333333333333,4,2,22,5,0,0
40001,-79.9999999999999,4,2,22,70,0,0
40047,-79.9999999999999,4,2,22,5,0,0
40365,-68.9655172413793,4,2,22,70,0,0
40410,-68.9655172413793,4,2,22,5,0,0
40729,-60.6060606060606,4,2,22,70,0,0
40774,-60.6060606060606,4,2,22,5,0,0
40910,-50,4,2,22,70,0,0
40956,-50,4,2,22,5,0,0
41274,-100,4,2,22,80,0,0
46774,-100,4,2,22,5,0,0
47092,-100,4,2,22,80,0,0
52930,363.636363636364,4,2,22,80,1,0
55293,-200,4,2,22,80,0,0
55339,-200,4,2,22,5,0,0
55630,363.636363636364,4,2,22,90,1,1
55630,-100,4,2,22,90,0,1
55811,363.636363636364,4,2,22,90,1,1
55811,-100,4,2,22,90,0,1
67174,-100,4,2,22,90,0,0
67265,-100,4,2,22,90,0,1
79083,-100,4,2,22,90,0,0
81993,363.636363636364,4,2,22,90,1,0
84379,363.636363636364,4,2,22,90,1,0
84925,363.636363636364,4,2,22,90,1,0
87426,363.636363636364,5,2,22,90,1,0
87698,-100,4,2,22,5,0,0

[Colours]
Combo1 : 189,62,106
Combo2 : 230,172,53
Combo3 : 157,157,157
Combo4 : 88,199,97

[HitObjects]
120,104,991,6,0,B|148:44|220:40|256:72|256:72|292:40|364:44|392:104,1,323.999990112305,2|0,0:0|0:0,0:0:0:0:
482,166,2337,5,2,0:0:0:0:
482,166,2433,1,2,0:0:0:0:
482,166,2529,2,0,B|367:280,1,161.999995056153
291,205,3298,1,2,0:0:0:0:
214,280,3490,2,0,B|166:305|166:305|118:280,1,107.999996704102,2|0,0:0|0:0,0:0:0:0:
166,192,4067,6,0,P|178:140|166:88,1,107.999996704102,6|0,0:0|0:0,0:0:0:0:
116,4,4644,1,0,0:0:0:0:
166,88,4837,1,2,0:0:0:0:
216,4,5029,2,0,B|228:28|256:38|256:38|284:28|296:4,1,107.999996704102,2|0,0:0|0:0,0:0:0:0:
426,88,5606,6,0,B|414:64|386:54|386:54|358:64|346:88,1,107.999996704102,2|0,0:0|0:0,0:0:0:0:
256,128,6183,1,0,0:0:0:0:
345,167,6375,1,2,0:0:0:0:
256,206,6567,2,0,B|227:206|227:206|208:223,1,53.9999983520508,2|0,0:0|0:0,0:0:0:0:
139,292,6952,1,2,0:0:0:0:
139,292,7144,6,0,L|177:330,1,53.9999983520508,0|0,0:0|0:0,0:0:0:0:
373,292,7529,2,0,L|335:330,1,53.9999983520508,2|2,0:0|0:0,0:0:0:0:
169,183,7914,2,0,L|208:222,1,53.9999983520508,2|0,0:0|0:0,0:0:0:0:
342,183,8298,2,0,L|304:222,1,53.9999983520508,2|2,0:0|0:0,0:0:0:0:
256,136,8683,6,0,B|256:95|256:95|260:87|260:87|252:87|252:87|256:79|256:79|256:38,1,107.999996704102,2|0,0:0|0:0,0:0:0:0:
230,288,9452,2,0,P|256:293|282:288,2,53.9999983520508,2|0|0,0:0|0:0|0:0,0:0:0:0:
139,252,10029,1,2,0:0:0:0:
48,288,10221,5,0,0:0:0:0:
139,252,10414,2,0,B|139:220|139:220|139:180|105:154,1,107.999996704102,2|2,0:0|0:0,0:0:0:0:
160,72,10990,2,0,B|186:65|186:65|212:72,1,53.9999983520508,0|2,0:0|0:0,0:0:0:0:
352,72,11375,2,0,B|326:65|326:65|300:72,1,53.9999983520508,2|2,0:0|0:0,0:0:0:0:
256,160,11760,5,2,0:0:0:0:
212,247,11952,2,0,B|240:256|256:277|256:277|272:256|300:247,1,107.999996704102,0|2,0:0|0:0,0:0:0:0:
368,316,12529,2,0,L|329:354,1,53.9999983520508,0|2,0:0|0:0,0:0:0:0:
144,316,12914,2,0,L|182:354,1,53.9999983520508,0|2,0:0|0:0,0:0:0:0:
300,247,13298,6,0,P|256:220|212:247,1,107.999996704102,2|2,0:0|0:0,0:0:0:0:
204,76,14067,2,0,P|256:64|308:76,1,107.999996704102,2|2,0:0|0:0,0:0:0:0:
256,264,14837,5,2,0:0:0:0:
140,108,15221,1,2,0:0:0:0:
140,108,15414,1,2,0:0:0:0:
372,108,15798,1,0,0:0:0:0:
256,372,16375,6,0,L|256:264,1,107.999996704102,2|0,0:0|0:0,0:0:0:0:
184,200,16952,2,0,P|256:168|328:200,1,161.999995056153,2|2,0:0|0:0,0:0:0:0:
400,136,17721,6,0,B|424:40|304:-4|256:75|256:75|208:-4|88:40|112:136,1,461.699994364014,2|0,0:0|0:0,0:0:0:0:
160,341,20361,5,0,1:0:0:0:
160,341,20451,1,0,1:0:0:0:
160,341,20542,2,0,P|182:345|204:341,1,45,12|0,0:0|1:0,0:0:0:0:
256,304,20723,2,0,P|278:300|300:304,1,45,0|0,1:0|1:0,0:0:0:0:
352,341,20930,5,10,0:0:0:0:
417,275,21111,1,0,1:0:0:0:
352,209,21293,2,0,P|335:167|301:138,1,90,10|0,0:0|1:0,0:0:0:0:
160,341,21657,5,10,0:0:0:0:
95,275,21839,1,0,1:0:0:0:
159,209,22020,2,0,P|176:167|210:138,1,90,10|0,0:0|1:0,0:0:0:0:
256,228,22384,5,10,0:0:0:0:
347,49,22566,1,2,1:0:0:0:
165,49,22729,1,12,0:0:0:0:
301,138,22910,1,2,1:0:0:0:
311,161,23001,1,0,1:0:0:0:
310,185,23092,5,12,0:0:0:0:
299,207,23183,1,0,1:0:0:0:
279,222,23274,1,2,0:0:0:0:
256,228,23365,1,0,1:0:0:0:
232,222,23456,5,0,1:0:0:0:
212,207,23547,1,0,1:0:0:0:
201,185,23638,1,10,0:0:0:0:
200,161,23729,1,8,0:0:0:0:
210,138,23820,6,0,B|244:108|256:62|256:62|268:108|302:138,1,180,4|8,1:0|0:0,0:0:0:0:
256,228,24365,1,0,0:0:0:0:
302,318,24547,2,0,B|345:318|345:318|378:351,1,90,8|0,0:0|1:0,0:0:0:0:
210,318,24910,2,0,B|167:318|167:318|133:351,1,90,10|0,0:0|0:0,0:0:0:0:
256,228,25274,6,0,B|256:151|256:151|260:143|260:143|252:143|252:143|256:135|256:135|256:58,1,180,10|10,0:0|0:0,0:0:0:0:
168,149,25820,2,0,P|140:233|168:317,1,180,2|0,1:0|1:0,0:0:0:0:
256,380,26365,1,10,0:0:0:0:
344,317,26547,2,0,P|372:233|344:149,1,180,2|0,1:0|1:0,0:0:0:0:
256,86,27092,6,0,B|256:118|256:118|260:126|260:126|252:126|252:126|256:134|256:134|256:166,1,90,8|0,0:0|1:0,0:0:0:0:
111,92,27456,2,0,B|134:115|134:115|136:123|136:123|142:117|142:117|145:126|145:126|168:149,1,90,8|0,0:0|1:0,0:0:0:0:
400,92,27820,2,0,B|377:115|377:115|375:123|375:123|369:117|369:117|366:126|366:126|344:149,1,90,10|0,0:0|1:0,0:0:0:0:
167,236,28183,6,0,B|256:248|256:248|345:236,1,180,4|12,3:0|0:0,0:0:0:0:
256,86,28729,1,0,1:0:0:0:
256,86,28820,1,0,1:0:0:0:
256,86,28910,1,8,3:0:0:0:
167,236,29092,1,0,0:0:0:0:
345,236,29274,1,8,0:0:0:0:
256,166,29456,1,0,3:0:0:0:
256,306,29638,6,0,B|188:352|188:352|90:352,1,180,4|10,1:0|0:0,0:0:0:0:
16,272,30183,1,0,0:0:0:0:
91,192,30365,1,2,0:0:0:0:
16,112,30547,1,2,1:0:0:0:
91,192,30729,1,8,0:0:0:0:
166,112,30910,6,0,P|208:98|250:112,1,90,2|0,1:0|1:0,0:0:0:0:
388,192,31274,2,0,P|346:206|304:192,1,90,2|8,0:0|0:0,0:0:0:0:
442,112,31638,2,0,P|477:192|442:272,1,180,2|2,1:0|1:0,0:0:0:0:
365,348,32183,1,8,0:0:0:0:
365,348,32365,1,2,0:0:0:0:
289,273,32547,6,0,B|209:273|209:273|201:277|201:277|193:281|193:281|110:281,1,180,0|10,1:0|0:0,0:0:0:0:
68,181,33092,2,0,P|111:169|154:181,1,90,2|0,1:0|0:0,0:0:0:0:
296,92,33456,2,0,B|256:112|256:112|216:92,1,90,2|8,1:0|0:0,0:0:0:0:
358,181,33820,6,0,B|358:128|401:108|401:108|444:128|444:181,1,180,2|2,0:0|0:0,0:0:0:0:
401,282,34365,2,0,B|358:306|318:286|314:282|310:278|270:258|227:282,1,180,10|2,0:0|1:0,0:0:0:0:
151,358,34910,1,0,1:0:0:0:
75,282,35092,2,0,P|61:240|75:198,1,90,10|0,0:0|3:0,0:0:0:0:
152,80,35456,6,0,B|152:128|186:160|186:160|152:192|152:240,1,180,4|8,1:0|0:0,0:0:0:0:
75,160,36001,1,2,1:0:0:0:
256,80,36183,1,2,0:0:0:0:
151,240,36365,1,2,1:0:0:0:
152,80,36547,1,10,0:0:0:0:
256,240,36729,6,0,B|299:264|339:244|343:240|347:236|387:216|430:240,1,180,2|2,1:0|1:0,0:0:0:0:
388,339,37274,1,8,0:0:0:0:
256,144,37456,2,0,B|299:120|339:140|343:144|347:148|387:168|430:144,1,180,2|2,1:0|1:0,0:0:0:0:
388,45,38001,1,10,0:0:0:0:
429,144,38183,1,0,0:0:0:0:
388,45,38365,6,0,B|377:27|353:18|353:18|329:27|318:45,1,90,2|0,1:0|1:0,0:0:0:0:
256,144,38729,1,8,0:0:0:0:
194,45,38910,2,0,B|183:27|159:18|159:18|135:27|124:45,2,90,2|2|2,0:0|1:0|1:0,0:0:0:0:
256,144,39456,1,8,0:0:0:0:
318,243,39638,6,0,B|330:292|330:292|318:341,1,101.250003862381,6|0,1:0|0:0,0:0:0:0:
256,292,40001,6,0,L|436:292,1,168.75,6|0,1:0|0:0,0:0:0:0:
488,341,40365,6,0,B|488:285|488:285|476:261|476:261|476:229|476:229|488:205|488:205|488:150,1,195.750005973816,6|0,1:0|0:0,0:0:0:0:
424,92,40729,6,0,P|388:84|352:92,1,74.2500007081032,2|0,1:0|0:0,0:0:0:0:
288,151,40910,6,0,B|352:92|352:92|313:270,1,270,14|0,0:0|0:0,0:0:0:0:
259,329,41274,6,0,L|239:241,1,90,4|0,1:0|0:0,0:0:0:0:
288,151,41638,1,8,0:0:0:0:
159,329,41820,2,0,L|139:241,1,90,4|2,1:0|0:0,0:0:0:0:
188,151,42183,1,2,1:0:0:0:
239,241,42365,1,14,0:0:0:0:
59,329,42547,6,0,B|42:249|42:249|44:241|44:241|46:232|46:232|29:153,1,180,2|2,0:0|1:0,0:0:0:0:
109,79,43092,1,8,0:0:0:0:
188,151,43274,2,0,P|256:201|324:151,1,180,2|2,1:0|1:0,0:0:0:0:
403,79,43820,1,8,0:0:0:0:
482,153,44001,1,0,0:0:0:0:
342,256,44183,6,0,P|256:280|170:256,1,180,4|8,1:0|0:0,0:0:0:0:
324,151,44729,1,0,0:0:0:0:
256,280,44910,1,2,1:0:0:0:
188,151,45092,1,2,1:0:0:0:
342,256,45274,1,10,0:0:0:0:
170,256,45456,6,0,L|84:228,1,90,2|0,1:0|0:0,0:0:0:0:
342,256,45820,2,0,L|427:228,1,90,2|8,1:0|0:0,0:0:0:0:
324,151,46183,2,0,B|276:140|256:97|256:97|236:140|188:151,1,180,2|2,0:0|1:0,0:0:0:0:
256,232,46729,6,0,B|256:97,1,135,8|0,0:0|0:0,0:0:0:0:
214,38,47092,6,0,P|256:24|298:38,1,90,6|0,1:0|0:0,0:0:0:0:
374,114,47456,1,10,0:0:0:0:
167,284,47638,6,0,B|123:172|123:172|138:114,1,180,6|2,1:0|1:0,0:0:0:0:
324,151,48183,1,10,0:0:0:0:
117,321,48365,6,0,B|73:209|73:209|88:151,1,180,6|2,1:0|1:0,0:0:0:0:
274,188,48910,1,10,0:0:0:0:
67,358,49092,6,0,B|23:246|23:246|38:188,1,180,6|2,1:0|1:0,0:0:0:0:
224,225,49638,1,10,0:0:0:0:
224,225,50001,6,0,P|286:248|348:225,2,135,6|0|2,1:0|0:0|1:0,0:0:0:0:
228,92,50729,2,0,P|290:70|352:93,2,135,10|2|2,0:0|0:0|1:0,0:0:0:0:
160,291,51456,2,0,P|222:314|284:291,2,135,2|2|2,1:0|0:0|1:0,0:0:0:0:
164,158,52183,2,0,P|226:136|288:159,2,135,10|2|2,0:0|0:0|1:0,0:0:0:0:
160,291,52930,5,14,0:0:0:0:
351,92,53111,1,8,0:0:0:0:
351,92,53475,6,0,B|393:76|393:76|435:92,1,90,4|0,3:0|0:0,0:0:0:0:
161,92,53839,2,0,B|119:76|119:76|77:92,1,90,4|0,3:0|0:0,0:0:0:0:
118,192,54202,6,0,P|153:272|118:352,1,180,4|8,3:0|0:0,0:0:0:0:
44,272,54748,1,8,0:0:0:0:
192,112,54930,5,0,0:0:0:0:
204,117,55020,1,0,0:0:0:0:
216,122,55111,1,10,0:0:0:0:
228,127,55202,1,0,0:0:0:0:
240,132,55293,6,0,L|306:118,1,67.5,6|0,1:0|0:0,0:0:0:0:
360,64,55630,6,0,B|336:107|356:147|360:151|364:155|384:195|360:238,1,180,6|0,1:0|1:0,0:0:0:0:
300,328,56174,2,0,B|256:338|256:338|212:328,1,90,8|0,0:0|0:0,0:0:0:0:
151,237,56538,1,2,1:0:0:0:
300,352,56720,2,0,B|256:362|256:362|212:352,1,90,2|8,1:0|0:0,0:0:0:0:
256,92,57083,6,0,B|276:148|276:148|256:266,1,180,6|0,1:0|1:0,0:0:0:0:
203,18,57629,1,8,0:0:0:0:
340,112,57811,1,0,0:0:0:0:
172,112,57992,1,2,1:0:0:0:
309,18,58174,1,0,1:0:0:0:
260,168,58356,1,8,0:0:0:0:
203,18,58538,6,0,B|256:92,1,90,6|0,1:0|0:0,0:0:0:0:
84,168,58901,1,2,1:0:0:0:
207,241,59083,2,0,B|260:167,1,90,8|2,0:0|0:0,0:0:0:0:
88,91,59447,1,2,1:0:0:0:
207,241,59629,1,2,1:0:0:0:
84,168,59811,1,10,0:0:0:0:
203,318,59992,6,0,B|246:342|286:322|290:318|294:314|334:294|377:318,1,180,6|0,1:0|1:0,0:0:0:0:
475,274,60538,2,0,B|483:318|483:318|475:362,1,90,8|0,0:0|1:0,0:0:0:0:
376,230,60901,2,0,B|368:186|368:186|376:142,1,90,2|0,0:0|1:0,0:0:0:0:
475,234,61265,1,10,0:0:0:0:
333,64,61447,6,0,P|256:104|179:64,1,180,6|2,1:0|1:0,0:0:0:0:
256,13,61992,1,8,0:0:0:0:
300,183,62174,2,0,P|256:192|212:183,1,90,6|0,1:0|0:0,0:0:0:0:
47,64,62538,1,2,1:0:0:0:
109,253,62720,1,10,0:0:0:0:
179,64,62901,1,2,1:0:0:0:
5,184,63083,5,2,0:0:0:0:
109,253,63265,2,0,P|120:296|109:339,1,90,0|8,1:0|0:0,0:0:0:0:
80,183,63629,2,0,L|239:265,1,180,2|2,1:0|1:0,0:0:0:0:
401,304,64174,2,0,L|322:263,1,90,10|2,0:0|1:0,0:0:0:0:
145,54,64538,6,0,P|134:97|145:140,1,90,2|0,1:0|1:0,0:0:0:0:
367,140,64901,2,0,P|378:97|367:54,1,90,14|0,0:0|0:0,0:0:0:0:
210,97,65265,2,0,P|199:140|210:183,1,90,2|0,1:0|1:0,0:0:0:0:
302,183,65629,2,0,P|313:140|302:97,1,90,14|0,0:0|0:0,0:0:0:0:
145,226,65992,5,2,1:0:0:0:
367,226,66174,1,2,1:0:0:0:
175,313,66356,1,12,0:0:0:0:
212,338,66447,1,0,0:0:0:0:
256,347,66538,1,0,0:0:0:0:
300,338,66629,1,0,0:0:0:0:
337,313,66720,5,8,0:0:0:0:
256,140,66901,1,4,1:0:0:0:
256,140,67265,6,0,B|256:184|256:184|260:192|260:192|252:192|252:192|256:200|256:200|256:240|256:240|260:248|260:248|252:248|252:248|256:256|256:256|256:300,1,180,6|0,1:0|1:0,0:0:0:0:
172,192,67811,1,8,0:0:0:0:
256,376,67992,1,0,0:0:0:0:
256,376,68083,1,0,0:0:0:0:
256,376,68174,1,2,1:0:0:0:
340,192,68356,1,2,1:0:0:0:
256,300,68538,1,8,0:0:0:0:
172,192,68720,6,0,B|152:152|152:152|152:106,1,90,6|0,1:0|0:0,0:0:0:0:
256,76,69083,1,0,1:0:0:0:
360,106,69265,2,0,B|360:152|360:152|340:192,1,90,8|0,0:0|0:0,0:0:0:0:
256,260,69629,1,2,1:0:0:0:
172,192,69811,1,0,1:0:0:0:
172,192,69901,1,0,0:0:0:0:
172,192,69992,1,8,0:0:0:0:
256,340,70174,6,0,B|304:340|336:375|336:375|368:340|416:340,1,180,6|2,1:0|1:0,0:0:0:0:
256,260,70720,1,8,0:0:0:0:
336,376,70901,1,2,0:0:0:0:
416,260,71083,1,2,1:0:0:0:
256,340,71265,1,2,1:0:0:0:
415,340,71447,1,10,0:0:0:0:
336,224,71629,6,0,B|304:164|336:104|336:104|336:49,1,180,6|0,1:0|1:0,0:0:0:0:
498,126,72174,2,0,B|455:138|455:138|412:126,1,90,8|0,0:0|1:0,0:0:0:0:
249,49,72538,2,0,B|292:37|292:37|335:49,1,90,2|0,0:0|1:0,0:0:0:0:
411,125,72901,1,10,0:0:0:0:
256,260,73083,6,0,B|198:202|198:202|190:199|190:199|181:197|181:197|124:139,1,180,6|2,1:0|1:0,0:0:0:0:
47,216,73629,1,8,0:0:0:0:
124,292,73811,2,0,P|135:335|124:378,1,90,2|0,1:0|0:0,0:0:0:0:
47,216,74174,1,2,1:0:0:0:
123,378,74356,1,10,0:0:0:0:
201,216,74538,1,2,1:0:0:0:
124,292,74720,5,2,0:0:0:0:
201,130,74901,2,0,L|232:45,1,90,0|8,1:0|0:0,0:0:0:0:
277,173,75265,2,0,L|214:341,1,180,2|2,1:0|1:0,0:0:0:0:
124,292,75811,1,10,0:0:0:0:
316,344,75992,1,2,1:0:0:0:
316,344,76083,1,0,0:0:0:0:
316,344,76174,6,0,B|372:344|372:344|400:363|400:363|428:344|428:344|484:344,1,180,14|10,0:0|0:0,0:0:0:0:
400,276,76720,1,0,1:0:0:0:
484,208,76901,2,0,B|428:208|428:208|400:189|400:189|372:208|372:208|316:208,1,180,14|10,0:0|0:0,0:0:0:0:
400,276,77447,1,0,1:0:0:0:
452,132,77629,6,0,P|400:72|348:132,1,180,14|10,0:0|0:0,0:0:0:0:
197,208,78174,2,0,B|236:228|256:273|256:273|276:228|315:208,1,180,2|0,1:0|1:0,0:0:0:0:
163,132,78720,2,0,P|121:118|79:132,1,90,8|0,0:0|0:0,0:0:0:0:
197,208,79083,6,0,B|245:132|245:132|197:56,1,180,4|8,1:0|0:0,0:0:0:0:
284,208,79629,6,0,B|332:132|332:132|284:56,1,180,4|0,1:0|1:0,0:0:0:0:
163,132,80174,1,8,0:0:0:0:
371,208,80356,6,0,B|419:132|419:132|371:56,1,180,4|0,1:0|1:0,0:0:0:0:
267,89,80901,2,0,P|256:132|267:175,1,90,8|0,0:0|0:0,0:0:0:0:
432,340,81265,2,0,P|451:276|432:212,1,135,0|0,1:0|1:0,0:0:0:0:
393,173,81629,1,8,0:0:0:0:
351,276,81811,1,0,0:0:0:0:
351,276,81901,1,0,0:0:0:0:
351,276,81993,5,14,0:0:0:0:
220,372,82174,1,0,1:0:0:0:
262,292,82356,2,0,L|351:276,1,90,10|0,0:0|1:0,0:0:0:0:
220,212,82720,5,10,0:0:0:0:
89,308,82902,1,0,1:0:0:0:
131,228,83083,2,0,L|220:212,1,90,10|0,0:0|1:0,0:0:0:0:
89,148,83447,5,10,0:0:0:0:
262,292,83629,2,0,L|351:276,1,90,2|8,1:0|0:0,0:0:0:0:
250,92,83993,2,0,L|161:108,1,90,2|8,1:0|0:0,0:0:0:0:
256,192,84379,5,2,1:0:0:0:
278,188,84469,1,0,1:0:0:0:
300,184,84560,1,8,0:0:0:0:
322,180,84651,1,0,1:0:0:0:
344,176,84742,1,8,0:0:0:0:
366,172,84833,1,8,0:0:0:0:
388,168,84925,6,0,P|424:248|388:328,1,180,4|8,1:0|0:0,0:0:0:0:
316,248,85470,1,0,0:0:0:0:
244,328,85652,2,0,P|202:342|160:328,1,90,8|0,0:0|1:0,0:0:0:0:
22,248,86015,2,0,P|64:234|106:248,1,90,10|0,0:0|1:0,0:0:0:0:
160,168,86379,6,0,B|192:212|192:212|192:284|192:284|160:328,1,180,10|10,0:0|0:0,0:0:0:0:
352,168,86925,2,0,B|320:212|320:212|320:284|320:284|352:328,1,180,6|0,1:0|1:0,0:0:0:0:
256,165,87426,1,10,0:0:0:0:
256,328,87607,5,6,1:0:0:0:
256,192,87698,12,0,89244,0:0:0:0:
