osu file format v14

[General]
AudioFilename: audio.mp3
AudioLeadIn: 0
PreviewTime: 54995
Countdown: 0
SampleSet: Soft
StackLeniency: 0.7
Mode: 0
LetterboxInBreaks: 0
WidescreenStoryboard: 0

[Editor]
Bookmarks: 991,89244
DistanceSpacing: 1
BeatDivisor: 8
GridSize: 4
TimelineZoom: 1

[Metadata]
Title:CLEAR
TitleUnicode:CLEAR
Artist:Maaya Sakamoto
ArtistUnicode:坂本真綾
Creator:Gero
Version:Expert
Source:カードキャプターさくら クリアカード編
Tags:Cardcaptor Captor Sakura Clear Card Lanturn -Sh1n1- Sekaii Sekai-nyan Sotarks Opening TV Size
BeatmapID:1517522
BeatmapSetID:718454

[Difficulty]
HPDrainRate:8
CircleSize:4
OverallDifficulty:8
ApproachRate:9
SliderMultiplier:1.8
SliderTickRate:1

[Events]
//Background and Video events
Video,-227,"Video.avi"
0,0,"BGero3.jpg",0,0
//Break Periods
//Storyboard Layer 0 (Background)
//Storyboard Layer 1 (Fail)
//Storyboard Layer 2 (Pass)
//Storyboard Layer 3 (Foreground)
//Storyboard Sound Samples

[TimingPoints]
991,769.230769230769,4,2,22,50,1,0
991,-83.3333333333333,4,2,22,50,0,0
17721,-87.719298245614,4,2,22,60,0,0
20361,363.636363636364,4,2,22,60,1,0
20542,363.636363636364,4,2,22,60,1,0
20930,363.636363636364,4,2,22,80,1,0
22729,363.636363636364,4,2,22,80,1,0
23820,363.636363636364,4,2,22,80,1,0
39638,-133.333333333333,4,2,22,70,0,0
39683,-133.333333333333,4,2,22,5,0,0
40001,-79.9999999999999,4,2,22,70,0,0
40047,-79.9999999999999,4,2,22,5,0,0
40365,-68.9655172413793,4,2,22,70,0,0
40410,-68.9655172413793,4,2,22,5,0,0
40729,-60.6060606060606,4,2,22,70,0,0
40774,-60.6060606060606,4,2,22,5,0,0
40910,-50,4,2,22,70,0,0
40956,-50,4,2,22,5,0,0
41274,-100,4,2,22,80,0,0
52930,363.636363636364,4,2,22,80,1,0
55293,-200,4,2,22,80,0,0
55339,-200,4,2,22,5,0,0
55630,363.636363636364,4,2,22,90,1,1
55630,-100,4,2,22,90,0,1
55811,363.636363636364,4,2,22,90,1,1
55811,-100,4,2,22,90,0,1
67174,-100,4,2,22,90,0,0
67265,-100,4,2,22,90,0,1
79083,-100,4,2,22,90,0,0
81993,363.636363636364,4,2,22,90,1,0
84379,363.636363636364,4,2,22,90,1,0
84925,363.636363636364,4,2,22,90,1,0
87426,363.636363636364,5,2,22,90,1,0
87698,-100,4,2,22,5,0,0

[Colours]
Combo1 : 60,202,84
Combo2 : 218,166,46
Combo3 : 137,133,131
Combo4 : 255,74,165

[HitObjects]
140,140,991,6,0,P|100:257|60:140,1,323.999990112305,2|0,0:0|0:0,0:0:0:0:
216,88,2337,5,2,0:0:0:0:
216,88,2433,1,2,0:0:0:0:
216,88,2529,2,0,B|244:116|256:157|256:157|268:116|296:88,1,161.999995056153
364,19,3298,1,2,0:0:0:0:
432,88,3490,2,0,P|444:140|432:192,1,107.999996704102,2|0,0:0|0:0,0:0:0:0:
364,365,4067,6,0,P|352:313|364:261,1,107.999996704102,6|0,0:0|0:0,0:0:0:0:
431,192,4644,1,0,0:0:0:0:
364,260,4837,1,2,0:0:0:0:
297,192,5029,2,0,B|272:184|256:159|256:159|240:184|215:192,1,107.999996704102,2|0,0:0|0:0,0:0:0:0:
65,260,5606,6,0,B|90:268|106:293|106:293|122:268|147:260,1,107.999996704102,2|0,0:0|0:0,0:0:0:0:
215,329,6183,1,0,0:0:0:0:
147,259,6375,1,2,0:0:0:0:
215,329,6567,2,0,L|264:350,1,53.9999983520508,2|0,0:0|0:0,0:0:0:0:
348,304,6952,1,2,0:0:0:0:
215,192,7144,6,0,L|264:213,1,53.9999983520508,0|0,0:0|0:0,0:0:0:0:
397,145,7529,2,0,L|348:167,1,53.9999983520508,2|2,0:0|0:0,0:0:0:0:
215,101,7914,2,0,L|264:122,1,53.9999983520508,2|0,0:0|0:0,0:0:0:0:
397,54,8298,2,0,L|347:75,1,53.9999983520508,2|2,0:0|0:0,0:0:0:0:
215,10,8683,6,0,L|115:52,1,107.999996704102,2|0,0:0|0:0,0:0:0:0:
215,218,9452,2,0,P|220:192|215:166,2,53.9999983520508,2|0|0,0:0|0:0|0:0,0:0:0:0:
146,286,10029,1,2,0:0:0:0:
77,218,10221,5,0,0:0:0:0:
146,286,10414,2,0,B|174:314|174:314|177:323|177:323|183:317|183:317|186:326|186:326|215:355,1,107.999996704102,2|2,0:0|0:0,0:0:0:0:
55,308,10990,2,0,L|40:360,1,53.9999983520508,0|2,0:0|0:0,0:0:0:0:
168,195,11375,2,0,L|220:180,1,53.9999983520508,2|2,0:0|0:0,0:0:0:0:
77,218,11760,5,2,0:0:0:0:
146,286,11952,2,0,B|175:315|175:315|178:324|178:324|184:318|184:318|187:327|187:327|215:355,1,107.999996704102,0|2,0:0|0:0,0:0:0:0:
337,285,12529,2,0,L|283:285,1,53.9999983520508,0|2,0:0|0:0,0:0:0:0:
405,216,12914,2,0,L|459:216,1,53.9999983520508,0|2,0:0|0:0,0:0:0:0:
337,147,13298,6,0,L|229:147,1,107.999996704102,2|2,0:0|0:0,0:0:0:0:
74,45,14067,2,0,P|89:96|74:147,1,107.999996704102,2|2,0:0|0:0,0:0:0:0:
151,375,14837,6,0,P|136:324|151:273,1,107.999996704102,2|2,0:0|0:0,0:0:0:0:
232,324,15414,1,2,0:0:0:0:
251,335,15798,1,0,0:0:0:0:
363,86,16375,6,0,L|343:192,1,107.999996704102,2|0,0:0|0:0,0:0:0:0:
271,224,16952,2,0,P|343:192|415:224,1,161.999995056153,2|2,0:0|0:0,0:0:0:0:
343,292,17721,6,0,P|415:125|487:292,1,461.699994364014,2|0,0:0|0:0,0:0:0:0:
415,224,20361,5,0,1:0:0:0:
403,192,20451,1,0,1:0:0:0:
404,158,20542,1,12,0:0:0:0:
415,127,20632,1,0,1:0:0:0:
426,96,20723,2,0,P|430:74|426:52,1,45,0|0,1:0|1:0,0:0:0:0:
404,10,20930,5,10,0:0:0:0:
306,74,21111,1,0,1:0:0:0:
504,169,21293,2,0,L|515:79,1,90,10|0,0:0|1:0,0:0:0:0:
306,74,21657,5,10,0:0:0:0:
208,138,21839,1,0,1:0:0:0:
406,233,22020,2,0,L|417:143,1,90,10|0,0:0|1:0,0:0:0:0:
208,138,22384,5,10,0:0:0:0:
308,297,22566,1,2,1:0:0:0:
110,202,22729,1,6,0:0:0:0:
406,307,22910,1,2,1:0:0:0:
418,325,23001,1,0,1:0:0:0:
430,343,23092,5,12,0:0:0:0:
394,359,23183,1,0,1:0:0:0:
355,364,23274,1,2,0:0:0:0:
316,358,23365,1,0,1:0:0:0:
280,343,23456,5,0,1:0:0:0:
244,328,23547,1,0,1:0:0:0:
205,322,23638,1,10,0:0:0:0:
166,327,23729,1,8,0:0:0:0:
129,341,23819,6,0,P|45:325|11:246,1,180,4|8,1:0|0:0,0:0:0:0:
248,171,24365,1,0,0:0:0:0:
100,257,24547,2,0,L|66:173,1,90,8|0,0:0|1:0,0:0:0:0:
193,88,24910,2,0,L|160:172,1,90,10|0,0:0|0:0,0:0:0:0:
45,326,25274,5,10,0:0:0:0:
32,89,25456,1,0,1:0:0:0:
220,256,25638,1,10,0:0:0:0:
145,19,25820,6,0,P|231:14|275:88,1,180,2|0,1:0|1:0,0:0:0:0:
476,192,26365,1,10,0:0:0:0:
362,281,26547,2,0,B|374:221|374:221|354:165|354:165|365:106,1,180,2|0,1:0|1:0,0:0:0:0:
429,34,27092,6,0,P|454:70|462:114,1,90,8|0,0:0|1:0,0:0:0:0:
298,353,27456,2,0,P|272:316|264:272,1,90,8|0,0:0|1:0,0:0:0:0:
365,106,27820,2,0,P|390:142|398:186,1,90,10|0,0:0|1:0,0:0:0:0:
149,133,28183,6,0,P|235:120|297:182,1,180,4|12,3:0|0:0,0:0:0:0:
201,377,28729,1,0,1:0:0:0:
201,377,28820,1,0,1:0:0:0:
201,377,28910,2,0,B|194:350|194:350|205:320|205:320|198:291,1,90,8|0,3:0|0:0,0:0:0:0:
149,133,29274,1,8,0:0:0:0:
362,281,29456,1,0,3:0:0:0:
512,141,29638,6,0,B|401:117|401:117|338:138,1,180,4|10,1:0|0:0,0:0:0:0:
404,216,30183,1,0,0:0:0:0:
339,50,30365,1,2,0:0:0:0:
280,216,30547,1,2,1:0:0:0:
424,120,30729,1,8,0:0:0:0:
251,112,30910,6,0,P|208:102|177:70,1,90,2|0,1:0|1:0,0:0:0:0:
424,40,31274,2,0,P|467:49|498:81,1,90,2|8,0:0|0:0,0:0:0:0:
427,286,31638,2,0,B|399:222|399:222|438:180|424:120,1,180,2|2,1:0|1:0,0:0:0:0:
333,153,32183,1,8,0:0:0:0:
512,228,32365,1,2,0:0:0:0:
336,52,32547,6,0,B|272:40|272:40|224:56|224:56|160:44,1,180,0|10,1:0|0:0,0:0:0:0:
80,148,33092,2,0,L|168:162,1,90,2|0,1:0|0:0,0:0:0:0:
264,256,33456,2,0,L|175:270,1,90,2|8,1:0|0:0,0:0:0:0:
8,336,33820,6,0,L|185:365,1,180,2|2,0:0|0:0,0:0:0:0:
264,256,34365,1,10,0:0:0:0:
175,270,34547,1,0,0:0:0:0:
360,332,34729,1,2,1:0:0:0:
271,346,34910,1,0,1:0:0:0:
354,242,35092,2,0,P|397:249|432:277,1,90,10|0,0:0|3:0,0:0:0:0:
264,256,35456,6,0,B|286:223|280:172|280:172|330:179|361:139,1,180,4|8,1:0|0:0,0:0:0:0:
480,48,36001,1,2,1:0:0:0:
436,192,36183,1,2,0:0:0:0:
380,48,36365,1,2,1:0:0:0:
512,140,36547,1,10,0:0:0:0:
307,79,36729,6,0,B|264:55|224:75|220:79|216:83|176:103|133:79,1,180,2|2,1:0|1:0,0:0:0:0:
52,128,37274,1,8,0:0:0:0:
144,252,37456,2,0,B|164:196|164:196|134:80,1,180,2|2,1:0|1:0,0:0:0:0:
64,264,38001,2,0,P|84:308|124:328,1,90,10|0,0:0|0:0,0:0:0:0:
296,204,38365,6,0,P|276:160|236:140,1,90,2|0,1:0|1:0,0:0:0:0:
144,252,38729,1,8,0:0:0:0:
216,216,38910,1,2,0:0:0:0:
148,170,39092,1,2,1:0:0:0:
212,298,39274,2,0,L|253:377,1,90,2|8,1:0|0:0,0:0:0:0:
429,297,39638,6,0,L|382:207,1,101.250003862381,6|0,1:0|0:0,0:0:0:0:
400,128,40001,6,0,P|384:204|306:208,1,168.75,6|0,1:0|0:0,0:0:0:0:
236,168,40365,6,0,B|236:224|236:224|248:248|248:248|248:280|248:280|236:304|236:304|236:360,1,195.750005973816,6|0,1:0|0:0,0:0:0:0:
174,264,40729,6,0,L|248:264,1,74.2500007081032,2|0,1:0|0:0,0:0:0:0:
348,356,40910,6,0,L|78:356,1,270,14|0,0:0|0:0,0:0:0:0:
16,280,41274,6,0,P|57:261|102:263,1,90,4|0,1:0|0:0,0:0:0:0:
78,356,41638,1,8,0:0:0:0:
46,182,41820,2,0,P|54:138|83:105,1,90,4|2,1:0|0:0,0:0:0:0:
192,224,42183,1,2,1:0:0:0:
130,174,42365,1,14,0:0:0:0:
276,216,42547,6,0,P|240:294|154:301,1,180,2|2,0:0|1:0,0:0:0:0:
46,182,43092,1,8,0:0:0:0:
189,49,43274,2,0,B|200:108|200:108|180:164|180:164|192:224,1,180,2|2,1:0|1:0,0:0:0:0:
85,14,43820,2,0,L|103:102,1,90,8|0,0:0|0:0,0:0:0:0:
309,185,44183,6,0,P|385:175|348:108,1,180,4|8,1:0|0:0,0:0:0:0:
260,108,44729,1,0,0:0:0:0:
308,280,44910,1,2,1:0:0:0:
203,199,45092,1,2,1:0:0:0:
252,356,45274,1,10,0:0:0:0:
203,199,45456,6,0,P|126:208|163:275,1,180,4|2,1:0|1:0,0:0:0:0:
252,276,46001,1,8,0:0:0:0:
204,104,46183,1,2,0:0:0:0:
309,185,46365,1,0,1:0:0:0:
260,28,46547,1,2,1:0:0:0:
387,97,46729,2,0,B|403:81|426:77|426:77|403:73|387:57,1,90,8|0,0:0|0:0,0:0:0:0:
501,39,47092,6,0,P|510:82|495:124,1,90,6|0,1:0|0:0,0:0:0:0:
422,192,47456,1,10,0:0:0:0:
504,344,47638,2,0,P|488:268|420:305,1,180,6|2,1:0|1:0,0:0:0:0:
325,141,48183,1,10,0:0:0:0:
255,290,48365,6,0,P|269:366|338:332,1,180,6|2,1:0|1:0,0:0:0:0:
244,205,48910,1,10,0:0:0:0:
96,219,49092,2,0,P|110:296|179:260,1,180,6|2,1:0|1:0,0:0:0:0:
44,136,49638,1,10,0:0:0:0:
256,64,50001,6,0,B|288:16|336:16|336:16|373:16,2,135,6|0|2,0:0|0:0|1:0,0:0:0:0:
340,116,50729,2,0,B|395:116|395:116|403:120|403:120|403:112|403:112|411:116|411:116|466:116,2,135,10|2|2,0:0|0:0|1:0,0:0:0:0:
172,268,51456,2,0,B|117:268|117:268|109:272|109:272|109:264|109:264|101:268|101:268|46:268,2,135,2|2|2,1:0|0:0|1:0,0:0:0:0:
256,320,52183,2,0,B|224:368|176:368|176:368|139:368,2,135,10|2|2,0:0|0:0|1:0,0:0:0:0:
340,116,52930,5,14,0:0:0:0:
84,306,53111,1,8,0:0:0:0:
84,306,53475,6,0,B|68:264|68:264|84:222,1,90,4|0,3:0|0:0,0:0:0:0:
168,264,53839,2,0,B|184:306|184:306|168:348,1,90,4|0,3:0|0:0,0:0:0:0:
272,192,54202,6,0,P|352:157|432:192,1,180,4|8,3:0|0:0,0:0:0:0:
352,348,54748,1,8,0:0:0:0:
196,192,54930,5,0,0:0:0:0:
186,182,55020,1,0,0:0:0:0:
176,172,55111,1,10,0:0:0:0:
166,162,55202,1,0,0:0:0:0:
156,152,55293,6,0,L|104:100,1,67.5,6|0,1:0|0:0,0:0:0:0:
53,53,55630,6,0,B|89:89|89:89|62:215,1,180,6|0,1:0|1:0,0:0:0:0:
214,103,56174,2,0,B|196:192,1,90,8|0,0:0|0:0,0:0:0:0:
153,18,56538,1,2,1:0:0:0:
275,188,56720,2,0,B|257:277,1,90,2|8,1:0|0:0,0:0:0:0:
214,103,57083,6,0,B|390:138,1,180,6|0,1:0|1:0,0:0:0:0:
189,22,57629,2,0,P|152:46|132:86,1,90,8|0,0:0|0:0,0:0:0:0:
275,188,57992,1,2,1:0:0:0:
214,103,58174,2,0,B|196:192,1,90,0|8,1:0|0:0,0:0:0:0:
400,278,58538,6,0,B|374:192,1,90,6|0,1:0|0:0,0:0:0:0:
329,43,58901,1,2,1:0:0:0:
460,165,59083,1,8,0:0:0:0:
415,16,59265,1,2,0:0:0:0:
374,192,59447,1,2,1:0:0:0:
480,78,59629,1,2,1:0:0:0:
308,130,59811,1,10,0:0:0:0:
481,333,59992,6,0,B|500:262|500:262|459:164,1,180,6|0,1:0|1:0,0:0:0:0:
308,254,60538,2,0,B|342:337,1,90,8|0,0:0|1:0,0:0:0:0:
459,164,60901,2,0,B|424:247,1,90,2|0,0:0|1:0,0:0:0:0:
308,130,61265,1,10,0:0:0:0:
88,192,61447,6,0,P|165:232|242:192,1,180,6|2,1:0|1:0,0:0:0:0:
165,141,61992,1,8,0:0:0:0:
121,311,62174,2,0,P|165:320|209:311,1,90,6|0,1:0|0:0,0:0:0:0:
384,192,62538,1,2,1:0:0:0:
322,383,62720,1,10,0:0:0:0:
242,192,62901,1,2,1:0:0:0:
436,312,63083,5,2,0:0:0:0:
322,149,63265,2,0,P|311:192|322:235,1,90,0|8,1:0|0:0,0:0:0:0:
384,106,63629,2,0,L|206:135,1,180,2|2,1:0|1:0,0:0:0:0:
47,69,64174,2,0,L|136:84,1,90,10|2,0:0|1:0,0:0:0:0:
448,80,64538,6,0,P|420:45|378:28,1,90,2|0,1:0|1:0,0:0:0:0:
122,161,64901,2,0,P|149:195|191:212,1,90,14|0,0:0|0:0,0:0:0:0:
378,28,65265,2,0,L|289:42,1,90,2|0,1:0|1:0,0:0:0:0:
191,212,65629,2,0,L|279:197,1,90,14|0,0:0|0:0,0:0:0:0:
481,333,65992,5,2,1:0:0:0:
256,120,66174,1,2,1:0:0:0:
367,278,66356,1,12,0:0:0:0:
392,241,66447,1,0,0:0:0:0:
401,197,66538,1,0,0:0:0:0:
392,153,66629,1,0,0:0:0:0:
367,116,66720,5,8,0:0:0:0:
279,358,66901,1,4,1:0:0:0:
272,374,67265,6,0,L|449:344,1,180,6|0,1:0|1:0,0:0:0:0:
276,268,67811,1,8,0:0:0:0:
368,249,67992,1,0,0:0:0:0:
368,249,68083,1,0,0:0:0:0:
368,249,68174,1,2,1:0:0:0:
187,282,68356,2,0,B|200:316|200:316|185:368,1,90,2|8,1:0|0:0,0:0:0:0:
84,263,68720,6,0,P|132:191|219:183,1,180,6|0,1:0|1:0,0:0:0:0:
379,192,69265,2,0,P|337:206|293:201,1,90,8|0,0:0|0:0,0:0:0:0:
187,283,69629,1,2,1:0:0:0:
276,108,69811,1,0,1:0:0:0:
276,108,69901,1,0,0:0:0:0:
276,108,69992,1,8,0:0:0:0:
131,208,70174,6,0,B|139:176|163:152|163:152|107:180|51:152,1,180,6|2,1:0|1:0,0:0:0:0:
107,80,70720,1,8,0:0:0:0:
40,254,70901,1,2,0:0:0:0:
52,152,71083,1,2,1:0:0:0:
119,326,71265,1,2,1:0:0:0:
40,254,71447,1,10,0:0:0:0:
214,321,71629,6,0,B|257:345|297:325|301:321|305:317|345:297|388:321,1,180,6|0,1:0|1:0,0:0:0:0:
256,240,72174,1,8,0:0:0:0:
336,168,72356,1,0,1:0:0:0:
176,200,72538,1,2,0:0:0:0:
256,128,72720,1,0,1:0:0:0:
96,160,72901,1,10,0:0:0:0:
227,27,73083,6,0,L|176:200,1,180,6|2,1:0|1:0,0:0:0:0:
128,80,73629,1,8,0:0:0:0:
255,240,73811,2,0,P|226:273|184:287,1,90,2|0,1:0|0:0,0:0:0:0:
176,200,74174,1,2,1:0:0:0:
260,348,74356,1,10,0:0:0:0:
336,200,74538,1,2,1:0:0:0:
184,287,74720,5,2,0:0:0:0:
256,144,74901,2,0,P|266:188|254:230,1,90,0|8,1:0|0:0,0:0:0:0:
212,76,75265,2,0,B|255:52|295:72|299:76|303:80|343:100|386:76,1,180,2|2,1:0|1:0,0:0:0:0:
254,230,75811,2,0,P|244:186|256:144,1,90,10|2,0:0|1:0,0:0:0:0:
456,32,76174,6,0,P|466:75|454:118,1,90,14|0,0:0|1:0,0:0:0:0:
184,275,76538,2,0,P|173:231|185:188,1,90,10|0,0:0|1:0,0:0:0:0:
385,76,76901,2,0,P|395:119|383:162,1,90,14|0,0:0|1:0,0:0:0:0:
114,320,77265,2,0,P|103:276|115:233,1,90,10|0,0:0|1:0,0:0:0:0:
315,121,77629,6,0,P|343:205|315:289,1,180,14|10,0:0|0:0,0:0:0:0:
226,117,78174,2,0,B|306:124|306:124|323:117|323:117|404:124,1,180,2|0,1:0|1:0,0:0:0:0:
476,52,78720,1,8,0:0:0:0:
332,308,78901,5,0,0:0:0:0:
332,308,78992,1,0,0:0:0:0:
332,308,79083,2,0,L|339:219,1,90,4|0,1:0|0:0,0:0:0:0:
403,123,79447,1,8,0:0:0:0:
139,138,79629,6,0,P|160:55|243:31,1,180,4|0,1:0|1:0,0:0:0:0:
332,140,80174,1,8,0:0:0:0:
57,163,80356,2,0,P|77:79|160:55,1,180,4|0,1:0|1:0,0:0:0:0:
226,117,80901,5,8,0:0:0:0:
57,163,81083,1,0,0:0:0:0:
155,201,81265,2,0,B|169:242|169:242|145:330,1,135,0|0,1:0|1:0,0:0:0:0:
136,376,81629,1,8,0:0:0:0:
256,192,81811,1,0,0:0:0:0:
256,192,81901,1,0,0:0:0:0:
256,192,81993,5,14,0:0:0:0:
328,260,82174,1,0,1:0:0:0:
456,136,82356,2,0,L|373:171,1,90,10|0,0:0|1:0,0:0:0:0:
184,124,82720,5,10,0:0:0:0:
256,192,82902,1,0,1:0:0:0:
384,68,83083,2,0,L|301:103,1,90,10|0,0:0|1:0,0:0:0:0:
112,56,83447,5,10,0:0:0:0:
312,0,83629,2,0,L|229:35,1,90,2|8,1:0|0:0,0:0:0:0:
101,159,83993,2,0,L|183:123,1,90,2|8,1:0|0:0,0:0:0:0:
24,104,84379,5,2,1:0:0:0:
9,138,84469,1,0,1:0:0:0:
9,175,84560,1,8,0:0:0:0:
24,209,84651,1,0,1:0:0:0:
51,235,84742,1,8,0:0:0:0:
86,248,84833,1,8,0:0:0:0:
123,247,84925,6,0,P|139:288|131:331,1,90,4|0,1:0|0:0,0:0:0:0:
101,158,85288,2,0,P|145:158|184:180,1,90,8|0,0:0|0:0,0:0:0:0:
24,103,85652,2,0,P|55:73|99:62,1,90,8|0,0:0|1:0,0:0:0:0:
123,247,86015,1,10,0:0:0:0:
101,158,86197,1,0,1:0:0:0:
204,267,86379,6,0,P|141:326|59:301,1,180,10|10,0:0|0:0,0:0:0:0:
284,208,86925,2,0,B|299:266|299:266|283:323|283:323|299:382,1,180,6|0,1:0|1:0,0:0:0:0:
204,267,87426,1,10,0:0:0:0:
379,322,87607,5,6,1:0:0:0:
256,192,87698,12,0,89244,0:0:0:0:
