osu file format v14

[General]
AudioFilename: audio.mp3
AudioLeadIn: 0
PreviewTime: 25309
Countdown: 0
SampleSet: Soft
StackLeniency: 0.3
Mode: 0
LetterboxInBreaks: 0
WidescreenStoryboard: 1

[Editor]
DistanceSpacing: 1
BeatDivisor: 4
GridSize: 32
TimelineZoom: 2.6

[Metadata]
Title:re[in]flaw
TitleUnicode:re[in]flaw
Artist:MYUKKE.
ArtistUnicode:MYUKKE.
Creator:captin1
Version:Normal
Source:
Tags:fa featured artist anna apple toybot vikala meiikyuu drumstep dubstep electronic instrumental reinflaw
BeatmapID:2785318
BeatmapSetID:1344871

[Difficulty]
HPDrainRate:2
CircleSize:3.3
OverallDifficulty:4
ApproachRate:5
SliderMultiplier:0.999999999999999
SliderTickRate:1

[Events]
//Background and Video events
0,0,"87195968_p0.jpg",0,0
//Break Periods
2,48186,51254
//Storyboard Layer 0 (Background)
//Storyboard Layer 1 (Fail)
//Storyboard Layer 2 (Pass)
//Storyboard Layer 3 (Foreground)
//Storyboard Layer 4 (Overlay)
//Storyboard Sound Samples

[TimingPoints]
2810,352.941176470588,4,2,0,60,1,0
13751,-100,4,2,1,60,0,0
14104,-100,4,2,1,70,0,0
22927,-100,4,2,1,80,0,0
23633,-100,4,2,1,70,0,0
23986,-100,4,2,1,60,0,0
25398,-100,4,2,1,90,0,0
30692,-100,4,2,1,50,0,0
30868,-100,4,2,1,70,0,0
31045,-100,4,2,1,90,0,0
35280,-100,4,2,1,80,0,0
36692,-100,4,2,1,90,0,0
39338,-100,4,2,1,60,0,0
39515,-100,4,2,1,90,0,0
41854,-100,4,2,1,50,0,0
42339,-100,4,2,1,90,0,0
44985,-100,4,2,1,60,0,0
45162,-100,4,2,1,90,0,0
46574,-100,4,2,1,80,0,0
47633,-100,4,2,1,70,0,0
52574,-100,4,2,1,60,0,0
59632,-100,4,2,0,60,0,0
70574,-100,4,2,1,70,0,0
71986,-100,4,2,1,80,0,0
76221,-100,4,2,1,70,0,0
79398,-100,4,2,1,75,0,0
79751,-100,4,2,1,80,0,0
80457,-100,4,2,1,60,0,0
81868,-100,4,2,1,90,0,0
87162,-100,4,2,1,70,0,0
87515,-100,4,2,1,90,0,0
98457,-100,4,2,1,70,0,0
98810,-100,4,2,1,90,0,0
101456,-100,4,2,1,70,0,0
101633,-100,4,2,1,90,0,0
103045,-100,4,2,1,80,0,0
104104,-100,4,2,0,60,0,0
104457,-100,4,2,1,60,0,0

[Colours]
Combo1 : 255,0,0
Combo2 : 192,192,192
Combo3 : 128,128,128
Combo4 : 255,128,128
Combo5 : 128,255,255
Combo6 : 128,0,255
Combo7 : 255,0,128

[HitObjects]
73,310,2810,6,0,L|176:318,1,99.9999999999999,6|2,2:0|2:3,2:0:0:0:
208,353,3339,2,0,P|250:321|243:221,1,150,2|2,2:0|2:0,2:0:0:0:
179,159,4221,2,0,L|76:151,1,99.9999999999999,2|2,2:0|2:3,2:0:0:0:
79,50,4927,1,2,2:0:0:0:
170,9,5280,1,2,2:0:0:0:
240,79,5633,6,0,P|292:79|343:66,1,99.9999999999999,2|2,2:0|2:3,2:0:0:0:
373,32,6162,2,0,L|357:193,1,150,2|2,2:0|2:0,2:0:0:0:
458,181,7045,2,0,L|468:289,1,99.9999999999999,2|2,2:0|2:3,2:0:0:0:
396,351,7751,1,2,2:0:0:0:
325,280,8104,1,2,2:0:0:0:
224,280,8457,5,2,2:0:0:0:
276,194,8810,1,10,2:0:0:0:
276,194,8986,2,0,P|266:157|254:44,1,150,2|10,2:0|2:0,2:0:0:0:
164,2,9868,2,0,P|157:41|138:109,1,99.9999999999999,2|10,2:0|2:0,2:0:0:0:
44,126,10574,1,2,2:0:0:0:
72,221,10927,1,10,2:0:0:0:
99,317,11280,5,2,2:0:0:0:
198,291,11633,1,10,2:0:0:0:
198,291,11810,2,0,P|227:325|335:319,1,150,2|10,2:0|2:0,2:0:0:0:
384,244,12692,2,0,P|420:255|471:296,2,99.9999999999999,2|10|2,2:0|2:0|2:0,2:0:0:0:
285,229,13751,1,10,2:0:0:0:
269,130,14104,6,0,L|252:31,1,99.9999999999999,6|8,3:1|1:0,2:0:0:0:
201,30,14633,2,2,P|150:44|102:78,1,99.9999999999999,2|2,2:1|3:2,2:1:0:0:
92,117,15162,1,10,1:0:0:0:
136,208,15515,2,0,L|146:258,2,50,2|2|8,3:1|2:0|1:0,2:0:0:0:
43,247,16221,1,2,2:0:0:0:
81,339,16574,1,10,1:0:0:0:
180,332,16927,86,0,P|217:347|282:358,1,99.9999999999999,2|8,3:1|1:0,2:0:0:0:
314,325,17457,2,2,L|421:311,1,99.9999999999999,2|2,2:1|3:2,2:1:0:0:
446,274,17986,1,10,1:0:0:0:
389,191,18339,1,2,3:1:0:0:
431,100,18692,1,8,1:0:0:0:
431,100,18868,1,2,0:1:0:0:
401,10,19221,1,2,3:2:0:0:
401,10,19398,1,10,1:0:0:0:
304,37,19751,6,2,P|294:86|287:137,1,99.9999999999999,10|8,1:0|1:0,2:1:0:0:
193,98,20457,2,0,P|203:147|210:198,1,99.9999999999999,8|10,1:0|1:0,2:0:0:0:
294,250,21162,1,10,1:0:0:0:
277,348,21515,1,8,1:0:0:0:
179,331,21868,1,8,1:0:0:0:
190,233,22221,1,10,1:0:0:0:
256,192,22574,12,2,23986,2:1:0:0:
207,129,24868,38,0,L|213:68,2,50,2|10|0,2:1|1:0|2:0,2:0:0:0:
171,165,25398,53,4,3:2:0:0:
78,125,25751,1,8,1:0:0:0:
78,125,25927,2,2,P|85:175|91:240,1,99.9999999999999,2|2,2:1|3:2,2:1:0:0:
62,266,26457,1,8,1:0:0:0:
156,298,26810,2,2,B|197:270|197:270|257:280,1,99.9999999999999,0|8,3:0|1:0,2:1:0:0:
292,257,27339,1,2,0:0:0:0:
395,273,27692,1,0,3:0:0:0:
395,273,27868,1,8,1:0:0:0:
468,204,28221,5,0,3:0:0:0:
404,133,28574,1,8,1:0:0:0:
404,133,28751,2,2,P|370:150|302:170,1,99.9999999999999,2|0,2:1|3:0,2:1:0:0:
269,140,29280,1,10,1:0:0:0:
180,186,29633,1,2,2:3:0:0:
117,110,29986,1,8,1:0:0:0:
92,104,30162,1,2,0:1:0:0:
67,98,30339,1,2,0:1:0:0:
134,22,30692,2,0,L|198:33,1,50,8|8,1:3|2:3,2:0:0:0:
228,8,31045,5,0,3:0:0:0:
266,100,31398,1,8,1:0:0:0:
266,100,31574,2,2,P|317:78|367:75,1,99.9999999999999,2|0,2:1|3:0,2:1:0:0:
396,110,32104,1,10,1:0:0:0:
466,180,32457,2,2,L|457:285,1,99.9999999999999,0|8,3:0|1:0,2:1:0:0:
424,317,32986,1,2,0:0:0:0:
329,337,33339,1,0,3:0:0:0:
329,337,33515,1,8,1:0:0:0:
229,350,33868,69,0,3:0:0:0:
151,287,34221,1,8,1:0:0:0:
151,287,34398,2,2,P|159:246|168:174,1,99.9999999999999,2|0,2:1|3:0,2:1:0:0:
134,149,34927,1,10,1:0:0:0:
191,66,35280,70,0,L|184:7,2,50,0|2|8,3:0|2:0|1:0,2:0:0:0:
290,80,35986,1,0,2:0:0:0:
388,94,36339,1,10,1:0:0:0:
434,193,36692,21,4,3:2:0:0:
434,193,36868,1,2,0:1:0:0:
434,193,37045,1,10,1:0:0:0:
486,109,37398,2,0,B|504:63|504:63|490:7,1,99.9999999999999,2|8,2:3|1:0,2:0:0:0:
399,52,38104,1,2,3:2:0:0:
305,86,38457,1,2,1:3:0:0:
211,120,38810,1,2,2:3:0:0:
211,120,38986,2,0,P|184:105|151:97,2,50,0|8|0,3:0|1:0|1:0,2:0:0:0:
236,163,39515,6,0,P|222:205|213:270,1,99.9999999999999,0|10,3:0|1:0,2:0:0:0:
243,355,40221,2,0,L|182:342,1,50,2|0,2:3|3:0,2:0:0:0:
145,335,40574,1,8,1:0:0:0:
47,356,40927,1,2,3:2:0:0:
77,260,41280,1,2,1:3:0:0:
107,164,41633,1,2,2:3:0:0:
107,164,41809,2,0,L|37:149,1,50,0|0,3:0|1:0,1:0:0:0:
95,62,42339,5,0,3:0:0:0:
95,62,42515,1,2,0:1:0:0:
95,62,42692,1,10,1:0:0:0:
195,56,43045,2,0,P|240:39|298:34,1,99.9999999999999,2|8,2:3|1:0,2:0:0:0:
387,61,43751,1,2,3:2:0:0:
362,158,44104,1,2,1:3:0:0:
338,255,44457,1,2,2:3:0:0:
338,255,44633,2,0,L|388:267,2,50,0|8|0,3:0|1:0|1:0,2:0:0:0:
309,296,45162,70,0,B|258:302|258:302|206:256,1,99.9999999999999,0|10,3:0|1:0,2:0:0:0:
145,206,45868,1,2,0:1:0:0:
120,210,46045,1,2,3:1:0:0:
95,215,46221,1,10,1:0:0:0:
35,134,46574,2,0,L|58:30,1,99.9999999999999,0|8,3:0|1:0,2:0:0:0:
103,17,47104,2,0,L|169:29,1,50,0|8,3:0|2:0,2:0:0:0:
185,70,47457,1,8,2:0:0:0:
185,70,47633,1,0,1:0:0:0:
282,47,47986,69,4,2:0:0:0:
286,252,52574,6,0,L|301:139,2,99.9999999999999,2|2|2,2:0|2:0|2:0,2:0:0:0:
293,352,53633,54,0,B|253:355|222:326|222:326|184:349|184:349|158:323|106:325,2,200,0|8|0,3:0|1:0|3:0,2:0:0:0:
375,295,55398,1,2,2:0:0:0:
459,241,55751,2,0,L|474:128,1,99.9999999999999,8|2,1:0|2:0,2:0:0:0:
418,57,56457,22,0,P|299:56|258:128,2,200,0|8|0,3:0|1:0|3:0,2:0:0:0:
406,156,58221,1,2,2:0:0:0:
393,255,58574,2,0,P|343:247|297:225,1,99.9999999999999,8|2,1:0|2:0,2:0:0:0:
208,268,59280,70,0,P|187:306|174:363,2,99.9999999999999,0|8|2,1:0|2:0|2:0,2:0:0:0:
134,200,60339,1,2,2:0:0:0:
169,106,60692,1,0,1:0:0:0:
101,31,61045,2,0,L|43:43,2,50,2|0|2,2:0|1:0|2:0,2:0:0:0:
198,8,61751,1,8,2:0:0:0:
268,79,62104,6,0,P|326:66|432:147,1,200,0|2,1:0|2:0,2:0:0:0:
355,210,63162,1,2,2:0:0:0:
407,295,63515,2,0,B|333:304|333:304|296:341|296:341|216:351,1,200,0|2,1:0|2:0,2:0:0:0:
14,214,64927,86,0,P|109:195|184:271,1,200,0|2,1:0|2:0,2:0:0:0:
224,350,65986,1,2,2:0:0:0:
318,316,66339,1,0,1:0:0:0:
412,283,66692,2,0,P|443:300|469:307,2,50,2|0|2,2:0|1:0|2:0,2:0:0:0:
369,192,67398,1,8,2:0:0:0:
467,174,67751,6,0,B|490:76|490:76|424:3,1,200,0|2,1:0|2:0,2:0:0:0:
333,45,68810,1,2,2:0:0:0:
244,91,69162,2,0,B|127:95|172:34|49:39,1,200,0|2,1:0|2:0,2:0:0:0:
0,123,70221,1,8,2:0:0:0:
82,179,70574,6,0,L|99:283,1,99.9999999999999,4|10,3:1|2:0,2:0:0:0:
59,310,71104,2,0,P|108:326|161:356,1,99.9999999999999,2|2,2:0|3:2,2:0:0:0:
195,326,71633,1,10,2:0:0:0:
278,270,71986,1,2,3:2:0:0:
338,349,72339,1,8,2:0:0:0:
338,349,72515,2,0,P|379:337|449:329,1,99.9999999999999,2|2,2:0|3:2,2:0:0:0:
468,290,73045,1,10,2:0:0:0:
395,221,73398,6,0,L|411:118,1,99.9999999999999,0|10,3:0|2:0,2:0:0:0:
374,87,73927,2,0,P|334:111|275:130,1,99.9999999999999,2|2,2:0|3:2,2:0:0:0:
238,106,74457,1,10,2:0:0:0:
160,43,74810,1,0,3:0:0:0:
68,84,75162,1,10,1:2:0:0:
68,84,75339,2,0,P|86:129|97:187,1,99.9999999999999,2|2,2:0|3:2,2:0:0:0:
73,224,75868,1,10,1:2:0:0:
170,247,76221,5,8,1:0:0:0:
210,155,76574,1,10,1:2:0:0:
210,155,76751,2,0,P|249:141|323:131,1,99.9999999999999,10|10,1:0|1:0,2:0:0:0:
350,155,77280,1,10,1:0:0:0:
449,153,77633,2,0,B|483:116|483:116|484:58,1,99.9999999999999,10|10,1:0|1:2,2:0:0:0:
460,22,78162,1,2,1:0:0:0:
365,10,78515,1,0,1:0:0:0:
365,10,78692,1,10,1:0:0:0:
256,192,79045,12,2,80457,2:1:0:0:
232,232,81868,5,0,3:0:0:0:
330,211,82221,1,2,3:2:0:0:
310,113,82574,1,2,3:2:0:0:
211,133,82927,1,2,3:1:0:0:
191,35,83280,2,2,L|302:12,1,99.9999999999999,0|2,3:0|3:2,2:1:0:0:
310,113,83986,1,0,0:0:0:0:
408,128,84339,1,0,3:0:0:0:
427,125,84515,1,2,2:3:0:0:
446,125,84692,85,0,3:0:0:0:
470,222,85045,1,2,3:2:0:0:
373,242,85398,1,2,3:2:0:0:
393,340,85751,1,2,3:1:0:0:
295,357,86104,2,0,P|256:342|191:336,1,99.9999999999999,2|2,3:0|3:0,2:0:0:0:
106,371,86810,1,2,3:1:0:0:
67,278,87162,1,8,1:0:0:0:
75,254,87339,1,8,1:0:0:0:
83,230,87515,5,0,1:0:0:0:
74,133,87868,1,8,1:0:0:0:
74,133,88045,2,2,L|178:147,1,99.9999999999999,0|0,2:1|3:0,2:1:0:0:
210,112,88574,1,10,1:0:0:0:
258,23,88927,2,2,B|297:53|297:53|363:49,1,99.9999999999999,0|8,3:0|1:0,2:1:0:0:
392,26,89457,1,2,0:0:0:0:
443,117,89809,1,0,3:0:0:0:
443,117,89986,1,10,1:0:0:0:
491,206,90339,5,0,3:0:0:0:
455,301,90692,1,8,1:0:0:0:
455,301,90868,2,2,L|344:276,1,99.9999999999999,2|0,2:1|3:0,2:1:0:0:
321,314,91398,1,10,1:0:0:0:
223,293,91751,38,0,L|212:343,2,50,0|2|8,3:0|2:0|1:0,2:0:0:0:
185,200,92457,1,0,2:0:0:0:
91,234,92810,1,2,1:0:0:0:
58,139,93162,21,0,3:0:0:0:
58,139,93339,1,2,0:1:0:0:
58,139,93515,1,2,3:1:0:0:
89,43,93868,2,2,P|132:66|193:78,1,99.9999999999999,2|2,3:1|3:0,2:1:0:0:
216,41,94398,1,2,2:1:0:0:
216,41,94574,1,0,3:0:0:0:
313,61,94927,1,2,3:0:0:0:
412,83,95280,1,2,3:0:0:0:
436,88,95457,1,0,0:0:0:0:
460,94,95633,1,0,3:0:0:0:
487,194,95986,5,0,3:0:0:0:
487,194,96162,2,2,L|474:254,2,50,2|2|2,2:1|3:1|2:1,2:1:0:0:
442,171,96692,2,2,P|406:182|354:219,1,99.9999999999999,2|2,3:1|3:0,2:1:0:0:
349,270,97221,1,2,2:1:0:0:
349,270,97398,1,0,3:0:0:0:
252,250,97751,1,2,3:0:0:0:
155,229,98104,1,2,3:0:0:0:
58,243,98457,1,8,1:0:0:0:
67,267,98633,1,8,1:0:0:0:
76,291,98810,6,0,L|87:353,2,50,4|2|10,3:2|2:1|1:0,2:0:0:0:
155,229,99515,2,2,B|171:181|171:181|145:127,1,99.9999999999999,2|10,2:1|1:0,2:1:0:0:
90,55,100221,1,0,3:0:0:0:
178,9,100574,1,2,1:3:0:0:
235,90,100927,1,2,2:3:0:0:
235,90,101104,2,0,P|257:78|282:71,2,50,0|8|0,3:0|1:0|1:0,2:0:0:0:
210,133,101633,70,0,P|222:183|231:238,1,99.9999999999999,0|10,3:0|1:0,2:0:0:0:
330,224,102339,1,2,2:1:0:0:
374,313,102692,1,10,1:0:0:0:
460,263,103045,70,0,L|484:155,1,99.9999999999999,0|8,3:0|1:0,2:0:0:0:
466,117,103574,1,0,0:0:0:0:
393,56,103927,1,0,1:0:0:0:
393,56,104104,1,8,2:1:0:0:
309,116,104457,5,4,3:1:0:0:
223,63,104810,1,8,2:0:0:0:
223,63,104986,2,2,P|169:96|126:109,1,99.9999999999999,2|2,2:0|3:0,2:0:0:0:
86,92,105515,1,10,2:0:0:0:
35,178,105868,2,0,P|89:190|147:214,1,99.9999999999999,0|10,3:0|2:0,2:0:0:0:
187,288,106574,2,2,P|196:315|199:349,2,50,2|0|10,2:0|3:0|2:0,2:0:0:0:
276,242,107280,85,2,3:2:0:0:
274,146,107633,1,10,2:0:0:0:
274,146,107810,2,2,P|309:163|374:178,1,99.9999999999999,2|2,2:0|3:0,2:0:0:0:
404,142,108339,1,10,2:0:0:0:
469,66,108692,2,0,B|427:38|427:38|371:44,2,99.9999999999999,2|10|2,3:2|2:0|2:0,2:0:0:0:
498,161,109751,1,8,2:0:0:0:
431,235,110104,6,0,P|385:216|327:205,1,99.9999999999999,8|8,2:0|2:0,2:0:0:0:
322,304,110810,2,0,P|276:323|218:334,1,99.9999999999999,8|8,2:0|2:0,2:0:0:0:
134,295,111515,1,8,2:0:0:0:
158,198,111868,1,8,2:0:0:0:
183,101,112221,1,8,2:0:0:0:
208,4,112574,1,8,2:0:0:0:
111,29,112927,6,0,L|56:19,2,50,10|8|10,2:0|2:0|2:0,2:0:0:0:
183,101,113633,2,8,L|238:91,2,50,8|10|10,2:0|2:0|1:2,2:0:0:0:
99,156,114339,2,0,P|76:206|64:258,1,99.9999999999999,8|0,1:0|3:0,2:0:0:0:
101,284,114868,2,0,P|155:278|206:263,1,99.9999999999999,8|0,1:0|3:0,2:0:0:0:
218,220,115398,1,12,1:2:0:0:
