osu file format v14

[General]
AudioFilename: audio.mp3
AudioLeadIn: 0
PreviewTime: 60796
Countdown: 0
SampleSet: Soft
StackLeniency: 0.7
Mode: 2
LetterboxInBreaks: 0
WidescreenStoryboard: 1

[Editor]
DistanceSpacing: 1
BeatDivisor: 4
GridSize: 16
TimelineZoom: 2.4

[Metadata]
Title:The 89's Momentum
TitleUnicode:The 89's Momentum
Artist:MYUKKE.
ArtistUnicode:MYUKKE.
Creator:Spectator
Version:Rain
Source:Muse Dash
Tags:jemzuu ajamez electronic english instrumental video game edm disco featured artist mappers' guild fa mg osu! MUSIC快楽天 Vol.7
BeatmapID:2777149
BeatmapSetID:1340492

[Difficulty]
HPDrainRate:5.5
CircleSize:3.8
OverallDifficulty:8.8
ApproachRate:8.8
SliderMultiplier:2.35
SliderTickRate:2

[Events]
//Background and Video events
0,0,"background.jpg",0,0
//Break Periods
//Storyboard Layer 0 (Background)
//Storyboard Layer 1 (Fail)
//Storyboard Layer 2 (Pass)
//Storyboard Layer 3 (Foreground)
//Storyboard Layer 4 (Overlay)
//Storyboard Sound Samples

[TimingPoints]
914,468.75,4,3,1,60,1,0
3492,-76.9230769230769,4,3,1,60,0,0
4195,-100,4,3,1,65,0,0
5367,-76.9230769230769,4,3,1,65,0,0
6070,-100,4,3,1,65,0,0
6539,-74.0740740740741,4,3,1,65,0,0
8414,-74.0740740740741,4,2,1,70,0,0
10289,-66.6666666666667,4,2,1,70,0,0
10757,-71.4285714285714,4,2,1,70,0,0
11109,-74.0740740740741,4,2,1,70,0,0
11695,-68.9655172413793,4,2,1,70,0,0
13335,-76.9230769230769,4,2,1,70,0,0
14039,-74.0740740740741,4,2,1,75,0,0
15914,-76.9230769230769,4,2,1,70,0,1
16031,-76.9230769230769,4,2,1,70,0,0
23414,-76.9230769230769,4,2,1,70,0,1
23531,-76.9230769230769,4,2,1,70,0,0
23882,-76.9230769230769,4,2,1,70,0,0
26695,-76.9230769230769,4,2,1,70,0,0
27164,-76.9230769230769,4,2,1,70,0,0
30445,-76.9230769230769,4,2,1,70,0,0
30914,-76.9230769230769,4,2,1,70,0,0
42164,-76.9230769230769,4,2,1,60,0,0
45445,-76.9230769230769,4,2,1,70,0,0
45914,-76.9230769230769,4,2,1,60,0,0
53414,-76.9230769230769,4,2,1,70,0,0
57164,-76.9230769230769,4,2,1,75,0,0
58921,-76.9230769230769,4,2,1,50,0,0
59507,-76.9230769230769,4,2,1,55,0,0
59976,-76.9230769230769,4,2,1,60,0,0
60914,-76.9230769230769,4,2,1,80,0,1
61031,-76.9230769230769,4,2,1,80,0,0
67007,-76.9230769230769,4,2,1,80,0,0
67476,-76.9230769230769,4,2,1,80,0,0
67945,-76.9230769230769,4,2,1,80,0,0
68414,-76.9230769230769,4,2,1,80,0,1
68531,-76.9230769230769,4,2,1,80,0,0
70054,-76.9230769230769,4,2,1,80,0,0
70289,-76.9230769230769,4,2,1,80,0,0
70523,-76.9230769230769,4,2,1,85,0,1
71695,-76.9230769230769,4,2,1,85,0,1
71929,-76.9230769230769,4,2,1,80,0,0
72164,-76.9230769230769,4,2,1,80,0,0
73570,-76.9230769230769,4,2,1,80,0,0
74039,-76.9230769230769,4,2,1,80,0,0
74976,-76.9230769230769,4,2,1,80,0,0
75914,-76.9230769230769,4,2,1,85,0,1
90328,-76.9230769230769,4,2,1,85,0,1
90914,-76.9230769230769,4,2,1,70,0,0
98414,-76.9230769230769,4,2,1,70,0,0
103570,-76.9230769230769,4,2,1,40,0,0
104039,-76.9230769230769,4,2,1,55,0,0
104507,-76.9230769230769,4,2,1,60,0,0
104859,-76.9230769230769,4,2,1,70,0,0
105914,-76.9230769230769,4,2,1,60,0,0
107320,-76.9230769230769,4,2,1,60,0,0
108023,-76.9230769230769,4,2,1,65,0,0
109195,-76.9230769230769,4,2,1,75,0,0
109664,-76.9230769230769,4,2,1,80,0,1
109781,-76.9230769230769,4,2,1,80,0,0
117164,-76.9230769230769,4,2,1,80,0,1
117281,-76.9230769230769,4,2,1,80,0,0
124195,-76.9230769230769,4,2,1,80,0,0
124664,-76.9230769230769,4,2,1,80,0,1
124781,-76.9230769230769,4,2,1,80,0,0
125484,-76.9230769230769,4,2,1,80,0,0
125718,-76.9230769230769,4,2,1,80,0,0
127359,-76.9230769230769,4,2,1,80,0,0
127710,-76.9230769230769,4,2,1,80,0,0
128414,-76.9230769230769,4,2,1,80,0,0
129117,-76.9230769230769,4,2,1,80,0,0
130289,-76.9230769230769,4,2,1,80,0,0
131695,-76.9230769230769,4,2,1,70,0,0
132164,-76.9230769230769,4,2,1,70,0,0
133101,-76.9230769230769,4,2,1,70,0,0

[Colours]
Combo1 : 241,231,95
Combo2 : 255,83,169

[HitObjects]
75,139,679,5,2,1:3:0:0:
419,274,914,6,0,L|432:119,1,117.5,4|0,1:2|0:0,0:0:0:0:
270,194,1382,1,2,0:0:0:0:
430,156,1617,2,0,L|331:154,1,58.75
214,83,1968,2,0,L|313:81,1,58.75
430,156,2320,2,0,L|279:155,1,117.5,2|0,0:0|0:0,0:0:0:0:
153,276,2789,6,0,L|140:121,1,117.5
302,196,3257,1,2,0:0:0:0:
142,158,3492,2,0,L|250:157,1,76.3749965038301
372,85,3843,2,0,L|269:84,1,76.3749965038301
142,158,4195,1,2,0:0:0:0:
352,155,4429,1,0,1:0:0:0:
35,276,4664,6,0,L|22:121,1,117.5,0|0,1:0|0:0,0:0:0:0:
184,196,5132,1,2,0:3:0:0:
24,158,5367,2,0,L|126:158,1,76.3749965038301
261,80,5718,2,0,L|350:83,1,76.3749965038301
487,164,6070,2,0,L|370:165,1,117.5,2|0,0:3|0:0,0:0:0:0:
170,140,6539,6,0,L|112:141,2,39.6562501512766,4|4|4,0:0|0:0|0:0,0:0:0:0:
268,116,6773,2,0,L|388:115,1,79.3125003025532,4|4,0:0|0:0,0:0:0:0:
347,193,7007,2,0,L|267:193,1,79.3125003025532,4|4,0:0|0:0,0:0:0:0:
91,239,7359,1,4,0:0:0:0:
273,288,7593,2,0,L|353:288,1,79.3125003025532,4|4,0:1|0:1,0:0:0:0:
273,288,7828,1,0,0:0:0:0:
90,294,7945,1,8,0:2:0:0:
96,231,8062,1,0,0:0:0:0:
139,181,8179,1,4,0:3:0:0:
212,170,8296,1,4,0:3:0:0:
392,231,8414,5,0,1:0:0:0:
469,216,8531,1,0,0:0:0:0:
391,232,8648,1,0,0:0:0:0:
313,248,8765,1,0,0:0:0:0:
119,307,8882,1,8,1:0:0:0:
115,228,8999,1,0,0:0:0:0:
307,295,9234,2,0,P|374:267|395:163,1,158.625000605106
302,133,9585,2,0,L|194:111,1,79.3125003025532
224,117,9820,2,0,L|302:133,1,79.3125003025532,8|0,1:0|0:0,0:0:0:0:
107,183,10171,1,0,0:0:0:0:
17,163,10289,6,0,P|45:83|124:50,1,176.250006723404,4|0,1:0|0:0,0:0:0:0:
207,82,10640,1,0,0:0:0:0:
287,101,10757,1,8,1:0:0:0:
473,166,10992,2,0,L|377:139,1,82.2499974899293
218,202,11343,2,0,L|116:175,1,79.3125003025532
218,202,11578,1,0,0:0:0:0:
394,144,11695,2,0,L|401:338,1,170.375005199433,8|0,1:0|0:0,0:0:0:0:
44,289,12164,5,0,1:0:0:0:
210,286,12398,1,0,1:0:0:0:
44,289,12632,1,0,1:0:0:0:
354,191,12867,2,0,L|253:173,1,85.1875025997163,0|0,1:0|1:0,0:0:0:0:
99,224,13218,2,0,L|93:103,1,85.1875025997163,0|0,1:0|1:0,0:0:0:0:
173,121,13453,1,0,0:0:0:0:
268,79,13570,2,0,L|272:135,2,38.1874982519151,4|4|4,0:1|0:1|0:1,0:0:0:0:
172,55,13804,1,2,0:2:0:0:
96,48,13921,1,0,0:0:0:0:
288,143,14039,6,0,L|465:135,1,158.625000605106,2|2,1:2|1:2,0:0:0:0:
271,309,14507,2,0,L|266:198,1,79.3125003025532,2|2,1:2|1:2,0:0:0:0:
346,203,14742,1,2,1:2:0:0:
246,200,14859,2,0,P|172:179|157:74,1,158.625000605106,2|2,1:2|1:2,0:0:0:0:
223,94,15210,1,2,1:2:0:0:
301,81,15328,1,2,1:2:0:0:
477,115,15445,1,10,1:2:0:0:
294,282,15914,6,0,L|83:259,1,152.74999300766,4|0,1:2|2:0,0:0:0:0:
319,341,16382,2,0,L|327:218,1,76.3749965038301,8|0,1:0|0:0,0:0:0:0:
236,260,16617,1,0,0:0:0:0:
147,253,16734,2,0,L|144:88,1,152.74999300766
231,144,17085,2,0,L|432:129,2,152.74999300766,0|8|0,0:0|1:0|0:0,0:0:0:0:
47,178,17789,6,0,L|52:88,1,76.3749965038301,4|0,1:0|0:0,0:0:0:0:
135,81,18023,1,0,0:0:0:0:
304,163,18257,1,8,1:0:0:0:
225,150,18374,1,0,0:0:0:0:
146,137,18492,1,0,0:0:0:0:
236,184,18609,2,0,L|423:171,1,152.74999300766
288,254,18960,2,0,L|101:241,2,152.74999300766,0|8|0,0:0|1:0|0:0,0:0:0:0:
288,174,19546,1,2,0:3:0:0:
110,258,19664,6,0,L|102:151,1,76.3749965038301,0|2,0:0|0:0,0:0:0:0:
187,152,19898,1,2,0:0:0:0:
361,154,20132,2,0,L|369:47,1,76.3749965038301,8|0,1:0|0:0,0:0:0:0:
289,82,20367,1,2,0:0:0:0:
212,87,20484,1,0,0:0:0:0:
372,102,20718,1,0,0:0:0:0:
297,95,20835,1,2,0:0:0:0:
115,203,21070,2,0,L|285:193,1,152.74999300766,8|0,1:0|0:0,0:0:0:0:
445,139,21539,6,0,L|449:240,1,76.3749965038301,4|0,1:0|0:0,0:0:0:0:
371,244,21773,1,0,0:0:0:0:
203,198,22007,1,8,1:0:0:0:
371,244,22242,1,0,0:0:0:0:
193,202,22476,2,0,L|187:364,1,152.74999300766,4|0,1:0|0:0,0:0:0:0:
265,332,22828,1,0,0:0:0:0:
340,307,22945,1,8,1:0:0:0:
172,242,23179,1,0,1:0:0:0:
86,215,23296,1,0,1:0:0:0:
283,261,23414,6,0,L|494:238,1,152.74999300766,4|0,1:0|0:0,0:0:0:0:
258,323,23882,2,0,L|250:200,1,76.3749965038301,8|0,1:0|0:0,0:0:0:0:
343,239,24117,1,0,0:0:0:0:
430,232,24234,2,0,L|433:67,1,152.74999300766
346,123,24585,2,0,L|145:108,1,152.74999300766,0|8,0:0|1:0,0:0:0:0:
388,80,25054,1,2,0:0:0:0:
194,110,25289,6,0,L|84:118,1,76.3749965038301,4|0,1:0|0:0,0:0:0:0:
194,110,25523,1,0,0:0:0:0:
368,215,25757,1,8,1:0:0:0:
360,143,25874,1,0,0:0:0:0:
320,84,25992,1,0,0:0:0:0:
247,56,26109,1,0,0:0:0:0:
430,143,26226,6,0,L|425:53,1,76.3749965038301,4|0,1:0|0:0,0:0:0:0:
342,46,26460,1,0,0:0:0:0:
173,80,26695,1,8,1:0:0:0:
344,126,26929,1,2,0:0:0:0:
29,259,27164,5,2,1:2:0:0:
104,247,27281,1,0,0:0:0:0:
179,235,27398,1,2,0:0:0:0:
337,123,27632,1,10,1:2:0:0:
262,111,27749,1,2,0:0:0:0:
187,99,27866,1,2,0:0:0:0:
353,216,28101,1,4,1:0:0:0:
428,204,28218,1,2,0:0:0:0:
503,192,28335,1,2,0:0:0:0:
350,133,28570,1,8,1:0:0:0:
48,282,28804,1,0,1:0:0:0:
123,270,28921,1,8,1:3:0:0:
336,330,29039,5,4,1:0:0:0:
401,290,29156,1,0,0:0:0:0:
418,215,29273,1,2,0:0:0:0:
394,142,29390,1,0,0:0:0:0:
324,109,29507,1,8,1:0:0:0:
143,163,29742,1,2,0:0:0:0:
213,171,29859,1,0,2:0:0:0:
406,244,30093,1,0,0:0:0:0:
336,252,30210,1,2,0:0:0:0:
33,184,30445,2,0,L|25:358,1,152.74999300766,8|0,1:0|2:0,0:0:0:0:
342,233,30914,6,0,L|453:240,1,76.3749965038301,4|0,1:0|0:0,0:0:0:0:
342,233,31148,1,0,0:0:0:0:
240,224,31265,2,0,L|234:164,2,38.1874982519151,0|0|8,0:0|0:0|1:0,0:0:0:0:
342,233,31499,1,0,0:0:0:0:
146,321,31734,2,0,L|310:302,1,152.74999300766
221,294,32085,1,0,0:0:0:0:
144,285,32203,1,0,0:0:0:0:
219,292,32320,1,8,1:0:0:0:
294,299,32437,1,0,0:0:0:0:
466,225,32671,1,0,0:0:0:0:
284,177,32789,6,0,P|214:151|187:49,1,152.74999300766,4|0,1:0|0:0,0:0:0:0:
258,77,33140,1,0,0:0:0:0:
182,85,33257,1,8,1:0:0:0:
16,143,33492,1,0,0:0:0:0:
91,151,33609,1,0,0:0:0:0:
262,100,33843,1,0,0:0:0:0:
337,112,33960,1,0,0:0:0:0:
262,100,34078,1,0,0:0:0:0:
80,220,34195,2,0,L|70:97,1,76.3749965038301,8|0,1:0|0:0,0:0:0:0:
152,125,34429,1,0,0:0:0:0:
464,91,34664,6,0,L|472:273,1,152.74999300766,4|0,1:0|0:0,0:0:0:0:
395,234,35015,1,0,0:0:0:0:
289,248,35132,1,8,1:0:0:0:
296,172,35249,1,0,0:0:0:0:
341,110,35367,1,0,0:0:0:0:
415,93,35484,1,0,0:0:0:0:
312,83,35601,2,0,L|194:75,1,76.3749965038301,4|0,1:0|0:0,0:0:0:0:
69,190,35953,2,0,L|187:182,1,76.3749965038301,0|8,0:0|1:0,0:0:0:0:
327,217,36304,1,0,0:0:0:0:
145,281,36539,5,4,1:0:0:0:
152,205,36656,1,0,0:0:0:0:
201,147,36773,1,0,0:0:0:0:
274,128,36890,1,0,0:0:0:0:
399,161,37007,2,0,L|300:154,1,76.3749965038301,8|0,1:0|0:0,0:0:0:0:
151,257,37359,2,0,L|352:247,1,152.74999300766
413,242,37710,2,0,L|418:350,1,76.3749965038301
303,249,37945,2,0,L|151:257,1,152.74999300766,8|0,1:0|0:0,0:0:0:0:
487,116,38414,5,4,1:0:0:0:
492,220,38648,1,0,0:0:0:0:
356,167,38882,2,0,L|271:170,1,76.3749965038301,8|0,1:0|0:0,0:0:0:0:
102,305,39117,2,0,L|97:111,1,152.74999300766,0|4,0:0|1:0,0:0:0:0:
174,148,39468,1,0,0:0:0:0:
250,144,39585,1,0,0:0:0:0:
410,95,39820,2,0,L|413:202,1,76.3749965038301,8|2,1:0|0:2,0:0:0:0:
314,136,40054,2,0,L|229:141,1,76.3749965038301,2|2,0:2|0:2,0:0:0:0:
46,182,40289,5,4,1:0:0:0:
203,201,40523,1,2,0:0:0:0:
111,238,40640,2,0,L|104:190,2,38.1874982519151,0|0|8,0:0|0:0|1:0,0:0:0:0:
289,233,40992,2,0,L|297:359,1,76.3749965038301
194,334,41226,1,4,1:0:0:0:
129,292,41343,1,0,0:0:0:0:
105,219,41460,1,0,0:0:0:0:
141,151,41578,1,0,0:0:0:0:
326,70,41695,2,0,L|328:174,1,76.3749965038301,8|0,1:0|0:0,0:0:0:0:
236,163,41929,2,0,L|128:164,1,76.3749965038301,0|0,1:0|1:0,0:0:0:0:
373,163,42164,6,0,L|376:277,1,76.3749965038301,2|0,0:0|0:0,0:0:0:0:
373,163,42398,1,2,0:0:0:0:
202,114,42632,1,2,0:0:0:0:
373,163,42867,2,0,L|376:277,1,76.3749965038301,2|2,0:0|0:0,0:0:0:0:
206,231,43218,2,0,L|209:345,1,76.3749965038301,0|2,0:0|0:0,0:0:0:0:
378,162,43570,2,0,L|381:276,3,76.3749965038301,2|0|2|0,0:0|0:0|0:0|0:0,0:0:0:0:
188,333,44039,5,2,0:0:0:0:
120,297,44156,1,0,0:0:0:0:
90,226,44273,1,2,0:0:0:0:
122,157,44390,1,0,0:0:0:0:
193,129,44507,2,0,L|300:129,1,76.3749965038301,2|0,0:0|0:0,0:0:0:0:
193,129,44742,1,2,0:0:0:0:
294,181,44859,2,0,P|361:167|374:52,1,152.74999300766,2|0,0:0|0:0,0:0:0:0:
302,93,45210,1,2,0:0:0:0:
208,91,45328,1,0,0:0:0:0:
405,251,45445,2,0,L|494:252,1,76.3749965038301,4|4,0:3|0:3,0:0:0:0:
481,251,45679,2,0,L|392:252,1,76.3749965038301,4|4,0:3|0:3,0:0:0:0:
200,195,45914,6,0,L|188:377,1,152.74999300766,4|0,1:0|0:0,0:0:0:0:
371,260,46382,2,0,L|283:252,1,76.3749965038301,8|0,2:0|0:0,0:0:0:0:
125,158,46734,2,0,L|213:150,1,76.3749965038301,0|4,0:0|0:1,0:0:0:0:
380,221,47085,1,0,0:0:0:0:
199,151,47320,1,8,0:0:0:0:
397,269,47554,6,0,P|462:248|378:84,1,305.49998601532
224,114,48257,1,8,0:0:0:0:
398,81,48492,1,0,0:0:0:0:
322,93,48609,1,0,0:0:0:0:
246,106,48726,1,0,0:0:0:0:
83,70,48960,1,0,0:0:0:0:
246,106,49195,2,0,L|258:288,1,152.74999300766,8|0,0:0|0:0,0:0:0:0:
89,306,49664,5,0,0:1:0:0:
256,257,49898,1,0,0:0:0:0:
426,217,50132,2,0,L|338:209,1,76.3749965038301,8|0,0:0|0:0,0:0:0:0:
180,115,50484,2,0,L|268:107,1,76.3749965038301,0|0,0:0|0:1,0:0:0:0:
434,153,50835,1,0,0:0:0:0:
256,44,51070,1,8,0:0:0:0:
56,237,51304,6,0,P|64:161|253:41,1,305.49998601532
442,62,52007,2,0,L|453:251,1,152.74999300766,8|0,0:0|0:0,0:0:0:0:
282,215,52476,1,0,0:0:0:0:
450,214,52710,1,0,0:0:0:0:
268,215,52945,2,0,L|178:206,1,76.3749965038301,8|4,0:0|0:3,0:0:0:0:
192,207,53179,2,0,L|268:215,1,76.3749965038301,4|4,0:3|0:3,0:0:0:0:
450,307,53414,6,0,L|269:271,1,152.74999300766,2|0,0:0|0:0,0:0:0:0:
125,255,53882,1,10,0:0:0:0:
133,179,53999,1,0,0:0:0:0:
178,116,54117,1,0,0:0:0:0:
252,100,54234,1,0,0:0:0:0:
152,97,54351,2,0,L|-20:62,2,152.74999300766,2|2|10,0:0|0:0|0:0,0:0:0:0:
329,67,55054,6,0,L|332:183,1,76.3749965038301,2|0,0:0|0:0,0:0:0:0:
163,239,55406,1,2,0:0:0:0:
238,230,55523,1,2,0:0:0:0:
313,221,55640,1,0,0:0:0:0:
237,229,55757,1,8,0:0:0:0:
41,258,55992,1,2,0:0:0:0:
238,230,56226,1,2,0:0:0:0:
313,220,56343,1,2,0:0:0:0:
237,231,56460,1,2,0:0:0:0:
412,194,56695,1,8,0:0:0:0:
416,309,56929,1,2,0:0:0:0:
233,368,57164,5,2,0:0:0:0:
166,330,57281,1,0,0:0:0:0:
137,259,57398,1,2,0:0:0:0:
165,188,57515,1,0,0:0:0:0:
239,169,57632,1,10,0:0:0:0:
311,144,57749,1,0,0:0:0:0:
343,74,57867,1,2,0:0:0:0:
308,5,57984,1,0,0:0:0:0:
203,18,58101,1,2,0:0:0:0:
129,37,58218,1,0,0:0:0:0:
203,18,58335,1,2,0:0:0:0:
402,65,58570,5,10,0:0:0:0:
203,108,58804,1,0,0:0:0:0:
256,192,59039,12,0,60445,0:0:0:0:
109,297,60914,6,0,L|102:120,1,152.74999300766,4|0,1:2|0:0,0:0:0:0:
178,137,61265,1,0,0:0:0:0:
363,213,61382,2,0,P|440:193|457:94,1,152.74999300766,8|0,1:0|0:0,0:0:0:0:
389,129,61734,1,0,0:0:0:0:
177,197,61851,2,0,L|8:179,1,152.74999300766,4|2,1:0|0:0,0:0:0:0:
335,197,62320,2,0,L|504:179,1,152.74999300766,8|2,1:0|0:0,0:0:0:0:
138,336,62789,5,4,1:0:0:0:
132,214,63023,1,0,0:0:0:0:
427,290,63257,1,8,1:0:0:0:
434,168,63491,1,0,0:0:0:0:
127,141,63726,2,0,L|35:135,1,76.3749965038301,4|0,1:0|0:0,0:0:0:0:
50,136,63960,2,0,L|127:141,1,76.3749965038301
309,221,64195,2,0,L|437:233,1,76.3749965038301,8|0,1:0|0:0,0:0:0:0:
385,228,64429,2,0,L|309:221,1,76.3749965038301
114,311,64664,6,0,L|111:145,1,152.74999300766,4|0,1:0|0:0,0:0:0:0:
194,148,65015,1,0,0:0:0:0:
288,193,65132,2,0,P|355:177|380:87,1,152.74999300766,8|0,1:0|0:0,0:0:0:0:
300,102,65484,1,0,0:0:0:0:
213,100,65601,1,4,1:0:0:0:
401,162,65835,2,0,L|226:151,1,152.74999300766,2|8,0:0|1:0,0:0:0:0:
148,226,66187,2,0,L|300:235,1,152.74999300766
401,237,66539,6,0,L|407:56,1,152.74999300766,4|0,1:0|0:0,0:0:0:0:
322,80,66890,1,0,0:0:0:0:
221,159,67007,2,0,L|410:154,1,152.74999300766,8|0,1:0|0:0,0:0:0:0:
289,157,67359,1,0,0:0:0:0:
48,258,67476,1,4,1:0:0:0:
43,126,67710,1,0,0:0:0:0:
464,258,67945,1,8,1:0:0:0:
465,132,68179,1,0,0:0:0:0:
149,213,68414,6,0,P|72:193|55:94,1,152.74999300766,4|0,1:2|0:0,0:0:0:0:
123,129,68766,1,0,0:0:0:0:
335,197,68883,2,0,L|504:179,1,152.74999300766,8|0,1:0|0:0,0:0:0:0:
411,190,69234,1,0,0:0:0:0:
177,197,69351,2,0,L|8:179,1,152.74999300766,4|0,1:0|0:0,0:0:0:0:
334,112,69820,2,0,L|165:94,1,152.74999300766,8|0,1:0|0:0,0:0:0:0:
485,284,70289,6,0,P|474:213|362:168,1,152.74999300766,4|2,1:0|0:0,0:0:0:0:
333,166,70640,1,2,0:0:0:0:
137,244,70757,1,10,1:2:0:0:
60,243,70874,1,2,0:0:0:0:
136,243,70992,1,2,0:0:0:0:
212,243,71109,1,2,0:0:0:0:
425,199,71226,1,4,1:0:0:0:
430,285,71343,1,2,0:0:0:0:
185,253,71460,1,2,0:0:0:0:
180,339,71577,1,2,0:0:0:0:
415,164,71695,1,8,1:0:0:0:
491,168,71812,1,2,0:0:0:0:
414,162,71929,1,2,0:0:0:0:
91,218,72164,6,0,P|103:146|215:129,1,152.74999300766,4|2,1:0|0:0,0:0:0:0:
262,122,72515,1,0,0:0:0:0:
169,113,72632,2,0,L|8:100,1,152.74999300766,8|2,1:0|0:0,0:0:0:0:
94,100,72984,1,0,0:0:0:0:
302,229,73101,2,0,L|311:126,1,76.3749965038301,4|0,1:0|0:0,0:0:0:0:
207,237,73335,2,0,L|199:333,1,76.3749965038301,2|0,0:0|0:0,0:0:0:0:
436,232,73570,2,0,P|486:177|408:155,1,152.74999300766,8|4,1:0|1:0,0:0:0:0:
361,160,73921,1,0,0:0:0:0:
170,235,74039,6,0,L|73:233,1,76.3749965038301,2|2,1:3|1:3,0:0:0:0:
314,219,74273,2,0,L|315:121,1,76.3749965038301,4|0,1:0|0:0,0:0:0:0:
210,164,74507,1,8,1:0:0:0:
134,156,74624,1,0,1:0:0:0:
57,149,74742,1,0,1:0:0:0:
132,156,74859,1,0,1:0:0:0:
344,301,74976,2,0,P|417:276|426:191,1,152.74999300766,4|4,1:1|1:3,0:0:0:0:
347,209,75328,1,4,1:3:0:0:
103,217,75445,1,8,1:0:0:0:
346,306,75914,6,0,P|423:284|433:193,1,152.74999300766,4|0,1:2|0:0,0:0:0:0:
362,205,76265,1,0,0:0:0:0:
174,79,76382,2,0,L|167:187,1,76.3749965038301,8|0,1:0|0:0,0:0:0:0:
270,151,76617,2,0,L|361:156,1,76.3749965038301
169,254,76851,1,4,1:0:0:0:
96,220,76968,1,0,0:0:0:0:
169,254,77085,1,0,0:0:0:0:
345,251,77320,1,8,1:0:0:0:
33,325,77554,6,0,P|46:248|220:173,1,229.12498951149,2|0,0:0|0:0,0:0:0:0:
241,172,78023,1,2,0:0:0:0:
163,167,78140,1,0,0:0:0:0:
367,119,78257,1,8,1:0:0:0:
451,111,78374,1,0,0:0:0:0:
367,119,78492,1,0,0:0:0:0:
284,127,78609,1,0,0:0:0:0:
93,89,78726,1,4,1:0:0:0:
18,96,78843,1,0,0:0:0:0:
93,89,78960,1,0,0:0:0:0:
311,224,79195,2,0,L|501:246,1,152.74999300766,8|0,1:0|0:0,0:0:0:0:
166,306,79664,6,0,P|89:284|79:193,1,152.74999300766,4|0,1:2|0:0,0:0:0:0:
145,206,80015,1,0,0:0:0:0:
327,135,80132,2,0,L|198:123,1,76.3749965038301,8|0,1:0|0:0,0:0:0:0:
160,50,80367,2,0,L|289:38,1,76.3749965038301
422,136,80601,1,4,1:0:0:0:
489,105,80718,1,0,0:0:0:0:
422,136,80835,1,0,0:0:0:0:
242,101,81070,1,8,1:0:0:0:
423,343,81304,6,0,L|430:109,1,229.12498951149,2|0,0:0|0:0,0:0:0:0:
354,105,81773,1,2,0:0:0:0:
279,96,81890,1,0,0:0:0:0:
92,147,82007,1,8,1:0:0:0:
17,139,82124,1,0,0:0:0:0:
94,148,82242,1,0,0:0:0:0:
170,157,82359,1,0,0:0:0:0:
386,148,82476,1,4,1:0:0:0:
389,227,82593,1,0,0:0:0:0:
173,205,82710,2,0,L|8:232,1,152.74999300766,2|8,0:0|1:0,0:0:0:0:
173,205,83179,2,0,L|270:214,1,76.3749965038301
452,259,83414,6,0,P|439:183|352:148,1,152.74999300766,4|0,1:2|0:0,0:0:0:0:
302,148,83765,1,0,0:0:0:0:
124,277,83882,1,8,1:0:0:0:
56,257,83999,1,0,0:0:0:0:
56,257,84117,1,0,0:0:0:0:
124,277,84234,1,0,0:0:0:0:
324,284,84351,1,4,1:0:0:0:
396,260,84468,1,0,0:0:0:0:
465,232,84585,1,0,0:0:0:0:
331,157,84820,1,8,1:0:0:0:
35,203,85054,6,0,L|319:161,1,229.12498951149,2|0,0:0|0:0,0:0:0:0:
186,160,85523,1,2,0:0:0:0:
111,150,85640,1,0,0:0:0:0:
303,280,85757,1,8,1:0:0:0:
297,204,85874,1,0,0:0:0:0:
252,141,85992,1,0,0:0:0:0:
177,130,86109,1,0,0:0:0:0:
374,165,86226,1,4,1:0:0:0:
450,157,86343,1,0,0:0:0:0:
375,165,86460,1,0,0:0:0:0:
171,146,86695,2,0,L|22:207,1,152.74999300766,8|0,1:0|0:0,0:0:0:0:
385,313,87164,6,0,P|375:238|277:210,1,152.74999300766,4|0,1:2|0:0,0:0:0:0:
230,223,87515,1,0,0:0:0:0:
416,125,87632,1,8,1:0:0:0:
490,144,87749,1,0,0:0:0:0:
416,125,87867,1,0,0:0:0:0:
342,106,87984,1,0,0:0:0:0:
149,82,88101,1,4,1:0:0:0:
144,158,88218,1,0,0:0:0:0:
239,164,88335,2,0,L|402:153,1,152.74999300766,0|8,0:0|1:0,0:0:0:0:
168,326,88804,6,0,P|94:314|33:160,1,229.12498951149,4|0,1:2|0:0,0:0:0:0:
104,190,89273,1,4,1:0:0:0:
181,193,89390,1,0,0:0:0:0:
368,153,89507,1,8,1:0:0:0:
370,229,89624,1,0,0:0:0:0:
174,270,89742,1,4,1:0:0:0:
172,346,89859,1,0,0:0:0:0:
376,329,89976,2,0,L|465:332,1,76.3749965038301,4|0,1:0|0:0,0:0:0:0:
222,183,90210,2,0,L|133:186,1,76.3749965038301,8|0,1:0|1:0,0:0:0:0:
418,172,90445,2,0,L|422:343,1,152.74999300766,0|0,1:1|0:0,0:0:0:0:
109,216,90914,6,0,P|58:178|124:133,1,152.74999300766,4|0,0:0|0:0,0:0:0:0:
283,141,91382,1,2,0:0:0:0:
109,216,91617,1,0,0:0:0:0:
186,223,91734,1,0,0:0:0:0:
364,290,91968,1,0,0:0:0:0:
287,297,92085,1,0,0:0:0:0:
95,357,92320,1,2,0:0:0:0:
249,304,92554,1,0,0:0:0:0:
403,216,92789,6,0,P|452:181|389:125,1,152.74999300766
229,141,93257,1,2,0:0:0:0:
403,216,93492,1,0,0:0:0:0:
318,223,93609,1,0,0:0:0:0:
148,290,93843,1,0,0:0:0:0:
233,297,93960,1,0,0:0:0:0:
53,344,94195,1,2,0:0:0:0:
43,205,94429,1,0,1:0:0:0:
403,216,94664,6,0,P|445:194|391:125,1,152.74999300766,0|0,1:0|0:0,0:0:0:0:
229,141,95132,1,2,0:0:0:0:
403,216,95367,1,0,0:0:0:0:
326,223,95484,1,0,0:0:0:0:
148,290,95718,1,0,0:0:0:0:
225,297,95835,1,0,0:0:0:0:
417,357,96070,1,2,0:0:0:0:
263,304,96304,1,0,0:0:0:0:
91,334,96539,5,0,0:0:0:0:
103,258,96656,1,0,0:0:0:0:
148,196,96773,1,0,0:0:0:0:
219,170,96890,1,0,0:0:0:0:
125,157,97007,1,2,0:0:0:0:
49,147,97124,1,0,0:0:0:0:
125,156,97242,1,0,0:0:0:0:
326,98,97359,2,0,L|330:263,1,152.74999300766
240,270,97710,1,0,0:0:0:0:
62,269,97945,1,4,0:1:0:0:
59,189,98062,1,4,2:1:0:0:
57,107,98179,1,4,2:1:0:0:
366,297,98414,6,0,P|440:267|463:149,1,152.74999300766,8|0,1:0|0:0,0:0:0:0:
264,194,98882,2,0,P|190:164|167:46,1,152.74999300766,8|0,1:0|0:0,0:0:0:0:
370,81,99351,2,0,L|374:177,1,76.3749965038301,8|0,1:0|0:0,0:0:0:0:
370,81,99585,2,0,L|374:177,1,76.3749965038301
277,173,99820,1,8,1:0:0:0:
204,184,99937,1,0,0:0:0:0:
276,174,100054,1,0,0:0:0:0:
116,297,100289,6,0,P|42:267|19:149,1,152.74999300766,8|0,1:0|0:0,0:0:0:0:
219,193,100757,2,0,P|293:163|316:45,1,152.74999300766,8|0,1:0|0:0,0:0:0:0:
242,84,101109,1,0,0:0:0:0:
242,84,101343,1,0,0:0:0:0:
324,101,101460,1,0,0:0:0:0:
470,207,101695,1,8,1:0:0:0:
394,220,101812,1,0,0:0:0:0:
319,234,101929,1,0,0:0:0:0:
139,172,102164,5,8,2:0:0:0:
319,234,102398,1,8,2:0:0:0:
139,172,102632,1,8,2:0:0:0:
319,234,102867,1,8,2:0:0:0:
136,325,103101,1,8,2:0:0:0:
149,249,103218,1,8,2:0:0:0:
205,197,103335,1,8,2:0:0:0:
280,182,103453,1,8,2:0:0:0:
100,108,103570,1,8,0:0:0:0:
20,108,103687,1,8,0:0:0:0:
292,275,103804,1,8,0:0:0:0:
372,275,103921,1,8,0:0:0:0:
107,353,104039,5,4,1:0:0:0:
103,235,104273,1,4,1:0:0:0:
266,213,104507,1,8,1:0:0:0:
190,201,104624,1,0,0:0:0:0:
113,190,104742,1,0,0:0:0:0:
306,262,104859,2,0,P|372:243|400:155,1,152.74999300766,2|0,1:2|0:0,0:0:0:0:
197,165,105210,2,0,L|195:60,1,76.3749965038301,2|0,1:3|0:0,0:0:0:0:
381,142,105445,5,4,1:0:0:0:
457,95,105562,1,0,0:0:0:0:
381,60,105679,1,4,1:0:0:0:
256,192,105914,12,0,108726,0:0:0:0:
289,213,108960,5,2,1:3:0:0:
364,199,109078,1,0,0:0:0:0:
439,186,109195,1,8,1:0:0:0:
145,130,109429,1,0,1:0:0:0:
439,186,109664,6,0,L|449:29,1,152.74999300766,4|0,1:2|0:0,0:0:0:0:
261,309,110132,2,0,L|253:186,1,76.3749965038301,8|0,1:0|0:0,0:0:0:0:
344,228,110367,1,0,0:0:0:0:
433,221,110484,2,0,L|436:56,1,152.74999300766
349,112,110835,2,0,L|148:97,2,152.74999300766,0|8|0,0:0|1:0|0:0,0:0:0:0:
168,141,111539,6,0,L|173:51,1,76.3749965038301,4|0,1:0|0:0,0:0:0:0:
256,44,111773,1,0,0:0:0:0:
409,191,112007,2,0,L|414:101,1,76.3749965038301,8|0,1:0|0:0,0:0:0:0:
209,121,112242,2,0,L|204:31,1,76.3749965038301
392,292,112476,2,0,P|458:273|472:162,1,152.74999300766,4|0,1:0|0:0,0:0:0:0:
409,192,112828,1,0,0:0:0:0:
333,183,112945,1,8,1:0:0:0:
33,153,113179,1,0,0:0:0:0:
27,235,113296,1,0,0:0:0:0:
228,124,113414,6,0,L|345:117,1,76.3749965038301,4|0,1:0|0:0,0:0:0:0:
228,124,113648,1,2,0:0:0:0:
406,149,113882,2,0,L|410:256,1,76.3749965038301,8|0,1:0|0:0,0:0:0:0:
331,227,114117,1,2,0:0:0:0:
235,239,114234,2,0,L|450:265,1,152.74999300766
389,176,114585,1,2,0:0:0:0:
214,320,114820,2,0,L|98:309,1,76.3749965038301,8|4,1:0|0:1,0:0:0:0:
361,160,115054,2,0,L|477:149,1,76.3749965038301,4|4,0:3|0:3,0:0:0:0:
206,271,115289,6,0,P|141:248|117:146,1,152.74999300766,4|2,1:0|0:0,0:0:0:0:
287,140,115757,1,8,1:0:0:0:
109,174,115992,1,2,0:0:0:0:
185,163,116109,1,0,0:0:0:0:
375,85,116343,1,0,0:0:0:0:
299,74,116460,1,2,0:0:0:0:
109,174,116695,1,8,1:0:0:0:
105,93,116812,1,4,0:3:0:0:
309,190,116929,1,4,0:3:0:0:
313,109,117046,1,4,0:3:0:0:
111,264,117164,5,4,1:2:0:0:
35,252,117281,1,0,0:0:0:0:
110,264,117398,1,0,0:0:0:0:
185,277,117515,1,0,0:0:0:0:
373,234,117632,1,8,1:0:0:0:
453,177,117749,2,0,L|458:342,1,152.74999300766,0|0,0:0|2:0,0:0:0:0:
236,284,118101,1,4,1:0:0:0:
150,277,118218,2,0,L|144:218,2,38.1874982519151
236,284,118453,1,0,0:0:0:0:
321,290,118570,1,8,1:0:0:0:
115,35,118687,2,0,L|110:214,1,152.74999300766
344,165,119039,5,4,1:0:0:0:
419,153,119156,1,0,0:0:0:0:
344,166,119273,1,0,0:0:0:0:
269,180,119390,1,0,0:0:0:0:
61,284,119507,2,0,L|250:304,1,152.74999300766,8|0,1:0|0:0,0:0:0:0:
312,352,119859,2,0,L|123:372,1,152.74999300766
261,338,120210,2,0,L|350:351,1,76.3749965038301
116,206,120445,1,8,1:0:0:0:
107,336,120679,1,0,0:0:0:0:
470,229,120914,6,0,P|462:154|359:108,1,152.74999300766,4|0,1:0|0:0,0:0:0:0:
326,111,121265,1,0,0:0:0:0:
145,239,121382,1,8,1:0:0:0:
158,163,121499,1,0,0:0:0:0:
204,102,121617,1,0,0:0:0:0:
279,88,121734,1,0,0:0:0:0:
191,85,121851,1,4,1:0:0:0:
103,85,121968,1,0,0:0:0:0:
255,76,122203,1,0,0:0:0:0:
451,41,122320,2,0,L|455:235,1,152.74999300766,8|0,1:0|0:0,0:0:0:0:
256,330,122789,5,4,1:0:0:0:
186,297,122906,1,0,0:0:0:0:
155,227,123023,1,0,0:0:0:0:
185,157,123140,1,0,0:0:0:0:
267,137,123257,1,8,1:0:0:0:
452,141,123374,1,0,0:0:0:0:
307,209,123609,2,0,L|111:190,1,152.74999300766,2|0,1:3|0:0,0:0:0:0:
365,140,123960,2,0,L|371:263,1,76.3749965038301,4|0,1:3|0:0,0:0:0:0:
152,246,124195,2,0,P|155:171|263:126,1,152.74999300766,8|4,1:0|1:3,0:0:0:0:
304,140,124546,1,4,1:3:0:0:
114,82,124664,5,4,1:2:0:0:
38,91,124781,1,0,0:0:0:0:
113,82,124898,1,0,0:0:0:0:
188,73,125015,1,0,0:0:0:0:
370,28,125132,2,0,L|376:217,1,152.74999300766,8|0,1:0|0:0,0:0:0:0:
185,245,125484,2,0,L|1:224,1,152.74999300766,2|0,0:0|0:0,0:0:0:0:
124,221,125835,2,0,L|308:201,2,152.74999300766,2|8|2,0:0|1:0|0:0,0:0:0:0:
312,286,126539,5,4,1:0:0:0:
381,254,126656,1,0,0:0:0:0:
407,182,126773,1,2,0:0:0:0:
381,110,126890,1,0,0:0:0:0:
282,146,127007,2,0,P|205:127|191:33,1,152.74999300766,8|2,1:0|0:0,0:0:0:0:
381,254,127359,2,0,B|457:255|457:255|374:254,1,152.74999300766,2|0,0:0|0:0,0:0:0:0:
183,209,127710,2,0,L|-14:219,2,152.74999300766,2|8|2,0:0|1:0|0:0,0:0:0:0:
491,260,128414,5,8,1:0:0:0:
320,233,128648,1,0,1:0:0:0:
491,260,128882,1,8,1:0:0:0:
195,85,129117,1,0,1:0:0:0:
121,84,129234,1,0,1:0:0:0:
294,178,129468,1,0,1:0:0:0:
368,177,129585,1,0,1:0:0:0:
294,178,129703,1,0,0:0:0:0:
89,217,129820,2,0,L|29:217,2,38.1874982519151,8|0|0,1:0|1:0|1:0,0:0:0:0:
340,264,130054,1,4,1:3:0:0:
414,263,130172,1,4,1:3:0:0:
183,324,130289,5,4,1:1:0:0:
19,323,130523,1,4,0:1:0:0:
183,324,130757,1,8,1:0:0:0:
495,196,130992,2,0,L|392:192,1,76.3749965038301,0|4,0:0|0:1,0:0:0:0:
251,94,131343,2,0,L|354:90,1,76.3749965038301,0|4,0:0|0:1,0:0:0:0:
25,95,131695,1,8,1:0:0:0:
308,230,132164,6,0,P|379:192|280:112,1,229.12498951149,2|2,0:0|0:0,0:0:0:0:
185,189,132632,2,0,L|76:180,1,76.3749965038301,4|4,0:1|0:1,0:0:0:0:
108,182,132867,2,0,L|184:175,1,76.3749965038301,4|4,0:1|0:1,0:0:0:0:
305,97,133101,2,0,L|306:345,1,229.12498951149,2|2,0:0|0:0,0:0:0:0:
