osu file format v14

[General]
AudioFilename: audio.mp3
AudioLeadIn: 0
PreviewTime: 45914
Countdown: 0
SampleSet: Soft
StackLeniency: 0.7
Mode: 0
LetterboxInBreaks: 0
WidescreenStoryboard: 1

[Editor]
DistanceSpacing: 1.1
BeatDivisor: 4
GridSize: 16
TimelineZoom: 0.6399995

[Metadata]
Title:The 89's Momentum
TitleUnicode:The 89's Momentum
Artist:MYUKKE.
ArtistUnicode:MYUKKE.
Creator:Mafumafu
Version:Normal
Source:
Tags:regraz __Ag AuroraE flake instrumental electronic PDC2021 PDC 2021 pending cup mapping contest osu!FA osuFA featured artist track mappers guild mapper's mappers' mpg english fa
BeatmapID:4419242
BeatmapSetID:2106075

[Difficulty]
HPDrainRate:3.4
CircleSize:3.4
OverallDifficulty:4.4
ApproachRate:5.5
SliderMultiplier:1.5
SliderTickRate:1

[Events]
//Background and Video events
0,0,"bg.png",0,0
//Break Periods
2,46113,52289
//Storyboard Layer 0 (Background)
//Storyboard Layer 1 (Fail)
//Storyboard Layer 2 (Pass)
//Storyboard Layer 3 (Foreground)
//Storyboard Layer 4 (Overlay)
//Storyboard Sound Samples

[TimingPoints]
914,468.75,4,2,1,50,1,0
914,-100,4,2,1,50,0,0
2789,-100,4,2,1,55,0,0
4664,-100,4,2,1,60,0,0
6539,-100,4,2,1,65,0,0
7359,-100,4,2,1,65,0,0
7476,-100,4,2,81,80,0,0
7593,-100,4,2,1,65,0,0
7710,-100,4,2,1,65,0,0
7945,-100,4,2,8,65,0,0
8062,-100,4,2,1,65,0,0
8179,-100,4,2,8,65,0,0
8414,-100,4,2,16,70,0,0
8648,-100,4,2,1,70,0,0
8882,-100,4,2,1,70,0,0
9234,-100,4,2,1,70,0,0
9468,-100,4,2,1,70,0,0
10171,-100,4,2,1,70,0,0
10464,-100,4,2,1,5,0,0
10523,-100,4,2,1,70,0,0
10757,-100,4,2,1,70,0,0
10933,-100,4,2,1,5,0,0
10992,-100,4,2,1,70,0,0
11109,-100,4,2,1,70,0,0
11285,-100,4,2,1,5,0,0
11343,-100,4,2,1,70,0,0
11695,-100,4,2,1,70,0,0
11929,-100,4,2,1,70,0,0
12164,-100,4,2,1,70,0,0
13570,-100,4,2,4,70,0,0
13804,-100,4,2,5,70,0,0
13863,-100,4,2,5,5,0,0
14039,-100,4,2,5,80,0,0
14507,-100,4,2,5,80,0,0
14566,-100,4,2,5,5,0,0
14624,-100,4,2,5,80,0,0
14683,-100,4,2,5,5,0,0
14742,-100,4,2,5,80,0,0
14800,-100,4,2,5,5,0,0
14859,-100,4,2,5,80,0,0
15035,-100,4,2,5,5,0,0
15093,-100,4,2,5,80,0,0
15152,-100,4,2,5,5,0,0
15210,-100,4,2,5,80,0,0
15445,-100,4,2,5,80,0,0
15855,-100,4,2,5,5,0,0
15914,-100,4,2,16,70,0,0
16382,-100,4,2,16,60,0,0
16734,-100,4,2,16,60,0,0
17554,-100,4,2,16,60,0,0
18609,-100,4,2,16,60,0,0
19195,-100,4,2,0,60,0,0
19429,-100,4,2,19,60,0,0
19488,-100,4,2,19,5,0,0
19546,-100,4,2,0,60,0,0
19605,-100,4,2,0,5,0,0
19664,-100,4,2,16,60,0,0
19781,-100,4,2,16,60,0,0
19839,-100,4,2,16,5,0,0
19898,-100,4,2,2,60,0,0
20601,-100,4,2,16,60,0,0
20835,-100,4,2,2,60,0,0
21070,-100,4,2,3,60,0,0
21480,-100,4,2,3,5,0,0
21539,-100,4,2,1,60,0,0
23179,-100,4,2,1,60,0,0
23414,-100,4,2,16,60,0,0
23648,-100,4,2,1,60,0,0
23882,-100,4,2,1,60,0,0
24234,-100,4,2,1,60,0,0
24820,-100,4,2,1,60,0,0
25289,-100,4,2,1,60,0,0
26695,-100,4,2,1,60,0,0
26871,-100,4,2,1,5,0,0
26929,-100,4,2,1,60,0,0
27164,-100,4,2,7,60,0,0
27515,-100,4,2,7,5,0,0
27632,-100,4,2,8,60,0,0
28042,-100,4,2,8,5,0,0
28101,-100,4,2,8,60,0,0
28511,-100,4,2,8,5,0,0
28570,-100,4,2,77,80,0,0
28746,-100,4,2,77,5,0,0
28804,-100,4,2,77,60,0,0
29039,-100,4,2,1,60,0,0
29859,-100,4,2,1,60,0,0
30445,-100,4,2,1,60,0,0
30855,-100,4,2,1,5,0,0
30914,-100,4,2,90,70,0,0
31148,-100,4,2,1,70,0,0
31382,-100,4,2,90,70,0,0
31734,-100,4,2,1,70,0,0
31851,-100,4,2,91,70,0,0
31968,-100,4,2,1,70,0,0
32027,-100,4,2,1,5,0,0
32085,-100,4,2,1,70,0,0
32144,-100,4,2,1,5,0,0
32203,-100,4,2,1,70,0,0
32261,-100,4,2,1,5,0,0
32320,-100,4,2,1,70,0,0
32789,-100,4,2,1,70,0,0
32964,-100,4,2,1,5,0,0
33023,-100,4,2,1,70,0,0
33257,-100,4,2,1,70,0,0
33433,-100,4,2,1,5,0,0
33492,-100,4,2,1,70,0,0
33785,-100,4,2,1,5,0,0
33843,-100,4,2,1,70,0,0
34195,-100,4,2,1,70,0,0
34429,-100,4,2,1,70,0,0
34664,-100,4,2,92,70,0,0
34898,-100,4,2,1,70,0,0
35249,-100,4,2,1,70,0,0
35601,-100,4,2,93,70,0,0
35718,-100,4,2,1,70,0,0
35835,-100,4,2,93,70,0,0
36070,-100,4,2,94,70,0,0
36304,-100,4,2,1,70,0,0
36539,-100,4,2,95,70,0,0
36656,-100,4,2,1,70,0,0
37124,-100,4,2,1,70,0,0
37359,-100,4,2,1,70,0,0
37535,-100,4,2,1,5,0,0
37593,-100,4,2,1,70,0,0
37710,-100,4,2,1,70,0,0
38414,-100,4,2,62,80,0,0
38589,-100,4,2,62,5,0,0
38648,-100,4,2,62,80,0,0
38882,-100,4,2,1,70,0,0
39117,-100,4,2,1,70,0,0
40054,-100,4,2,1,70,0,0
40289,-100,4,2,65,80,0,0
40406,-100,4,2,65,5,0,0
40464,-100,4,2,65,5,0,0
40523,-100,4,2,64,80,0,0
40640,-100,4,2,1,70,0,0
40757,-100,4,2,1,70,0,0
41460,-100,4,2,1,70,0,0
41695,-100,4,2,1,70,0,0
41871,-100,4,2,1,5,0,0
41929,-100,4,2,1,70,0,0
42164,-100,4,2,1,70,0,0
45914,-100,4,2,0,75,0,0
52945,-100,4,2,0,75,0,0
53179,-100,4,2,0,75,0,0
53414,-100,4,2,0,75,0,0
57164,-100,4,2,0,75,0,0
58570,-100,4,2,0,75,0,0
58746,-100,4,2,0,5,0,0
58804,-100,4,2,0,75,0,0
59273,-100,4,2,52,75,0,0
59507,-100,4,2,53,75,0,0
59859,-100,4,2,54,75,0,0
59976,-100,4,2,55,75,0,0
60328,-100,4,2,1,75,0,0
60445,-100,4,2,63,75,0,0
60855,-100,4,2,63,5,0,0
60914,-100,4,2,17,80,0,0
61148,-100,4,2,1,80,0,0
61382,-100,4,2,1,80,0,0
62085,-100,4,2,1,80,0,0
62144,-100,4,2,1,5,0,0
62203,-100,4,2,1,80,0,0
62261,-100,4,2,1,5,0,0
62320,-100,4,2,1,80,0,0
62554,-100,4,2,1,80,0,0
63023,-100,4,2,1,80,0,0
63726,-100,4,2,1,80,0,0
64429,-100,4,2,1,80,0,0
64664,-100,4,2,1,80,0,0
65601,-100,4,2,40,80,0,0
65718,-100,4,2,1,80,0,0
65835,-100,4,2,1,80,0,0
66773,-100,4,2,1,80,0,0
67476,-100,4,2,1,80,0,0
68414,-100,4,2,16,80,0,0
68648,-100,4,2,1,80,0,0
69585,-100,4,2,1,80,0,0
69644,-100,4,2,1,5,0,0
69703,-100,4,2,1,80,0,0
69761,-100,4,2,1,5,0,0
69820,-100,4,2,1,80,0,0
70054,-100,4,2,1,80,0,0
70523,-100,4,2,1,80,0,0
71226,-100,4,2,1,80,0,0
71285,-100,4,2,1,5,0,0
71343,-100,4,2,1,80,0,0
71402,-100,4,2,1,5,0,0
71460,-100,4,2,1,80,0,0
71519,-100,4,2,1,5,0,0
71578,-100,4,2,1,80,0,0
72164,-100,4,2,83,80,0,0
72339,-100,4,2,83,5,0,0
72398,-100,4,2,1,80,0,0
73570,-100,4,2,21,80,0,0
73746,-100,4,2,21,5,0,0
73804,-100,4,2,1,80,0,0
73980,-100,4,2,1,5,0,0
74039,-100,4,2,19,80,0,0
74097,-100,4,2,19,5,0,0
74156,-100,4,2,19,80,0,0
74214,-100,4,2,19,5,0,0
74273,-100,4,2,19,80,0,0
74449,-100,4,2,19,5,0,0
74507,-100,4,2,1,80,0,0
74624,-100,4,2,54,80,0,0
74976,-100,4,2,96,80,0,0
75210,-100,4,2,1,80,0,0
75445,-100,4,2,16,80,0,0
75855,-100,4,2,16,5,0,0
75914,-100,4,2,9,90,0,0
76089,-100,4,2,9,5,0,0
76148,-100,4,2,10,90,0,0
76206,-100,4,2,10,5,0,0
76265,-100,4,2,10,90,0,0
76323,-100,4,2,10,5,0,0
76382,-100,4,2,10,90,0,0
76440,-100,4,2,10,5,0,0
76499,-100,4,2,10,90,0,0
76557,-100,4,2,10,5,0,0
76617,-100,4,2,10,90,0,0
76675,-100,4,2,10,5,0,0
76734,-100,4,2,10,90,0,0
76792,-100,4,2,10,5,0,0
76851,-100,4,2,10,90,0,0
76909,-100,4,2,10,5,0,0
76968,-100,4,2,10,90,0,0
77026,-100,4,2,10,5,0,0
77085,-100,4,2,10,90,0,0
77261,-100,4,2,10,5,0,0
77320,-100,4,2,10,90,0,0
77496,-100,4,2,10,5,0,0
77554,-100,4,2,10,90,0,0
77964,-100,4,2,10,5,0,0
78023,-100,4,2,10,90,0,0
78081,-100,4,2,10,5,0,0
78140,-100,4,2,10,90,0,0
78198,-100,4,2,10,5,0,0
78257,-100,4,2,10,90,0,0
78315,-100,4,2,10,5,0,0
78374,-100,4,2,10,90,0,0
78432,-100,4,2,10,5,0,0
78492,-100,4,2,10,90,0,0
78550,-100,4,2,10,5,0,0
78609,-100,4,2,10,90,0,0
78667,-100,4,2,10,5,0,0
78726,-100,4,2,10,90,0,0
78784,-100,4,2,10,5,0,0
78843,-100,4,2,10,90,0,0
78901,-100,4,2,10,5,0,0
78960,-100,4,2,10,90,0,0
79136,-100,4,2,10,5,0,0
79195,-100,4,2,11,90,0,0
79664,-100,4,2,10,90,0,0
79839,-100,4,2,10,5,0,0
79898,-100,4,2,10,90,0,0
79956,-100,4,2,10,5,0,0
80015,-100,4,2,10,90,0,0
80073,-100,4,2,10,5,0,0
80132,-100,4,2,10,90,0,0
80190,-100,4,2,10,5,0,0
80249,-100,4,2,10,90,0,0
80307,-100,4,2,10,5,0,0
80367,-100,4,2,10,90,0,0
80425,-100,4,2,10,5,0,0
80484,-100,4,2,10,90,0,0
80542,-100,4,2,10,5,0,0
80601,-100,4,2,10,90,0,0
80659,-100,4,2,10,5,0,0
80718,-100,4,2,10,90,0,0
80776,-100,4,2,10,5,0,0
80835,-100,4,2,10,90,0,0
81011,-100,4,2,10,5,0,0
81070,-100,4,2,10,90,0,0
81246,-100,4,2,10,5,0,0
81304,-100,4,2,10,90,0,0
81714,-100,4,2,10,5,0,0
81773,-100,4,2,10,90,0,0
81831,-100,4,2,10,5,0,0
81890,-100,4,2,10,90,0,0
81948,-100,4,2,10,5,0,0
82007,-100,4,2,10,90,0,0
82065,-100,4,2,10,5,0,0
82124,-100,4,2,10,90,0,0
82182,-100,4,2,10,5,0,0
82242,-100,4,2,10,90,0,0
82300,-100,4,2,10,5,0,0
82359,-100,4,2,10,90,0,0
82417,-100,4,2,10,5,0,0
82476,-100,4,2,10,90,0,0
82710,-100,4,2,12,90,0,0
82945,-100,4,2,13,90,0,0
83414,-100,4,2,10,90,0,0
83589,-100,4,2,10,5,0,0
83648,-100,4,2,10,90,0,0
83706,-100,4,2,10,5,0,0
83765,-100,4,2,10,90,0,0
83823,-100,4,2,10,5,0,0
83882,-100,4,2,10,90,0,0
83940,-100,4,2,10,5,0,0
83999,-100,4,2,10,90,0,0
84057,-100,4,2,10,5,0,0
84117,-100,4,2,10,90,0,0
84175,-100,4,2,10,5,0,0
84234,-100,4,2,10,90,0,0
84292,-100,4,2,10,5,0,0
84351,-100,4,2,10,90,0,0
84409,-100,4,2,10,5,0,0
84468,-100,4,2,10,90,0,0
84526,-100,4,2,10,5,0,0
84585,-100,4,2,10,90,0,0
84761,-100,4,2,10,5,0,0
84820,-100,4,2,10,90,0,0
84996,-100,4,2,10,5,0,0
85054,-100,4,2,10,90,0,0
85406,-100,4,2,10,90,0,0
85464,-100,4,2,10,5,0,0
85523,-100,4,2,10,90,0,0
85581,-100,4,2,10,5,0,0
85640,-100,4,2,10,90,0,0
85698,-100,4,2,10,5,0,0
85757,-100,4,2,10,90,0,0
85815,-100,4,2,10,5,0,0
85874,-100,4,2,10,90,0,0
85932,-100,4,2,10,5,0,0
85992,-100,4,2,10,90,0,0
86050,-100,4,2,10,5,0,0
86109,-100,4,2,10,90,0,0
86167,-100,4,2,10,5,0,0
86226,-100,4,2,10,90,0,0
86284,-100,4,2,10,5,0,0
86343,-100,4,2,10,90,0,0
86401,-100,4,2,10,5,0,0
86460,-100,4,2,10,90,0,0
86636,-100,4,2,10,5,0,0
86695,-100,4,2,11,90,0,0
87164,-100,4,2,14,90,0,0
87339,-100,4,2,14,5,0,0
87398,-100,4,2,14,90,0,0
87456,-100,4,2,14,5,0,0
87515,-100,4,2,14,90,0,0
87573,-100,4,2,14,5,0,0
87632,-100,4,2,14,90,0,0
87690,-100,4,2,14,5,0,0
87749,-100,4,2,14,90,0,0
87807,-100,4,2,14,5,0,0
87867,-100,4,2,14,90,0,0
87925,-100,4,2,14,5,0,0
87984,-100,4,2,14,90,0,0
88042,-100,4,2,14,5,0,0
88101,-100,4,2,14,90,0,0
88159,-100,4,2,14,5,0,0
88218,-100,4,2,14,90,0,0
88276,-100,4,2,14,5,0,0
88335,-100,4,2,14,90,0,0
88511,-100,4,2,14,5,0,0
88570,-100,4,2,14,90,0,0
88746,-100,4,2,14,5,0,0
88804,-100,4,2,15,90,0,0
89156,-100,4,2,15,90,0,0
89214,-100,4,2,15,5,0,0
89273,-100,4,2,15,90,0,0
89331,-100,4,2,15,5,0,0
89390,-100,4,2,15,90,0,0
89448,-100,4,2,15,5,0,0
89507,-100,4,2,15,90,0,0
89565,-100,4,2,15,5,0,0
89624,-100,4,2,15,90,0,0
89682,-100,4,2,15,5,0,0
89742,-100,4,2,15,90,0,0
89800,-100,4,2,15,5,0,0
89859,-100,4,2,15,90,0,0
89917,-100,4,2,15,5,0,0
89976,-100,4,2,15,90,0,0
90034,-100,4,2,15,5,0,0
90093,-100,4,2,15,90,0,0
90151,-100,4,2,15,5,0,0
90210,-100,4,2,12,90,0,0
90445,-100,4,2,16,90,0,0
90855,-100,4,2,16,5,0,0
90914,-100,4,2,1,60,0,0
92789,-100,4,2,1,60,0,0
94664,-100,4,2,1,60,0,0
96539,-100,4,2,1,60,0,0
98414,-100,4,2,17,70,0,0
104039,-100,4,2,17,60,0,0
104742,-100,4,2,17,60,0,0
105093,-100,4,2,17,60,0,0
105210,-100,4,2,82,60,0,0
105562,-100,4,2,17,60,0,0
105679,-100,4,2,82,60,0,0
105914,-100,4,2,0,55,0,0
106617,-100,4,2,0,60,0,0
107085,-100,4,2,0,65,0,0
107789,-100,4,2,0,70,0,0
108960,-100,4,2,19,60,0,0
109195,-100,4,2,17,80,0,0
109664,-100,4,2,16,60,0,0
109898,-100,4,2,16,60,0,0
110132,-100,4,2,1,60,0,0
110484,-100,4,2,1,60,0,0
111304,-100,4,2,1,60,0,0
111539,-100,4,2,1,60,0,0
113179,-100,4,2,1,60,0,0
113414,-100,4,2,1,60,0,0
113648,-100,4,2,50,60,0,0
114351,-100,4,2,1,60,0,0
114585,-100,4,2,50,60,0,0
114820,-100,4,2,51,60,0,0
114937,-100,4,2,1,60,0,0
114996,-100,4,2,1,5,0,0
115054,-100,4,2,50,60,0,0
115289,-100,4,2,1,70,0,0
116109,-100,4,2,1,70,0,0
117164,-100,4,2,16,80,0,0
117398,-100,4,2,1,80,0,0
117984,-100,4,2,1,80,0,0
118687,-100,4,2,1,80,0,0
119507,-100,4,2,1,80,0,0
120445,-100,4,2,1,80,0,0
122320,-100,4,2,1,80,0,0
123609,-100,4,2,69,80,0,0
123960,-100,4,1,49,80,0,0
124195,-100,4,2,1,80,0,0
124312,-100,4,2,1,80,0,0
124664,-100,4,2,1,70,0,0
127359,-100,4,2,1,70,0,0
128414,-100,4,2,1,70,0,0
128648,-100,4,2,1,70,0,0
128882,-100,4,2,1,70,0,0
129117,-100,4,2,1,70,0,0
129468,-100,4,2,1,70,0,0
129820,-100,4,2,1,70,0,0
130054,-100,4,2,1,70,0,0
131109,-100,4,2,1,70,0,0
131695,-100,4,2,16,70,0,0
132105,-100,4,2,16,5,0,0
132164,-100,4,2,1,60,0,0
132632,-100,4,2,1,60,0,0
133101,-100,4,2,1,50,0,0
133453,-100,4,2,97,80,0,0

[Colours]
Combo1 : 188,185,206
Combo2 : 135,89,166
Combo3 : 162,32,223
Combo4 : 236,149,2
Combo5 : 235,200,1
Combo6 : 20,194,60
Combo7 : 133,217,30
Combo8 : 120,111,153

[HitObjects]
157,43,914,6,0,P|210:38|242:70,1,75,6|2,3:2|0:0,0:0:0:0:
247,127,1382,2,0,P|222:165|255:237,2,112.5,2|2|2,0:0|0:0|0:0,0:0:0:0:
310,73,2320,1,2,0:0:0:0:
469,114,2789,6,0,L|457:202,1,75,2|2,0:0|0:0,0:0:0:0:
382,220,3257,2,0,P|324:195|272:217,2,112.5,2|2|2,0:0|0:0|0:0,0:0:0:0:
446,271,4195,1,2,0:0:0:0:
446,271,4429,1,2,3:2:0:0:
393,335,4664,6,0,L|311:328,1,75,6|2,3:2|0:0,0:0:0:0:
264,266,5132,2,0,B|247:230|247:230|278:139,2,112.5,2|2|2,0:0|0:0|0:0,0:0:0:0:
234,343,6070,1,2,0:0:0:0:
73,304,6539,6,0,P|36:281|-7:283,1,75,8|4,0:3|0:3,0:0:0:0:
31,201,7007,2,0,P|29:136|-4:81,2,112.5,0|0|2,3:0|3:0|0:3,0:0:0:0:
112,188,7945,1,8,0:3:0:0:
112,188,8179,1,4,0:3:0:0:
176,239,8414,6,0,P|235:248|271:167,1,150,4|2,0:0|1:2,0:0:0:0:
238,102,9117,1,0,0:0:0:0:
300,48,9351,2,0,P|353:46|392:75,2,75,2|2|2,3:2|0:0|1:2,0:0:0:0:
238,102,10054,1,2,0:3:0:0:
165,61,10289,6,0,P|99:28|22:57,1,150,2|2,3:2|1:2,0:0:0:0:
12,214,11226,2,0,P|2:265|16:298,1,75,2|2,3:2|0:0,0:0:0:0:
80,327,11695,2,0,L|162:307,1,75,2|2,1:2|0:0,0:0:0:0:
200,241,12164,5,8,0:0:0:0:
271,288,12398,1,8,0:0:0:0:
339,241,12632,2,0,P|363:187|332:144,2,112.5,8|8|8,0:0|0:0|0:0,0:0:0:0:
271,288,13570,1,10,0:0:0:0:
130,201,14039,6,0,L|42:216,1,75,4|0,3:2|3:0,0:0:0:0:
11,144,14507,2,0,P|0:84|41:35,2,112.5,0|0|0,1:0|3:0|3:0,0:0:0:0:
56,213,15445,1,0,1:0:0:0:
148,76,15914,6,0,B|235:54|223:129|294:113,1,150,4|2,3:2|1:3,0:0:0:0:
345,56,16617,1,2,0:3:0:0:
407,110,16851,2,0,P|455:121|488:102,2,75,0|2|2,3:0|0:3|1:3,0:0:0:0:
349,169,17554,1,2,0:3:0:0:
414,220,17789,6,0,L|399:318,1,75,0|2,3:0|0:3,0:0:0:0:
320,285,18257,2,0,B|238:269|263:359|180:335,1,150,0|0,1:0|3:0,0:0:0:0:
122,289,18960,2,0,L|110:214,1,75,2|2,0:3|1:2,0:0:0:0:
235,105,19664,5,0,3:0:0:0:
235,105,19898,1,6,0:0:0:0:
298,157,20132,2,0,P|317:228|290:296,1,150,0|0,1:0|3:0,0:0:0:0:
363,336,20835,1,6,0:0:0:0:
436,297,21070,2,0,P|408:228|428:157,1,150,6|2,1:2|3:2,0:0:0:0:
362,106,21773,5,2,0:2:0:0:
427,56,22007,2,0,L|516:67,2,75,2|2|2,1:2|0:2|3:2,0:0:0:0:
353,18,22710,2,0,L|255:31,1,75,2|2,0:2|1:2,0:0:0:0:
132,58,23414,6,0,P|77:72|56:165,1,150,4|2,0:0|1:3,0:0:0:0:
116,204,24117,1,2,0:3:0:0:
74,275,24351,2,0,P|20:286|-15:305,2,75,0|2|2,3:0|0:3|1:2,0:0:0:0:
143,319,25054,1,2,0:2:0:0:
213,275,25289,6,0,L|227:93,1,150,0|0,3:0|1:0,0:0:0:0:
275,60,25992,1,2,0:3:0:0:
348,96,26226,2,0,P|404:82|438:95,2,75,0|2|2,3:0|0:3|1:1,0:0:0:0:
443,230,27164,6,0,P|452:313|437:381,2,150,2|2|2,3:2|1:2|3:2,0:0:0:0:
374,184,28335,1,2,0:0:0:0:
302,227,28570,2,0,P|258:249|222:237,1,75,2|8,1:2|0:3,0:0:0:0:
193,315,29039,6,0,P|144:310|119:281,1,75,2|2,3:2|0:0,0:0:0:0:
46,275,29507,2,0,P|46:204|96:164,2,112.5,2|2|2,1:2|0:0|0:0,0:0:0:0:
62,356,30445,1,6,0:0:0:0:
226,367,30914,6,0,P|327:351|380:362,1,150,6|0,3:2|1:0,0:0:0:0:
432,302,31617,1,2,0:3:0:0:
387,232,31851,2,0,P|286:216|233:227,1,150,2|0,3:2|1:0,0:0:0:0:
187,160,32554,1,0,0:0:0:0:
232,90,32788,6,0,P|333:74|386:85,2,150,2|2|2,3:2|1:2|3:2,0:0:0:0:
176,28,33960,2,0,P|129:46|90:28,1,75,2|2,0:0|1:2,0:0:0:0:
29,182,34664,6,0,P|11:251|27:343,1,150,2|2,3:2|1:2,0:0:0:0:
98,358,35367,1,2,0:0:0:0:
165,311,35601,2,0,L|261:316,1,75,2|0,3:2|0:0,0:0:0:0:
251,233,36070,2,0,L|176:229,1,75,2|2,1:2|0:0,0:0:0:0:
109,179,36539,6,0,B|67:153|67:153|101:42,2,150,2|0|2,3:2|1:0|3:2,0:0:0:0:
185,144,37710,1,2,0:0:0:0:
185,144,37945,1,2,1:2:0:0:
330,222,38414,6,0,B|253:186|254:270|189:268,1,150,6|0,3:1|1:0,0:0:0:0:
141,327,39117,1,2,0:0:0:0:
74,279,39351,2,0,P|25:257|-25:267,2,75,0|2|2,3:0|0:0|1:2,0:0:0:0:
132,220,40054,1,2,0:3:0:0:
198,268,40289,6,0,B|253:270|252:186|329:222,1,150,6|0,3:2|1:0,0:0:0:0:
411,213,40992,1,2,0:0:0:0:
379,135,41226,2,0,P|388:97|365:48,1,75,0|2,3:0|0:0,0:0:0:0:
295,58,41695,2,0,P|284:93|292:129,1,75,2|2,1:2|0:0,0:0:0:0:
233,188,42164,5,14,0:3:0:0:
135,327,42632,2,0,P|79:286|9:292,2,112.5,2|2|0,0:3|0:3|0:0,0:0:0:0:
209,291,43570,2,0,P|264:295|295:273,1,75,2|0,0:3|0:0,0:0:0:0:
324,216,44039,5,14,0:3:0:0:
488,227,44507,2,0,L|478:368,2,112.5,2|2|0,0:3|0:3|0:0,0:0:0:0:
433,164,45445,2,0,P|376:140|347:154,2,75,0|4|6,1:0|0:3|0:0,0:0:0:0:
202,183,53414,6,0,P|152:150|65:162,2,150,2|8|2,0:0|0:0|0:0,0:0:0:0:
264,128,54585,2,0,L|258:39,1,75,2|8,0:3|0:0,0:0:0:0:
341,45,55054,6,0,P|427:73|424:154,1,150,2|2,0:0|0:3,0:0:0:0:
404,198,55757,2,0,P|367:194|326:204,1,75,10|2,0:0|0:1,0:0:0:0:
311,282,56226,2,0,P|330:337|322:365,2,75,2|2|8,0:0|0:3|0:0,0:0:0:0:
168,217,57164,6,0,P|125:207|77:208,1,75,2|2,0:0|0:0,0:0:0:0:
95,123,57632,2,0,P|138:113|186:114,1,75,10|2,0:0|0:0,0:0:0:0:
175,29,58101,2,0,P|132:19|84:20,1,75,2|0,0:0|0:0,0:0:0:0:
32,64,58570,1,10,1:1:0:0:
32,64,58804,1,6,0:2:0:0:
3,226,59273,5,6,0:0:0:0:
72,182,59507,2,0,B|136:159|127:230|220:201,1,150,6|6,0:0|1:2,0:0:0:0:
230,121,60210,1,4,0:3:0:0:
306,90,60445,1,10,3:2:0:0:
429,200,60914,6,0,P|457:258|426:348,1,150,6|8,1:2|0:0,0:0:0:0:
356,368,61617,1,2,0:0:0:0:
303,302,61851,2,0,P|267:269|224:277,1,75,0|2,3:0|0:1,0:0:0:0:
171,310,62320,1,10,0:0:0:0:
90,292,62554,6,0,P|52:239|108:159,1,150,6|2,1:2|0:0,0:0:0:0:
162,196,63257,2,0,L|247:184,1,75,10|2,0:0|0:0,0:0:0:0:
221,104,63726,2,0,L|146:114,2,75,2|2|8,3:2|0:3|0:0,0:0:0:0:
382,66,64664,6,0,P|429:118|379:172,1,150,2|10,3:2|0:0,0:0:0:0:
304,184,65367,2,0,P|252:169|221:175,1,75,2|2,0:0|3:2,0:0:0:0:
173,113,65835,2,0,P|101:123|73:184,2,112.5,2|2|0,0:0|0:0|3:0,0:0:0:0:
223,47,66773,5,2,0:0:0:0:
300,74,67007,1,8,0:0:0:0:
459,31,67476,2,0,L|455:119,1,75,2|2,3:1|0:0,0:0:0:0:
505,171,67945,2,0,L|501:246,1,75,12|8,0:0|0:3,0:0:0:0:
472,323,68414,6,0,P|391:345|330:307,1,150,4|8,3:2|0:0,0:0:0:0:
312,151,69351,2,0,P|266:141|216:161,1,75,0|2,3:0|0:1,0:0:0:0:
215,226,69820,1,10,0:0:0:0:
188,302,70054,6,0,P|121:288|48:323,1,150,6|2,1:2|0:0,0:0:0:0:
16,245,70757,2,0,L|5:152,1,75,10|2,0:0|0:0,0:0:0:0:
46,97,71226,1,2,3:1:0:0:
120,131,71460,1,2,0:0:0:0:
181,76,71695,2,0,L|271:67,1,75,8|8,0:0|0:3,0:0:0:0:
327,110,72164,6,0,P|353:194|316:251,1,150,2|10,3:2|0:0,0:0:0:0:
163,207,73101,2,0,P|118:227|91:265,1,75,2|2,3:2|0:0,0:0:0:0:
90,327,73570,1,2,1:2:0:0:
165,359,73804,6,0,P|241:338|319:354,1,150,6|4,3:2|3:2,0:0:0:0:
375,299,74507,2,0,L|364:209,1,75,12|4,0:0|0:0,0:0:0:0:
445,202,74976,2,0,L|454:276,2,75,2|0|4,0:0|1:0|0:0,0:0:0:0:
472,38,75914,6,0,B|386:12|403:98|318:76,1,150,6|10,3:2|0:0,0:0:0:0:
264,38,76617,1,2,1:2:0:0:
196,85,76851,2,0,P|211:152|197:184,1,75,2|2,3:2|1:2,0:0:0:0:
143,204,77320,1,10,0:0:0:0:
73,159,77554,6,0,P|22:175|42:264,1,150,2|2,1:2|1:2,0:0:0:0:
97,306,78257,2,0,P|157:299|195:311,1,75,10|2,0:0|1:2,0:0:0:0:
253,294,78726,1,2,3:2:0:0:
257,211,78960,1,2,1:2:0:0:
262,128,79195,1,10,0:0:0:0:
426,140,79664,6,0,P|450:243|421:296,1,150,2|10,3:2|0:0,0:0:0:0:
364,324,80367,1,2,1:2:0:0:
297,275,80601,2,0,L|215:282,1,75,2|2,3:2|1:2,0:0:0:0:
161,337,81070,1,10,0:0:0:0:
95,287,81304,6,0,P|66:233|116:149,1,150,2|2,1:2|1:2,0:0:0:0:
179,131,82007,2,0,L|167:47,1,75,10|2,0:0|1:2,0:0:0:0:
242,19,82476,1,2,3:2:0:0:
324,19,82710,1,2,1:2:0:0:
396,57,82945,1,10,0:0:0:0:
499,185,83414,6,0,P|442:240|440:333,1,150,2|6,3:2|0:0,0:0:0:0:
352,328,84117,1,2,1:2:0:0:
282,283,84351,2,0,P|233:265|190:268,1,75,2|2,3:2|1:2,0:0:0:0:
139,222,84820,1,6,0:0:0:0:
204,170,85054,6,0,P|244:108|176:55,1,150,2|2,1:2|1:2,0:0:0:0:
124,27,85757,2,0,P|75:28|37:64,1,75,6|2,0:0|1:2,0:0:0:0:
5,108,86226,1,2,3:2:0:0:
65,164,86460,1,2,1:2:0:0:
13,229,86695,1,6,0:0:0:0:
141,333,87164,6,0,L|301:302,1,150,2|6,3:2|0:0,0:0:0:0:
356,351,87867,1,2,1:2:0:0:
424,305,88101,2,0,L|429:216,1,75,2|2,3:2|1:2,0:0:0:0:
431,147,88570,1,6,0:0:0:0:
360,103,88804,6,0,P|316:81|221:139,1,150,10|2,3:2|3:2,0:0:0:0:
204,198,89507,2,0,P|141:213|111:198,1,75,14|2,0:0|3:2,0:0:0:0:
69,158,89976,1,2,3:2:0:0:
45,236,90210,1,2,1:2:0:0:
15,313,90445,1,6,3:2:0:0:
178,335,90914,6,0,L|265:324,1,75,6|2,3:2|0:0,0:0:0:0:
300,258,91382,2,0,P|312:205|266:147,2,112.5,2|2|2,0:0|0:0|0:0,0:0:0:0:
365,308,92320,1,2,0:0:0:0:
456,170,92789,6,0,L|447:87,1,75,2|2,0:0|0:0,0:0:0:0:
366,109,93257,2,0,P|309:130|243:95,2,112.5,2|2|2,0:0|0:0|0:0,0:0:0:0:
393,31,94195,1,2,0:0:0:0:
228,40,94664,6,0,L|141:30,1,75,6|2,3:2|0:0,0:0:0:0:
100,94,95132,2,0,P|124:138|115:217,2,112.5,2|2|2,0:0|0:0|0:0,0:0:0:0:
37,39,96070,1,2,0:0:0:0:
25,203,96539,6,0,L|17:287,1,75,2|2,0:0|0:0,0:0:0:0:
81,330,97007,2,0,P|160:323|187:279,2,112.5,2|2|2,0:0|0:0|0:0,0:0:0:0:
17,277,97945,2,0,L|25:203,1,75,8|4,0:3|0:3,0:0:0:0:
79,140,98414,5,8,0:0:0:0:
228,69,98882,1,8,0:0:0:0:
328,199,99351,2,0,L|418:186,1,75,8|0,0:0|0:0,0:0:0:0:
417,269,99820,2,0,L|342:279,1,75,8|0,0:0|0:0,0:0:0:0:
277,329,100289,5,8,0:0:0:0:
123,273,100757,1,8,0:0:0:0:
69,116,101226,2,0,L|55:19,1,75,8|0,0:0|0:0,0:0:0:0:
139,27,101695,2,0,L|149:101,1,75,8|0,0:0|0:0,0:0:0:0:
220,142,102164,6,0,P|275:149|305:122,1,75,8|8,0:0|0:0,0:0:0:0:
334,70,102632,2,0,P|368:57|403:68,1,75,8|8,0:0|0:0,0:0:0:0:
465,123,103101,1,8,0:0:0:0:
414,187,103335,1,8,0:0:0:0:
470,247,103570,2,0,L|460:339,1,75,8|8,0:0|0:0,0:0:0:0:
380,338,104039,6,0,P|348:320|301:317,1,75,0|0,3:0|3:0,0:0:0:0:
233,287,104507,2,0,P|187:326|116:317,2,112.5,8|0|2,0:0|3:0|3:2,0:0:0:0:
288,226,105445,2,0,L|275:138,1,75,8|4,0:0|0:3,0:0:0:0:
210,103,105914,5,2,3:1:0:0:
256,192,106382,12,2,108726,0:1:0:0:
175,309,109664,6,0,L|273:298,1,75,4|0,3:2|0:0,0:0:0:0:
305,240,110132,2,0,P|335:297|312:357,2,112.5,2|2|2,1:3|0:3|0:3,0:0:0:0:
242,185,111070,1,2,1:3:0:0:
387,106,111539,6,0,L|372:197,1,75,2|2,3:2|0:2,0:0:0:0:
440,230,112007,2,0,P|470:292|450:354,2,112.5,0|2|2,1:0|0:3|0:2,0:0:0:0:
366,268,112945,2,0,P|319:284|277:255,1,75,2|8,1:2|0:3,0:0:0:0:
223,237,113414,5,0,3:0:0:0:
169,174,113648,2,0,B|100:155|97:226|14:219,1,150,2|2,0:0|0:0,0:0:0:0:
18,300,114351,1,0,3:0:0:0:
72,363,114585,2,0,B|141:382|144:311|227:318,1,150,2|4,0:0|0:3,0:0:0:0:
284,354,115289,6,0,L|371:344,1,75,2|2,3:2|0:0,0:0:0:0:
396,272,115757,2,0,L|406:124,2,112.5,2|2|2,1:2|0:0|0:0,0:0:0:0:
465,317,116695,1,2,1:2:0:0:
482,152,117164,6,0,P|434:86|371:86,1,150,4|10,3:2|1:0,0:0:0:0:
307,33,117867,1,0,0:0:0:0:
257,101,118101,2,0,P|216:103|180:74,1,75,2|2,3:2|0:0,0:0:0:0:
116,43,118570,1,10,1:0:0:0:
51,94,118804,1,0,0:0:0:0:
82,170,119039,6,0,L|58:338,1,150,2|10,3:2|1:0,0:0:0:0:
135,353,119742,1,2,0:0:0:0:
205,310,119976,2,0,L|191:221,2,75,2|0|10,3:2|0:0|1:0,0:0:0:0:
276,351,120679,1,2,0:0:0:0:
342,302,120914,6,0,P|425:293|481:353,2,150,2|10|2,3:2|1:0|3:2,0:0:0:0:
279,248,122085,1,0,0:0:0:0:
328,181,122320,1,10,1:0:0:0:
219,56,122789,6,0,P|165:52|123:86,1,75,2|2,3:2|0:0,0:0:0:0:
124,139,123257,2,0,P|86:182|13:164,2,112.5,10|14|6,1:0|3:1|0:0,0:0:0:0:
199,172,124195,1,0,1:0:0:0:
264,122,124429,1,8,0:3:0:0:
338,157,124664,6,0,L|425:154,1,75,6|2,3:2|0:0,0:0:0:0:
456,224,125132,2,0,P|481:288|462:333,2,112.5,2|2|2,1:2|0:0|0:0,0:0:0:0:
395,280,126070,1,2,1:2:0:0:
230,298,126539,6,0,P|184:300|140:272,1,75,2|2,3:2|0:0,0:0:0:0:
120,215,127007,2,0,L|-23:230,2,112.5,2|2|2,1:2|0:0|0:0,0:0:0:0:
151,138,127945,2,0,P|197:136|241:164,1,75,2|2,1:2|3:2,0:0:0:0:
293,190,128414,5,12,0:2:0:0:
351,131,128648,1,12,0:2:0:0:
415,182,128882,2,0,P|502:203|513:234,2,112.5,12|12|12,0:2|0:2|0:2,0:0:0:0:
362,245,129820,1,12,0:2:0:0:
278,102,130289,5,0,3:0:0:0:
278,102,130523,1,0,3:0:0:0:
195,94,130757,2,0,P|127:118|77:86,2,112.5,8|2|2,1:0|3:2|3:2,0:0:0:0:
240,25,131695,1,4,3:2:0:0:
384,104,132164,6,2,P|456:102|483:143,1,112.5,2|0,0:0|0:0,0:1:0:0:
470,336,133101,2,2,P|398:334|371:375,1,112.5,2|2,0:0|0:0,0:1:0:0:
