osu file format v14

[General]
AudioFilename: audio.mp3
AudioLeadIn: 0
PreviewTime: 45914
Countdown: 0
SampleSet: Soft
StackLeniency: 0.2
Mode: 0
LetterboxInBreaks: 0
WidescreenStoryboard: 0

[Editor]
DistanceSpacing: 0.3
BeatDivisor: 4
GridSize: 16
TimelineZoom: 3.099999

[Metadata]
Title:The 89's Momentum
TitleUnicode:The 89's Momentum
Artist:MYUKKE.
ArtistUnicode:MYUKKE.
Creator:Mafumafu
Version:flake's Extra
Source:
Tags:regraz __Ag AuroraE flake instrumental electronic PDC2021 PDC 2021 pending cup mapping contest osu!FA osuFA featured artist track mappers guild mapper's mappers' mpg english fa
BeatmapID:4419241
BeatmapSetID:2106075

[Difficulty]
HPDrainRate:5.2
CircleSize:4.2
OverallDifficulty:9
ApproachRate:9.5
SliderMultiplier:2
SliderTickRate:1

[Events]
//Background and Video events
0,0,"bg.png",0,0
//Break Periods
//Storyboard Layer 0 (Background)
//Storyboard Layer 1 (Fail)
//Storyboard Layer 2 (Pass)
//Storyboard Layer 3 (Foreground)
//Storyboard Layer 4 (Overlay)
//Storyboard Sound Samples

[TimingPoints]
914,468.75,4,2,1,50,1,0
914,-200,4,2,1,50,0,0
2789,-133.333333333333,4,2,1,55,0,0
4664,-100,4,2,1,60,0,0
6539,-100,4,2,1,65,0,0
7359,-133.333333333333,4,2,1,65,0,0
7476,-133.333333333333,4,2,81,80,0,0
7593,-133.333333333333,4,2,1,65,0,0
7710,-40,4,2,1,65,0,0
7945,-57.1428571428571,4,2,8,65,0,0
8062,-57.1428571428571,4,2,1,65,0,0
8179,-100,4,2,1,65,0,0
8414,-66.6666666666667,4,2,16,70,0,0
8648,-66.6666666666667,4,2,1,70,0,0
8882,-100,4,2,1,70,0,0
9234,-38.4615384615385,4,2,1,70,0,0
9468,-66.6666666666667,4,2,1,70,0,0
10171,-50,4,2,1,70,0,0
10464,-50,4,2,1,5,0,0
10523,-50,4,2,1,70,0,0
10757,-66.6666666666667,4,2,1,70,0,0
10933,-66.6666666666667,4,2,1,5,0,0
10992,-66.6666666666667,4,2,1,70,0,0
11109,-100,4,2,1,70,0,0
11285,-100,4,2,1,5,0,0
11343,-100,4,2,1,70,0,0
11695,-80,4,2,1,70,0,0
11929,-100,4,2,1,70,0,0
12164,-66.6666666666667,4,2,1,70,0,0
13570,-50,4,2,4,70,0,0
13804,-36.3636363636364,4,2,5,70,0,0
13863,-36.3636363636364,4,2,5,5,0,0
14039,-50,4,2,5,80,0,0
14507,-50,4,2,5,80,0,0
14566,-50,4,2,5,5,0,0
14624,-50,4,2,5,80,0,0
14683,-50,4,2,5,5,0,0
14742,-50,4,2,5,80,0,0
14800,-50,4,2,5,5,0,0
14859,-50,4,2,5,80,0,0
15035,-50,4,2,5,5,0,0
15093,-50,4,2,5,80,0,0
15152,-50,4,2,5,5,0,0
15210,-50,4,2,5,80,0,0
15445,-333.333333333333,4,2,5,80,0,0
15855,-333.333333333333,4,2,5,5,0,0
15914,-33.3333333333333,4,2,16,70,0,0
16382,-166.666666666667,4,2,16,60,0,0
16734,-333.333333333333,4,2,16,60,0,0
17554,-200,4,2,16,60,0,0
18609,-142.857142857143,4,2,16,60,0,0
19195,-142.857142857143,4,2,0,60,0,0
19429,-125,4,2,19,60,0,0
19488,-125,4,2,19,5,0,0
19546,-125,4,2,0,60,0,0
19605,-125,4,2,0,5,0,0
19664,-125,4,2,16,60,0,0
19781,-83.3333333333333,4,2,16,60,0,0
19839,-83.3333333333333,4,2,16,5,0,0
19898,-100,4,2,2,60,0,0
20601,-100,4,2,16,60,0,0
20835,-100,4,2,2,60,0,0
21070,-80,4,2,3,60,0,0
21480,-80,4,2,3,5,0,0
21539,-80,4,2,1,60,0,0
23179,-166.666666666667,4,2,1,60,0,0
23414,-50,4,2,16,60,0,0
23648,-50,4,2,1,60,0,0
23882,-166.666666666667,4,2,1,60,0,0
24234,-333.333333333333,4,2,1,60,0,0
24820,-80,4,2,1,60,0,0
25289,-66.6666666666667,4,2,1,60,0,0
26695,-40,4,2,1,60,0,0
26871,-40,4,2,1,5,0,0
26929,-40,4,2,1,60,0,0
27164,-100,4,2,7,60,0,0
27515,-100,4,2,7,5,0,0
27632,-100,4,2,8,60,0,0
28042,-100,4,2,8,5,0,0
28101,-100,4,2,8,60,0,0
28511,-100,4,2,8,5,0,0
28570,-40,4,2,77,80,0,0
28746,-40,4,2,77,5,0,0
28804,-66.6666666666667,4,2,1,60,0,0
29039,-100,4,2,1,60,0,0
29859,-66.6666666666667,4,2,1,60,0,0
30445,-333.333333333333,4,2,1,60,0,0
30855,-333.333333333333,4,2,1,5,0,0
30914,-44.4444444444445,4,2,90,70,0,0
31148,-44.4444444444445,4,2,1,70,0,0
31734,-133.333333333333,4,2,1,70,0,0
31851,-133.333333333333,4,2,91,70,0,0
31968,-50,4,2,1,70,0,0
32027,-50,4,2,1,5,0,0
32085,-57.1428571428571,4,2,1,70,0,0
32144,-57.1428571428571,4,2,1,5,0,0
32203,-66.6666666666667,4,2,1,70,0,0
32261,-66.6666666666667,4,2,1,5,0,0
32320,-66.6666666666667,4,2,1,70,0,0
32789,-50,4,2,1,70,0,0
32964,-50,4,2,1,5,0,0
33023,-50,4,2,1,70,0,0
33257,-57.1428571428571,4,2,1,70,0,0
33433,-57.1428571428571,4,2,1,5,0,0
33492,-57.1428571428571,4,2,1,70,0,0
33609,-66.6666666666667,4,2,1,70,0,0
33785,-66.6666666666667,4,2,1,5,0,0
33843,-66.6666666666667,4,2,1,70,0,0
34195,-44.4444444444445,4,2,1,70,0,0
34429,-66.6666666666667,4,2,1,70,0,0
34664,-57.1428571428571,4,2,92,70,0,0
34898,-57.1428571428571,4,2,1,70,0,0
35249,-80,4,2,1,70,0,0
35601,-100,4,2,93,70,0,0
35718,-100,4,2,1,70,0,0
36070,-100,4,2,94,70,0,0
36304,-100,4,2,1,70,0,0
36539,-100,4,2,95,70,0,0
36656,-100,4,2,1,70,0,0
37124,-66.6666666666667,4,2,1,70,0,0
37359,-68.9655172413793,4,2,1,70,0,0
37535,-68.9655172413793,4,2,1,5,0,0
37593,-68.9655172413793,4,2,1,70,0,0
37710,-66.6666666666667,4,2,1,70,0,0
38414,-40,4,2,62,80,0,0
38589,-40,4,2,62,5,0,0
38648,-40,4,2,62,80,0,0
38882,-40,4,2,1,70,0,0
39117,-66.6666666666667,4,2,1,70,0,0
40054,-100,4,2,1,70,0,0
40289,-33.3333333333333,4,2,65,80,0,0
40406,-44.4444444444445,4,2,65,5,0,0
40523,-44.4444444444445,4,2,64,80,0,0
40640,-100,4,2,1,70,0,0
40757,-66.6666666666667,4,2,1,70,0,0
41460,-100,4,2,1,70,0,0
41695,-80,4,2,1,70,0,0
41871,-80,4,2,1,5,0,0
41929,-100,4,2,1,70,0,0
42164,-80,4,2,1,70,0,0
45914,-80,4,2,0,75,0,0
52945,-133.333333333333,4,2,0,75,0,0
53179,-200,4,2,0,75,0,0
53414,-80,4,2,0,75,0,0
57164,-133.333333333333,4,2,0,75,0,0
58570,-66.6666666666667,4,2,0,75,0,0
58746,-66.6666666666667,4,2,0,5,0,0
58804,-133.333333333333,4,2,0,75,0,0
59273,-57.1428571428571,4,2,52,75,0,0
59507,-57.1428571428571,4,2,53,75,0,0
59859,-57.1428571428571,4,2,54,75,0,0
59976,-57.1428571428571,4,2,55,75,0,0
60328,-57.1428571428571,4,2,1,75,0,0
60445,-333.333333333333,4,2,63,75,0,0
60855,-333.333333333333,4,2,63,5,0,0
60914,-33.3333333333333,4,2,17,80,0,0
61148,-33.3333333333333,4,2,1,80,0,0
61382,-33.3333333333333,4,2,1,80,0,0
62085,-50,4,2,1,80,0,0
62144,-50,4,2,1,5,0,0
62203,-50,4,2,1,80,0,0
62261,-50,4,2,1,5,0,0
62320,-33.3333333333333,4,2,1,80,0,0
62554,-28.5714285714286,4,2,1,80,0,0
63023,-40,4,2,1,80,0,0
63726,-36.3636363636364,4,2,1,80,0,0
64429,-100,4,2,1,80,0,0
64664,-66.6666666666667,4,2,1,80,0,0
65601,-66.6666666666667,4,2,40,80,0,0
65718,-66.6666666666667,4,2,1,80,0,0
65835,-57.1428571428571,4,2,1,80,0,0
66773,-50,4,2,1,80,0,0
67476,-100,4,2,1,80,0,0
68414,-33.3333333333333,4,2,16,80,0,0
68648,-33.3333333333333,4,2,1,80,0,0
69585,-50,4,2,1,80,0,0
69644,-50,4,2,1,5,0,0
69703,-50,4,2,1,80,0,0
69761,-50,4,2,1,5,0,0
69820,-33.3333333333333,4,2,1,80,0,0
70054,-28.5714285714286,4,2,1,80,0,0
70523,-80,4,2,1,80,0,0
71226,-66.6666666666667,4,2,1,80,0,0
71285,-66.6666666666667,4,2,1,5,0,0
71343,-66.6666666666667,4,2,1,80,0,0
71402,-66.6666666666667,4,2,1,5,0,0
71460,-66.6666666666667,4,2,1,80,0,0
71519,-66.6666666666667,4,2,1,5,0,0
71578,-66.6666666666667,4,2,1,80,0,0
72164,-50,4,2,83,80,0,0
72339,-50,4,2,83,5,0,0
72398,-66.6666666666667,4,2,1,80,0,0
73570,-500,4,2,21,80,0,0
73746,-500,4,2,21,5,0,0
73804,-50,4,2,1,80,0,0
73980,-50,4,2,1,5,0,0
74039,-66.6666666666667,4,2,19,80,0,0
74097,-66.6666666666667,4,2,19,5,0,0
74156,-66.6666666666667,4,2,19,80,0,0
74214,-66.6666666666667,4,2,19,5,0,0
74273,-50,4,2,19,80,0,0
74449,-50,4,2,19,5,0,0
74507,-50,4,2,1,80,0,0
74624,-50,4,2,54,80,0,0
74976,-50,4,2,96,80,0,0
75210,-50,4,2,1,80,0,0
75445,-250,4,2,16,80,0,0
75796,-250,4,2,16,5,0,0
75914,-33.3333333333333,4,2,9,90,0,0
76089,-33.3333333333333,4,2,9,5,0,0
76148,-33.3333333333333,4,2,10,90,0,0
76206,-33.3333333333333,4,2,10,5,0,0
76265,-33.3333333333333,4,2,10,90,0,0
76323,-33.3333333333333,4,2,10,5,0,0
76382,-33.3333333333333,4,2,10,90,0,0
76440,-33.3333333333333,4,2,10,5,0,0
76499,-33.3333333333333,4,2,10,90,0,0
76557,-33.3333333333333,4,2,10,5,0,0
76617,-33.3333333333333,4,2,10,90,0,0
76675,-33.3333333333333,4,2,10,5,0,0
76734,-33.3333333333333,4,2,10,90,0,0
76792,-33.3333333333333,4,2,10,5,0,0
76851,-33.3333333333333,4,2,10,90,0,0
76909,-33.3333333333333,4,2,10,5,0,0
76968,-33.3333333333333,4,2,10,90,0,0
77026,-33.3333333333333,4,2,10,5,0,0
77085,-33.3333333333333,4,2,10,90,0,0
77261,-33.3333333333333,4,2,10,5,0,0
77320,-33.3333333333333,4,2,10,90,0,0
77496,-33.3333333333333,4,2,10,5,0,0
77554,-44.4444444444445,4,2,10,90,0,0
77906,-33.3333333333333,4,2,10,90,0,0
77964,-33.3333333333333,4,2,10,5,0,0
78023,-33.3333333333333,4,2,10,90,0,0
78081,-33.3333333333333,4,2,10,5,0,0
78140,-33.3333333333333,4,2,10,90,0,0
78198,-33.3333333333333,4,2,10,5,0,0
78257,-33.3333333333333,4,2,10,90,0,0
78315,-33.3333333333333,4,2,10,5,0,0
78374,-33.3333333333333,4,2,10,90,0,0
78432,-33.3333333333333,4,2,10,5,0,0
78492,-33.3333333333333,4,2,10,90,0,0
78550,-33.3333333333333,4,2,10,5,0,0
78609,-33.3333333333333,4,2,10,90,0,0
78667,-33.3333333333333,4,2,10,5,0,0
78726,-33.3333333333333,4,2,10,90,0,0
78784,-33.3333333333333,4,2,10,5,0,0
78843,-33.3333333333333,4,2,10,90,0,0
78901,-33.3333333333333,4,2,10,5,0,0
78960,-33.3333333333333,4,2,10,90,0,0
79136,-33.3333333333333,4,2,10,5,0,0
79195,-44.4444444444445,4,2,11,90,0,0
79664,-33.3333333333333,4,2,10,90,0,0
79839,-33.3333333333333,4,2,10,5,0,0
79898,-33.3333333333333,4,2,10,90,0,0
79956,-33.3333333333333,4,2,10,5,0,0
80015,-33.3333333333333,4,2,10,90,0,0
80073,-33.3333333333333,4,2,10,5,0,0
80132,-33.3333333333333,4,2,10,90,0,0
80190,-33.3333333333333,4,2,10,5,0,0
80249,-33.3333333333333,4,2,10,90,0,0
80307,-33.3333333333333,4,2,10,5,0,0
80367,-33.3333333333333,4,2,10,90,0,0
80425,-33.3333333333333,4,2,10,5,0,0
80484,-33.3333333333333,4,2,10,90,0,0
80542,-33.3333333333333,4,2,10,5,0,0
80601,-33.3333333333333,4,2,10,90,0,0
80659,-33.3333333333333,4,2,10,5,0,0
80718,-33.3333333333333,4,2,10,90,0,0
80776,-33.3333333333333,4,2,10,5,0,0
80835,-33.3333333333333,4,2,10,90,0,0
81011,-33.3333333333333,4,2,10,5,0,0
81070,-33.3333333333333,4,2,10,90,0,0
81246,-33.3333333333333,4,2,10,5,0,0
81304,-44.4444444444445,4,2,10,90,0,0
81656,-33.3333333333333,4,2,10,90,0,0
81714,-33.3333333333333,4,2,10,5,0,0
81773,-33.3333333333333,4,2,10,90,0,0
81831,-33.3333333333333,4,2,10,5,0,0
81890,-33.3333333333333,4,2,10,90,0,0
81948,-33.3333333333333,4,2,10,5,0,0
82007,-33.3333333333333,4,2,10,90,0,0
82065,-33.3333333333333,4,2,10,5,0,0
82124,-33.3333333333333,4,2,10,90,0,0
82182,-33.3333333333333,4,2,10,5,0,0
82242,-33.3333333333333,4,2,10,90,0,0
82300,-33.3333333333333,4,2,10,5,0,0
82359,-33.3333333333333,4,2,10,90,0,0
82417,-33.3333333333333,4,2,10,5,0,0
82476,-50,4,2,10,90,0,0
82710,-50,4,2,12,90,0,0
82945,-50,4,2,13,90,0,0
83414,-33.3333333333333,4,2,10,90,0,0
83589,-33.3333333333333,4,2,10,5,0,0
83648,-33.3333333333333,4,2,10,90,0,0
83706,-33.3333333333333,4,2,10,5,0,0
83765,-33.3333333333333,4,2,10,90,0,0
83823,-33.3333333333333,4,2,10,5,0,0
83882,-33.3333333333333,4,2,10,90,0,0
83940,-33.3333333333333,4,2,10,5,0,0
83999,-33.3333333333333,4,2,10,90,0,0
84057,-33.3333333333333,4,2,10,5,0,0
84117,-33.3333333333333,4,2,10,90,0,0
84175,-33.3333333333333,4,2,10,5,0,0
84234,-33.3333333333333,4,2,10,90,0,0
84292,-33.3333333333333,4,2,10,5,0,0
84351,-33.3333333333333,4,2,10,90,0,0
84409,-33.3333333333333,4,2,10,5,0,0
84468,-33.3333333333333,4,2,10,90,0,0
84526,-33.3333333333333,4,2,10,5,0,0
84585,-33.3333333333333,4,2,10,90,0,0
84761,-33.3333333333333,4,2,10,5,0,0
84820,-33.3333333333333,4,2,10,90,0,0
84996,-33.3333333333333,4,2,10,5,0,0
85054,-44.4444444444445,4,2,10,90,0,0
85406,-33.3333333333333,4,2,10,90,0,0
85464,-33.3333333333333,4,2,10,5,0,0
85523,-33.3333333333333,4,2,10,90,0,0
85581,-33.3333333333333,4,2,10,5,0,0
85640,-33.3333333333333,4,2,10,90,0,0
85698,-33.3333333333333,4,2,10,5,0,0
85757,-33.3333333333333,4,2,10,90,0,0
85815,-33.3333333333333,4,2,10,5,0,0
85874,-33.3333333333333,4,2,10,90,0,0
85932,-33.3333333333333,4,2,10,5,0,0
85992,-33.3333333333333,4,2,10,90,0,0
86050,-33.3333333333333,4,2,10,5,0,0
86109,-33.3333333333333,4,2,10,90,0,0
86167,-33.3333333333333,4,2,10,5,0,0
86226,-33.3333333333333,4,2,10,90,0,0
86284,-33.3333333333333,4,2,10,5,0,0
86343,-33.3333333333333,4,2,10,90,0,0
86401,-33.3333333333333,4,2,10,5,0,0
86460,-33.3333333333333,4,2,10,90,0,0
86636,-33.3333333333333,4,2,10,5,0,0
86695,-44.4444444444445,4,2,11,90,0,0
87164,-36.3636363636364,4,2,14,90,0,0
87339,-36.3636363636364,4,2,14,5,0,0
87398,-36.3636363636364,4,2,14,90,0,0
87456,-36.3636363636364,4,2,14,5,0,0
87515,-36.3636363636364,4,2,14,90,0,0
87573,-36.3636363636364,4,2,14,5,0,0
87632,-36.3636363636364,4,2,14,90,0,0
87690,-36.3636363636364,4,2,14,5,0,0
87749,-36.3636363636364,4,2,14,90,0,0
87807,-36.3636363636364,4,2,14,5,0,0
87867,-36.3636363636364,4,2,14,90,0,0
87925,-36.3636363636364,4,2,14,5,0,0
87984,-36.3636363636364,4,2,14,90,0,0
88042,-36.3636363636364,4,2,14,5,0,0
88101,-36.3636363636364,4,2,14,90,0,0
88159,-36.3636363636364,4,2,14,5,0,0
88218,-36.3636363636364,4,2,14,90,0,0
88276,-36.3636363636364,4,2,14,5,0,0
88335,-36.3636363636364,4,2,14,90,0,0
88511,-36.3636363636364,4,2,14,5,0,0
88570,-36.3636363636364,4,2,14,90,0,0
88746,-36.3636363636364,4,2,14,5,0,0
88804,-36.3636363636364,4,2,15,90,0,0
89156,-36.3636363636364,4,2,15,90,0,0
89214,-36.3636363636364,4,2,15,5,0,0
89273,-36.3636363636364,4,2,15,90,0,0
89331,-36.3636363636364,4,2,15,5,0,0
89390,-36.3636363636364,4,2,15,90,0,0
89448,-36.3636363636364,4,2,15,5,0,0
89507,-36.3636363636364,4,2,15,90,0,0
89565,-36.3636363636364,4,2,15,5,0,0
89624,-36.3636363636364,4,2,15,90,0,0
89682,-36.3636363636364,4,2,15,5,0,0
89742,-36.3636363636364,4,2,15,90,0,0
89800,-36.3636363636364,4,2,15,5,0,0
89859,-36.3636363636364,4,2,15,90,0,0
89917,-36.3636363636364,4,2,15,5,0,0
89976,-36.3636363636364,4,2,15,90,0,0
90034,-36.3636363636364,4,2,15,5,0,0
90093,-36.3636363636364,4,2,15,90,0,0
90151,-36.3636363636364,4,2,15,5,0,0
90210,-36.3636363636364,4,2,12,90,0,0
90445,-333.333333333333,4,2,16,90,0,0
90855,-333.333333333333,4,2,16,5,0,0
90914,-200,4,2,1,60,0,0
92789,-133.333333333333,4,2,1,60,0,0
94664,-100,4,2,1,60,0,0
96539,-80,4,2,1,60,0,0
98414,-57.1428571428571,4,2,17,70,0,0
104039,-50,4,2,17,60,0,0
104742,-66.6666666666667,4,2,17,60,0,0
105093,-133.333333333333,4,2,17,60,0,0
105210,-133.333333333333,4,2,82,60,0,0
105562,-133.333333333333,4,2,17,60,0,0
105914,-66.6666666666667,4,2,0,55,0,0
106617,-66.6666666666667,4,2,0,60,0,0
107085,-66.6666666666667,4,2,0,65,0,0
107789,-66.6666666666667,4,2,0,70,0,0
108960,-57.1428571428571,4,2,19,60,0,0
109195,-57.1428571428571,4,2,17,80,0,0
109664,-33.3333333333333,4,2,16,60,0,0
109898,-33.3333333333333,4,2,1,60,0,0
110132,-166.666666666667,4,2,1,60,0,0
110484,-333.333333333333,4,2,1,60,0,0
111304,-200,4,2,1,60,0,0
111539,-80,4,2,1,60,0,0
113179,-166.666666666667,4,2,1,60,0,0
113414,-100,4,2,1,60,0,0
113648,-100,4,2,50,60,0,0
114351,-100,4,2,1,60,0,0
114585,-100,4,2,50,60,0,0
114820,-40,4,2,51,60,0,0
114937,-40,4,2,1,60,0,0
114996,-40,4,2,1,5,0,0
115054,-40,4,2,1,60,0,0
115289,-100,4,2,1,70,0,0
116109,-66.6666666666667,4,2,1,70,0,0
117164,-66.6666666666667,4,2,16,80,0,0
117398,-44.4444444444445,4,2,1,80,0,0
117984,-36.3636363636364,4,2,1,80,0,0
118687,-40,4,2,1,80,0,0
119507,-44.4444444444445,4,2,1,80,0,0
120445,-40,4,2,1,80,0,0
122320,-44.4444444444445,4,2,1,80,0,0
123609,-33.3333333333333,4,2,69,80,0,0
123960,-33.3333333333333,4,1,49,80,0,0
124195,-33.3333333333333,4,2,1,80,0,0
124312,-50,4,2,1,80,0,0
124664,-66.6666666666667,4,2,1,70,0,0
126070,-133.333333333333,4,2,1,70,0,0
126304,-66.6666666666667,4,2,1,70,0,0
127359,-57.1428571428571,4,2,1,70,0,0
128414,-133.333333333333,4,2,1,70,0,0
128648,-100,4,2,1,70,0,0
128882,-80,4,2,1,70,0,0
129117,-66.6666666666667,4,2,1,70,0,0
129468,-57.1428571428571,4,2,1,70,0,0
129820,-50,4,2,1,70,0,0
130054,-66.6666666666667,4,2,1,70,0,0
131109,-57.1428571428571,4,2,1,70,0,0
131695,-250,4,2,16,70,0,0
132046,-250,4,2,16,5,0,0
132164,-50,4,2,1,60,0,0
132632,-100,4,2,1,60,0,0
133101,-50,4,2,1,50,0,0
133453,-50,4,2,97,80,0,0

[Colours]
Combo1 : 188,185,206
Combo2 : 135,89,166
Combo3 : 162,32,223
Combo4 : 236,149,2
Combo5 : 235,200,1
Combo6 : 20,194,60
Combo7 : 133,217,30
Combo8 : 120,111,153

[HitObjects]
98,256,914,102,0,L|92:309,2,50,6|2|2,3:2|0:0|0:0,0:0:0:0:
50,364,1617,5,2,0:0:0:0:
27,247,1734,2,0,L|21:300,1,50,2|2,0:0|0:0,0:0:0:0:
98,256,2085,2,0,L|92:309,1,50,2|2,0:0|0:0,0:0:0:0:
50,364,2554,1,2,0:0:0:0:
167,209,2789,102,0,L|177:291,2,75.0000028610231,2|2|2,0:0|0:0|0:0,0:0:0:0:
229,341,3492,5,2,0:0:0:0:
251,196,3609,2,0,L|260:270,1,75.0000028610231,2|2,0:0|0:0,0:0:0:0:
176,283,3960,2,0,L|167:209,1,75.0000028610231,2|2,0:0|0:0,0:0:0:0:
231,350,4429,1,2,3:2:0:0:
142,29,4664,6,0,L|129:134,2,100,6|2|2,3:2|0:0|0:0,0:0:0:0:
72,186,5367,5,2,0:0:0:0:
43,18,5484,2,0,L|30:123,1,100,2|2,0:0|0:0,0:0:0:0:
142,29,5835,2,0,L|129:134,1,100,2|2,0:0|0:0,0:0:0:0:
72,186,6304,1,2,0:0:0:0:
429,18,6539,5,8,0:3:0:0:
422,28,6597,1,8,0:3:0:0:
416,40,6656,1,8,0:3:0:0:
313,6,6773,1,4,0:3:0:0:
228,54,6890,1,6,0:3:0:0:
201,116,7007,1,0,3:0:0:0:
209,179,7124,1,2,0:3:0:0:
223,209,7242,1,0,3:0:0:0:
237,218,7359,6,0,P|256:226|281:226,1,37.5000014305115,0|2,3:0|0:0,0:0:0:0:
310,156,7593,1,2,0:3:0:0:
327,279,7710,102,0,L|308:143,1,125,2|2,0:3|0:3,0:0:0:0:
323,173,7945,6,0,L|335:260,1,87.500000834465,8|8,0:3|0:3,0:0:0:0:
405,229,8179,2,0,L|396:163,1,50,4|4,0:3|0:3,0:0:0:0:
254,363,8414,85,4,0:0:0:0:
112,60,8648,53,2,0:0:0:0:
109,48,8765,1,2,0:0:0:0:
37,66,8882,101,2,1:2:0:0:
246,67,8999,2,0,L|237:1,1,50,2|0,0:0|0:0,0:0:0:0:
114,231,9234,6,0,B|93:202|93:202|134:155|134:155|163:209|163:209|135:233,1,194.999991073609,2|0,0:1|0:0,0:0:0:0:
117,307,9468,102,0,L|110:351,2,37.5000014305115,2|2|2,0:0|0:0|0:0,0:0:0:0:
37,315,9703,1,2,0:0:0:0:
192,334,9820,1,2,1:2:0:0:
192,334,9937,2,0,L|272:342,1,75.0000028610231,2|2,0:0|0:3,0:0:0:0:
337,369,10171,5,2,0:0:0:0:
410,210,10289,2,0,B|377:142|377:142|318:199,1,150,2|0,3:2|0:0,0:0:0:0:
317,200,10523,1,2,0:0:0:0:
354,268,10640,1,2,0:0:0:0:
313,91,10757,102,0,B|260:77|260:77|264:136,1,112.500004291535,2|0,1:2|0:0,0:0:0:0:
266,142,10992,1,2,0:0:0:0:
188,90,11109,6,0,B|156:113|156:113|190:138,1,75,2|0,0:0|0:0,0:0:0:0:
192,137,11343,101,2,0:0:0:0:
73,119,11460,2,0,L|20:125,1,50,2|2,0:0|0:0,0:0:0:0:
313,91,11695,2,0,L|378:83,1,62.5,2|0,1:2|0:0,0:0:0:0:
181,16,11929,1,2,0:0:0:0:
0,207,12164,85,8,0:0:0:0:
181,16,12398,1,8,0:0:0:0:
401,158,12632,1,8,0:0:0:0:
217,350,12867,5,8,0:0:0:0:
188,90,12984,2,0,L|178:-5,1,75.0000028610231,8|0,0:0|0:0,0:0:0:0:
237,276,13218,101,8,0:0:0:0:
252,157,13335,2,0,L|247:204,3,37.5000014305115,8|0|0|0,0:0|0:0|0:0|0:0,0:0:0:0:
326,156,13570,2,0,L|320:213,3,50,10|0|0|0,0:0|0:0|0:0|0:0,0:0:0:0:
401,158,13804,70,0,B|397:194|397:194|400:192|400:192|397:194|397:194|393:238,1,68.7500006556511,2|0,0:0|0:0,0:0:0:0:
237,276,14039,38,0,B|220:269|220:269|160:293|160:293|153:309,1,100,4|0,3:2|0:0,0:0:0:0:
0,249,14273,2,0,B|17:245|17:245|71:280|71:280|75:298,1,100,0|0,3:0|0:0,0:0:0:0:
119,188,14507,6,0,B|100:201|100:201|142:204,1,50,0|0,1:0|0:0,0:0:0:0:
142,180,14624,2,0,B|139:157|139:157|116:192,1,50
134,204,14742,2,0,B|155:213|155:213|136:175,1,50,0|0,3:0|0:0,0:0:0:0:
87,87,14859,102,0,B|108:72|108:72|151:79|151:79|157:77|157:77|161:80|161:80|203:87|203:87|219:108,1,150,0|0,3:0|0:0,0:0:0:0:
167,19,15093,6,0,L|156:76,1,50,0|0,1:0|0:0,0:0:0:0:
142,151,15210,2,0,B|145:129|137:111|137:111|162:115|162:115|147:130|143:145,1,100,0|0,3:0|3:0,0:0:0:0:
105,366,15445,86,0,L|113:312,1,52.4999983978272,0|0,1:0|0:0,0:0:0:0:
74,296,15914,22,0,B|127:269|115:190|115:190|128:269|193:273|193:273|136:296|151:378|151:378|134:297|72:295,1,450.000017166138,4|0,3:2|0:0,0:0:0:0:
188,361,16382,38,0,L|193:328,1,29.9999990844727,2|2,1:3|0:3,0:0:0:0:
219,108,16617,1,2,0:3:0:0:
241,204,16734,6,0,L|243:220,1,14.9999995422363,2|0,0:3|3:0,0:0:0:0:
312,187,16968,1,2,0:3:0:0:
312,187,17085,2,0,L|314:203,1,14.9999995422363,2|0,0:3|0:0,0:0:0:0:
387,310,17320,102,0,L|384:326,1,14.9999995422363,2|0,1:3|0:0,0:0:0:0:
201,284,17554,2,0,L|196:310,1,25,2|0,0:3|0:0,0:0:0:0:
292,313,17789,5,0,3:0:0:0:
297,278,17906,1,2,0:3:0:0:
292,313,18023,1,2,0:3:0:0:
292,313,18257,102,0,L|296:288,1,25,0|2,1:0|0:3,0:0:0:0:
311,187,18492,1,2,0:3:0:0:
454,140,18609,6,0,L|419:146,1,34.9999989318848,2|0,0:3|3:0,0:0:0:0:
250,59,18843,1,2,0:3:0:0:
250,59,18960,2,0,L|215:65,1,34.9999989318848,2|0,0:3|0:0,0:0:0:0:
355,102,19195,102,0,L|314:94,1,34.9999989318848,2|0,1:2|0:0,0:0:0:0:
112,33,19429,70,0,L|117:61,1,20,2|0,0:0|0:0,0:0:0:0:
58,102,19546,2,0,L|52:130,1,20,2|0,0:0|0:0,0:0:0:0:
92,223,19664,37,0,3:0:0:0:
132,125,19781,2,0,L|124:158,1,29.9999990844727
92,223,19898,86,0,B|69:212|69:212|39:222,1,50,6|0,0:0|0:0,0:0:0:0:
218,224,20132,1,0,1:0:0:0:
218,224,20367,6,0,B|221:198|221:198|202:173,1,50,6|8,0:0|0:3,0:0:0:0:
178,356,20601,1,0,3:0:0:0:
178,356,20835,102,0,B|203:351|203:351|221:325,1,50,6|0,0:0|0:0,0:0:0:0:
237,140,21070,70,0,B|168:142|174:44|265:45|308:93|307:140,1,218.75,6|0,1:2|0:0,0:0:0:0:
306,139,21539,69,2,3:2:0:0:
321,63,21656,1,0,1:2:0:0:
306,139,21773,2,0,P|320:172|343:192,1,62.5,2|0,0:2|0:0,0:0:0:0:
419,78,22007,2,0,P|391:101|379:129,1,62.5,2|0,1:2|0:0,0:0:0:0:
511,166,22242,5,2,0:2:0:0:
511,166,22476,2,0,P|479:147|449:144,1,62.5,2|0,3:2|0:0,0:0:0:0:
452,297,22710,1,2,0:2:0:0:
407,282,22828,1,2,0:2:0:0:
407,236,22945,1,2,1:2:0:0:
452,221,23062,1,2,0:2:0:0:
479,259,23179,2,0,L|514:263,1,29.9999990844727,2|4,0:2|0:3,0:0:0:0:
237,140,23414,54,0,B|197:135|186:82|186:82|196:135|156:152|156:152|197:154|207:209|207:209|199:154|238:138,1,300,4|0,0:0|0:0,0:0:0:0:
275,263,23882,38,0,L|280:230,1,29.9999990844727,2|2,1:3|0:3,0:0:0:0:
303,70,24117,1,2,0:3:0:0:
212,160,24234,6,0,L|214:176,1,14.9999995422363,2|0,0:3|3:0,0:0:0:0:
285,145,24468,1,2,0:3:0:0:
285,145,24585,2,0,L|287:161,1,14.9999995422363,2|0,0:3|0:0,0:0:0:0:
411,370,24820,38,0,P|389:347|354:335,1,62.5,2|2,1:2|0:2,0:0:0:0:
239,253,25054,2,0,P|208:261|180:285,1,62.5,2|0,0:2|0:0,0:0:0:0:
61,361,25289,37,0,3:0:0:0:
2,314,25406,1,2,0:3:0:0:
4,306,25523,2,0,L|16:226,1,75.0000028610231,2|0,0:3|0:0,0:0:0:0:
61,361,25757,53,0,1:0:0:0:
112,307,25874,1,2,0:3:0:0:
110,298,25992,2,0,L|87:220,1,75.0000028610231,2|2,0:3|0:3,0:0:0:0:
47,165,26226,53,0,3:0:0:0:
46,155,26343,1,2,0:3:0:0:
45,147,26460,1,2,0:3:0:0:
45,140,26578,1,0,0:0:0:0:
130,119,26695,102,0,B|110:90|110:90|154:51|154:51|208:74|208:74|198:107,1,187.5,2|0,1:1|0:0,0:0:0:0:
175,175,26929,1,2,0:1:0:0:
313,338,27164,53,2,3:2:0:0:
315,328,27281,2,0,L|332:227,1,100
309,137,27632,5,2,1:2:0:0:
400,308,27749,1,2,0:2:0:0:
401,299,27867,2,0,L|410:242,1,50,2|0,0:2|0:0,0:0:0:0:
398,160,28101,101,2,3:2:0:0:
247,264,28218,1,2,0:0:0:0:
248,255,28335,2,0,L|259:196,1,50,2|0,0:0|0:0,0:0:0:0:
130,119,28570,54,0,B|120:151|120:151|176:175|176:175|220:134|220:134|199:106,1,187.5,2|0,1:2|0:0,0:0:0:0:
145,47,28804,2,0,B|138:18|138:18|153:14|153:14|158:43,1,75.0000028610231,8|4,0:3|0:3,0:0:0:0:
391,150,29039,70,0,L|383:208,1,50,2|0,3:2|0:0,0:0:0:0:
464,159,29273,2,0,L|456:217,1,50,2|0,0:0|0:0,0:0:0:0:
391,150,29507,2,0,L|383:208,1,50,2|0,1:2|0:0,0:0:0:0:
409,270,29742,1,2,0:0:0:0:
283,207,29859,102,0,L|268:117,1,75.0000028610231,2|0,0:0|3:0,0:0:0:0:
196,223,30093,1,2,0:0:0:0:
196,223,30210,2,0,L|183:143,1,75.0000028610231,2|0,0:0|0:0,0:0:0:0:
105,365,30445,6,0,L|113:311,1,52.4999983978272,6|0,0:0|0:0,0:0:0:0:
114,306,30914,1,6,3:2:0:0:
46,160,31031,38,0,B|9:95|92:36|190:82|149:163,1,225.000008583069,0|2,0:0|0:3,0:0:0:0:
107,218,31324,1,2,0:3:0:0:
106,209,31382,1,0,1:0:0:0:
56,268,31499,2,0,P|110:252|166:256,1,112.500004291535,2|2,0:0|0:3,0:0:0:0:
285,271,31734,6,0,L|296:314,1,37.5000014305115,2|2,0:0|3:2,0:0:0:0:
295,308,31968,102,0,P|264:301|248:282,1,50,2|0,0:0|0:0,0:0:0:0:
312,239,32085,2,0,P|321:269|312:292,1,43.7500004172325,2|0,0:0|0:0,0:0:0:0:
243,258,32203,2,0,P|260:239|280:235,1,37.5000014305115,2|0,0:0|0:0,0:0:0:0:
270,163,32320,5,0,1:0:0:0:
240,369,32437,2,0,P|309:338|385:344,1,150.000005722046,2|2,0:0|0:0,0:0:0:0:
471,241,32789,102,0,P|492:213|412:173,1,150,2|0,3:2|0:0,0:0:0:0:
413,170,33023,2,0,P|369:154|383:106,1,100,2|2,0:0|0:3,0:0:0:0:
295,308,33257,6,0,P|331:308|313:237,1,131.250001251698,2|0,1:2|0:0,0:0:0:0:
312,239,33492,1,2,0:0:0:0:
174,218,33609,102,0,P|196:240|229:185,1,112.500004291535,2|0,0:0|0:0,0:0:0:0:
165,125,33843,5,2,0:0:0:0:
230,184,33960,2,0,P|240:151|275:156,1,75.0000028610231,2|2,0:0|0:0,0:0:0:0:
112,246,34195,2,0,P|163:248|166:300,1,112.500004291535,2|0,1:2|0:0,0:0:0:0:
20,150,34429,2,0,P|30:183|-4:196,1,75.0000028610231,2|0,0:0|0:0,0:0:0:0:
181,47,34664,102,0,P|125:18|88:102,1,175.00000166893,2|2,3:2|0:0,0:0:0:0:
165,125,35015,6,0,P|186:131|206:149,1,43.7500004172325,2|2,0:3|0:3,0:0:0:0:
207,151,35132,1,2,1:2:0:0:
166,299,35249,1,2,0:0:0:0:
278,181,35367,101,2,0:0:0:0:
286,288,35484,1,2,0:0:0:0:
358,186,35601,5,2,3:2:0:0:
388,254,35718,2,0,P|416:259|441:272,1,50,2|0,0:0|0:0,0:0:0:0:
498,221,35953,101,2,0:0:0:0:
468,153,36070,2,0,P|440:148|415:135,1,50,2|0,1:2|0:0,0:0:0:0:
388,254,36304,2,0,P|416:259|441:272,1,50,2|0,0:0|0:0,0:0:0:0:
389,329,36539,1,2,3:2:0:0:
389,329,36773,5,2,0:0:0:0:
388,254,36890,2,0,P|371:255|348:255,1,25,2|2,0:3|0:3,0:0:0:0:
384,148,37007,1,0,1:0:0:0:
380,9,37124,101,2,0:0:0:0:
380,9,37359,2,0,P|343:16|286:61,1,108.750003318787,2|0,0:0|0:0,0:0:0:0:
218,83,37593,1,2,0:0:0:0:
82,246,37710,6,0,P|117:275|129:305,1,75.0000028610231,2|2,0:0|0:0,0:0:0:0:
227,216,37945,2,0,P|204:255|203:288,1,75.0000028610231,2|0,1:2|0:0,0:0:0:0:
176,356,38179,1,2,0:0:0:0:
287,58,38414,86,0,L|483:79,1,187.5,6|0,3:1|0:0,0:0:0:0:
304,135,38648,2,0,L|460:151,1,125,2|2,0:1|0:3,0:0:0:0:
438,149,38824,1,2,0:3:0:0:
447,151,38882,1,0,1:0:0:0:
51,148,39117,54,0,B|33:180|33:180|58:211,1,75.0000028610231,2|2,0:0|0:3,0:0:0:0:
136,218,39351,1,0,3:0:0:0:
134,207,39468,1,2,0:0:0:0:
133,198,39585,2,0,B|151:166|151:166|126:135,1,75.0000028610231,2|2,0:0|0:3,0:0:0:0:
51,148,39820,2,0,B|33:180|33:180|58:211,1,75.0000028610231,2|2,1:2|0:0,0:0:0:0:
280,222,40054,6,0,P|308:210|324:195,1,50,2|2,0:3|0:3,0:0:0:0:
422,104,40289,38,0,L|397:262,1,150.000005722046,4|0,3:2|0:0,0:0:0:0:
290,335,40523,1,6,0:2:0:0:
143,299,40640,2,0,L|100:308,1,25,8|2,0:3|0:3,0:0:0:0:
146,286,40757,2,0,B|124:255|124:255|144:224,1,75.0000028610231,0|0,1:0|0:0,0:0:0:0:
184,216,40992,2,0,B|218:231|218:231|216:268,1,75.0000028610231,2|2,0:0|0:3,0:0:0:0:
292,309,41226,5,0,3:0:0:0:
241,372,41343,1,2,0:0:0:0:
239,365,41460,2,0,P|217:347|195:340,1,50,2|0,0:0|0:0,0:0:0:0:
455,223,41695,6,0,B|408:211|408:211|374:242,1,93.75,2|0,1:2|0:0,0:0:0:0:
367,249,41929,2,0,P|362:277|367:299,1,50,2|4,0:0|0:3,0:0:0:0:
487,153,42164,70,0,L|474:79,2,62.5,14|0|0,0:3|0:0|0:0,0:0:0:0:
485,77,42632,2,0,L|411:90,2,62.5,2|0|0,0:3|0:0|0:0,0:0:0:0:
349,47,42984,5,2,0:3:0:0:
349,47,43218,2,0,L|338:108,2,62.5
344,122,43570,2,0,L|270:109,3,62.5,2|0|0|0,0:3|0:0|0:0|0:0,0:0:0:0:
28,234,44039,102,0,L|41:160,3,62.5,14|0|0|0,0:3|0:0|0:0|0:0,0:0:0:0:
30,158,44507,2,0,L|104:171,2,62.5,2|0|0,0:3|0:0|0:0,0:0:0:0:
166,128,44859,5,2,0:3:0:0:
166,128,45093,2,0,L|176:189,2,62.5
161,263,45445,1,0,1:0:0:0:
222,252,45562,1,8,0:3:0:0:
171,274,45679,1,4,0:3:0:0:
214,266,45796,1,0,3:0:0:0:
206,337,45914,69,6,0:0:0:0:
206,337,46148,1,2,0:0:0:0:
345,301,46382,1,10,0:0:0:0:
474,362,46617,1,2,0:0:0:0:
474,362,46851,1,2,0:0:0:0:
369,117,47320,5,10,0:0:0:0:
474,362,47554,1,2,0:0:0:0:
448,167,48023,101,2,0:0:0:0:
429,284,48257,1,10,0:0:0:0:
448,167,48492,5,2,0:0:0:0:
447,173,48609,1,2,0:0:0:0:
446,179,48726,1,2,0:0:0:0:
429,284,48960,101,2,0:0:0:0:
427,296,49195,1,10,0:0:0:0:
13,256,49664,5,2,0:0:0:0:
13,256,49898,1,2,0:0:0:0:
71,185,50132,1,10,0:0:0:0:
149,234,50367,1,2,0:0:0:0:
91,304,50601,1,2,0:0:0:0:
51,66,51070,101,10,0:0:0:0:
91,304,51304,1,2,0:0:0:0:
283,178,51773,5,2,0:0:0:0:
365,148,52007,1,10,0:0:0:0:
437,196,52242,1,2,0:0:0:0:
315,248,52476,101,2,0:0:0:0:
389,256,52710,1,2,0:0:0:0:
340,354,52945,6,0,L|345:313,1,37.5000014305115,8|8,0:3|0:3,0:0:0:0:
361,172,53179,2,0,L|364:143,1,25,4|4,0:3|0:3,0:0:0:0:
497,102,53414,6,0,B|467:89|459:63|459:63|419:57|386:88,1,125,2|2,0:0|0:3,0:0:0:0:
365,8,53765,1,2,0:3:0:0:
497,102,53882,2,0,B|472:125|432:119|432:119|424:93|394:80,1,125,8|2,0:0|0:3,0:0:0:0:
151,197,54351,6,0,B|181:184|189:158|189:158|229:152|262:183,1,125,2|2,0:0|0:3,0:0:0:0:
283,103,54703,1,2,0:3:0:0:
151,197,54820,2,0,B|175:220|215:214|215:214|223:188|253:175,1,125,8|2,0:0|0:0,0:0:0:0:
283,103,55171,2,0,P|313:123|329:155,1,62.5,2|0,0:0|0:0,0:0:0:0:
405,227,55406,5,2,0:3:0:0:
377,299,55523,1,2,0:3:0:0:
393,223,55640,1,2,0:3:0:0:
389,302,55757,1,10,0:0:0:0:
418,124,55992,5,2,0:1:0:0:
254,325,56226,101,2,0:0:0:0:
227,351,56343,1,2,0:3:0:0:
188,351,56460,1,2,0:3:0:0:
188,351,56695,2,0,P|180:317|165:290,1,62.5,8|0,0:0|0:0,0:0:0:0:
253,175,56929,2,0,P|238:202|232:233,1,62.5,2|0,0:0|0:0,0:0:0:0:
470,348,57164,53,2,0:0:0:0:
423,343,57281,1,2,0:0:0:0:
380,326,57398,1,2,0:0:0:0:
343,297,57515,1,2,0:0:0:0:
316,259,57632,1,10,0:0:0:0:
316,259,57867,5,2,0:0:0:0:
394,233,57984,1,2,0:0:0:0:
317,252,58101,2,0,L|327:186,2,56.2500021457673,2|2|2,0:0|0:0|0:0,0:0:0:0:
9,257,58570,70,0,B|24:244|28:227|28:227|105:218,1,112.500004291535,10|0,1:1|0:0,0:0:0:0:
115,219,58804,2,0,P|133:250|167:265,1,75.0000028610231,6|0,0:2|0:0,0:0:0:0:
251,190,59273,70,0,B|253:173|253:173|216:156|216:156|242:188,1,87.500000834465,6|0,0:0|0:0,0:0:0:0:
261,187,59507,2,0,B|274:197|274:197|307:173|307:173|266:180,1,87.500000834465,6|0,0:0|0:0,0:0:0:0:
258,198,59742,2,0,B|242:204|242:204|246:244|246:244|261:206,1,87.500000834465,2|6,0:0|0:0,0:0:0:0:
112,343,59976,101,6,1:2:0:0:
122,346,60093,1,8,0:3:0:0:
147,350,60210,5,4,0:3:0:0:
157,353,60327,1,0,3:0:0:0:
230,370,60445,22,0,L|239:316,1,52.4999983978272,10|0,3:2|0:0,0:0:0:0:
202,174,60914,22,0,B|261:166|276:88|276:88|261:167|321:193|321:193|260:195|246:277|246:277|258:195|200:172,1,450.000017166138,6|2,1:2|0:3,0:0:0:0:
171,85,61382,6,0,B|158:66|146:60|121:60|121:60|155:45|189:61|195:95,1,150.000005722046,8|0,0:0|0:0,0:0:0:0:
194,263,61617,1,2,0:0:0:0:
192,273,61734,1,2,0:3:0:0:
210,348,61851,6,0,L|234:200,1,150.000005722046,0|0,3:0|0:0,0:0:0:0:
376,166,62085,102,0,P|350:185|338:203,1,50,2|0,0:1|0:0,0:0:0:0:
292,151,62203,2,0,P|306:178|309:200,1,50,2|0,0:1|0:0,0:0:0:0:
311,281,62320,1,10,0:0:0:0:
511,256,62554,102,0,P|419:245|4:343,1,525.00000500679,6|0,1:2|0:0,0:0:0:0:
84,241,63023,6,0,B|71:229|51:228|37:239|32:253|32:253|34:271|50:284|68:284|81:276,1,125,2|2,0:0|0:3,0:0:0:0:
186,237,63257,2,0,B|202:231|212:215|210:197|201:186|201:186|184:179|165:186|155:201|156:217,1,125,10|0,0:0|0:0,0:0:0:0:
138,327,63492,2,0,B|133:343|143:361|159:368|174:365|174:365|188:354|192:334|183:318|169:311,1,125,2|0,0:0|0:0,0:0:0:0:
73,90,63726,5,2,3:2:0:0:
93,159,63843,2,0,B|108:39|108:39|99:22,1,137.500001311302,2|2,0:0|0:3,0:0:0:0:
325,116,64078,101,2,0:0:0:0:
314,47,64195,2,0,B|302:59|302:59|286:178,1,137.500001311302,8|2,0:0|0:0,0:0:0:0:
174,107,64429,6,0,L|239:98,1,50,10|4,0:3|0:3,0:0:0:0:
441,25,64664,6,0,P|406:39|382:68,1,75.0000028610231,2|0,3:2|0:0,0:0:0:0:
493,178,64898,2,0,P|468:149|433:135,1,75.0000028610231,2|2,0:0|0:3,0:0:0:0:
363,274,65132,2,0,P|383:242|385:204,1,75.0000028610231,10|0,0:0|0:0,0:0:0:0:
223,100,65367,5,2,0:0:0:0:
234,104,65484,1,2,0:3:0:0:
212,174,65601,1,2,3:2:0:0:
212,174,65835,6,0,B|155:180|155:180|155:180|155:180|130:148|130:148|133:145|133:145|130:148|130:148|60:155,1,175.00000166893,2|8,0:0|0:0,0:0:0:0:
73,303,66187,2,0,B|141:293|141:293|144:295|144:295|141:293|141:293|158:256|158:256|158:256|158:256|215:249,1,175.00000166893,2|0,0:0|0:0,0:0:0:0:
278,211,66539,1,0,3:0:0:0:
230,356,66773,5,2,0:0:0:0:
307,315,66890,1,2,0:0:0:0:
376,373,67007,1,8,0:0:0:0:
403,152,67242,101,2,0:0:0:0:
316,102,67359,1,2,0:0:0:0:
212,174,67476,70,0,P|163:167|120:121,1,100,2|2,3:1|0:0,0:0:0:0:
121,124,67828,1,2,0:0:0:0:
409,52,67945,102,0,P|360:59|317:105,1,100,12|8,0:0|0:3,0:0:0:0:
316,102,68296,1,12,0:3:0:0:
440,240,68414,102,0,B|387:212|400:134|400:134|387:213|322:217|322:217|378:240|363:322|363:322|380:241|443:239,1,450.000017166138,4|2,3:2|0:3,0:0:0:0:
429,35,68882,6,0,B|455:35|474:57|473:85|473:85|451:59|429:49|407:52,1,150.000005722046,8|0,0:0|0:0,0:0:0:0:
318,88,69117,1,2,0:0:0:0:
316,102,69234,1,2,0:3:0:0:
288,8,69351,6,0,L|269:168,1,150.000005722046,0|0,3:0|0:0,0:0:0:0:
190,316,69585,102,0,B|189:298|189:298|156:279,1,50,2|0,0:1|0:0,0:0:0:0:
117,330,69703,2,0,B|111:312|111:312|136:283,1,50,2|0,0:1|0:0,0:0:0:0:
135,214,69820,1,10,0:0:0:0:
1,293,70054,102,0,P|264:257|489:371,1,525.00000500679,6|0,1:2|0:0,0:0:0:0:
363,247,70523,5,2,0:0:0:0:
438,228,70640,2,0,L|427:312,1,62.5,2|10,0:3|0:0,0:0:0:0:
512,271,70874,1,2,0:0:0:0:
436,291,70992,2,0,L|445:216,1,62.5,2|2,0:0|0:0,0:0:0:0:
336,74,71226,6,0,L|305:96,1,37.5000014305115,2|0,3:1|0:0,0:0:0:0:
341,60,71343,2,0,L|337:22,1,37.5000014305115,2|0,0:0|0:0,0:0:0:0:
349,71,71460,2,0,L|383:86,1,37.5000014305115,2|0,0:0|0:0,0:0:0:0:
343,77,71578,102,0,L|350:151,1,75.0000028610231,2|8,0:0|0:0,0:0:0:0:
226,119,71812,5,2,0:0:0:0:
458,65,71929,2,0,L|465:139,1,75.0000028610231,8|4,0:3|0:3,0:0:0:0:
446,297,72164,102,0,B|422:269|380:277|380:277|373:324|321:340,1,150,2|0,3:2|0:0,0:0:0:0:
327,338,72398,1,2,0:0:0:0:
219,235,72515,1,2,0:0:0:0:
68,283,72632,2,0,P|37:261|0:257,1,75.0000028610231,10|2,0:0|0:0,0:0:0:0:
146,117,72867,2,0,P|116:139|101:173,1,75.0000028610231,2|2,0:0|0:0,0:0:0:0:
219,357,73101,5,2,3:2:0:0:
219,235,73218,1,2,0:0:0:0:
147,333,73335,1,2,0:0:0:0:
263,296,73453,1,2,0:0:0:0:
147,258,73570,70,0,L|132:252,1,15,2|0,1:2|0:0,0:0:0:0:
68,283,73804,6,0,P|29:238|37:142,1,150,6|0,3:2|0:0,0:0:0:0:
36,139,74039,6,0,B|34:121|34:121|49:100,1,37.5000014305115,2|0,1:2|0:0,0:0:0:0:
126,148,74156,2,0,B|118:163|118:163|95:174,1,37.5000014305115,0|0,1:0|0:0,0:0:0:0:
138,41,74273,102,0,P|196:29|275:84,1,150,4|0,3:2|0:0,0:0:0:0:
263,161,74507,1,12,0:0:0:0:
406,143,74624,5,4,0:0:0:0:
263,161,74742,1,4,0:0:0:0:
363,59,74859,1,4,0:0:0:0:
340,213,74976,102,0,P|314:286|201:339,1,200,2|0,0:0|1:0,0:0:0:0:
68,283,75328,1,8,0:3:0:0:
132,358,75445,86,0,L|140:299,1,60,4|0,0:0|0:0,0:0:0:0:
151,120,75914,6,0,B|125:193|47:155|37:125|73:42|143:89,1,225.000008583069,6|0,3:2|0:0,0:0:0:0:
225,119,76148,6,0,P|218:74|198:33,1,75.0000028610231,2|0,1:2|0:0,0:0:0:0:
214,45,76265,2,0,P|228:80|233:117,1,75.0000028610231,2|0,0:0|0:0,0:0:0:0:
338,120,76382,102,0,B|344:108|323:92|323:92|316:97|316:97|323:125|330:125,1,75.0000028610231,10|0,0:0|0:0,0:0:0:0:
375,132,76499,2,0,B|386:138|402:117|402:117|398:110|398:110|370:117|370:124,1,75.0000028610231,2|0,0:0|0:0,0:0:0:0:
362,170,76617,2,0,B|355:181|377:197|377:197|384:193|384:193|377:165|370:165,1,75.0000028610231,2|0,1:2|0:0,0:0:0:0:
325,157,76734,2,0,B|314:150|297:172|297:172|302:179|302:179|330:172|330:164,1,75.0000028610231,2|0,0:0|0:0,0:0:0:0:
337,120,76851,6,0,B|343:109|321:93|321:93|314:98|314:98|322:125|329:125,1,75.0000028610231,2|0,3:2|0:0,0:0:0:0:
375,131,76968,2,0,B|386:137|402:115|402:115|397:108|397:108|369:116|369:123,1,75.0000028610231,2|0,0:0|0:0,0:0:0:0:
433,262,77085,102,0,P|381:222|224:218,1,225.000008583069,2|0,1:2|0:0,0:0:0:0:
223,226,77320,2,0,P|319:281|429:271,1,225.000008583069,10|0,0:0|0:0,0:0:0:0:
433,262,77554,6,0,P|381:222|224:218,1,225.000008583069,2|0,1:2|3:0,0:0:0:0:
85,213,77906,102,0,B|81:238|81:238|61:230|61:230|80:210,1,75.0000028610231,2|0,0:0|0:0,0:0:0:0:
77,171,78023,2,0,B|54:155|54:155|72:142|72:142|81:169,1,75.0000028610231,2|0,1:2|0:0,0:0:0:0:
117,186,78140,2,0,B|140:175|140:175|143:196|143:196|115:190,1,75.0000028610231,2|0,0:0|0:0,0:0:0:0:
188,103,78257,6,0,B|170:77|170:77|180:70|180:70|197:97,1,75.0000028610231,10|0,0:0|0:0,0:0:0:0:
223,101,78374,2,0,B|248:83|248:83|255:93|255:93|228:110,1,75.0000028610231,2|0,0:0|0:0,0:0:0:0:
225,137,78492,2,0,B|242:162|242:162|232:169|232:169|215:142,1,75.0000028610231,2|0,1:2|0:0,0:0:0:0:
189,138,78609,2,0,B|163:155|163:155|156:145|156:145|183:128,1,75.0000028610231,2|0,0:0|0:0,0:0:0:0:
187,103,78726,102,0,B|168:77|168:77|178:70|178:70|195:96,1,75.0000028610231,2|0,3:2|0:0,0:0:0:0:
223,101,78843,2,0,B|248:82|248:82|255:92|255:92|229:109,1,75.0000028610231,2|0,0:0|0:0,0:0:0:0:
77,171,78960,6,0,P|179:213|237:307,1,225.000008583069,2|0,1:2|0:0,0:0:0:0:
323,192,79195,102,0,P|214:216|141:298,1,225.000008583069,10|0,0:0|1:0,0:0:0:0:
461,141,79664,6,0,B|462:132|473:116|473:116|432:98|414:58|414:58|408:100|371:129|371:129|386:142|389:151,1,225.000008583069,2|0,3:2|0:0,0:0:0:0:
398,223,79898,102,0,B|434:233|434:233|475:209,1,75.0000028610231,2|0,1:2|0:0,0:0:0:0:
469,224,80015,2,0,B|436:242|436:242|400:232,1,75.0000028610231,2|0,0:0|0:0,0:0:0:0:
264,127,80132,6,0,B|258:108|234:108|234:108|233:131|262:135,1,75.0000028610231,10|0,0:0|0:0,0:0:0:0:
306,115,80249,2,0,B|321:104|314:81|314:81|292:87|297:116,1,75.0000028610231,2|0,0:0|0:0,0:0:0:0:
330,151,80367,2,0,B|345:162|364:148|364:148|352:129|326:143,1,75.0000028610231,2|0,1:2|0:0,0:0:0:0:
302,185,80484,2,0,B|295:202|315:217|315:217|329:199|308:179,1,75.0000028610231,2|0,0:0|0:0,0:0:0:0:
262,168,80601,102,0,B|242:167|235:190|235:190|256:198|269:172,1,75.0000028610231,2|0,3:2|0:0,0:0:0:0:
264,127,80718,2,0,B|258:108|234:108|234:108|233:131|262:135,1,75.0000028610231,2|0,0:0|0:0,0:0:0:0:
166,49,80835,6,0,B|144:71|144:71|173:270,1,225.000008583069,2|0,1:2|0:0,0:0:0:0:
181,268,81070,2,0,B|203:246|203:246|174:47,1,225.000008583069,10|0,0:0|0:0,0:0:0:0:
166,49,81304,102,0,B|144:71|144:71|173:270,1,225.000008583069,2|0,1:2|3:0,0:0:0:0:
256,311,81656,6,0,B|244:329|225:327|225:327|237:324|254:298,1,75.0000028610231,2|0,0:0|0:0,0:0:0:0:
257,277,81773,2,0,B|247:257|257:242|257:242|254:253|268:282,1,75.0000028610231,2|0,1:2|0:0,0:0:0:0:
285,294,81890,2,0,B|306:295|314:312|314:312|306:303|274:301,1,75.0000028610231,2|0,0:0|0:0,0:0:0:0:
351,239,82007,102,0,B|366:255|392:251|392:251|382:235|376:208,1,75.0000028610231,10|0,0:0|0:0,0:0:0:0:
374,201,82124,2,0,B|393:191|398:165|398:165|379:170|352:167,1,75.0000028610231,2|0,0:0|0:0,0:0:0:0:
344,167,82242,2,0,B|341:145|317:133|317:133|316:152|305:177,1,75.0000028610231,2|0,1:2|0:0,0:0:0:0:
302,185,82359,2,0,B|280:180|261:199|261:199|279:206|299:224,1,75.0000028610231,2|0,0:0|0:0,0:0:0:0:
456,259,82476,6,0,L|257:277,1,200,2|2,3:2|1:2,0:0:0:0:
439,105,82828,1,0,0:0:0:0:
444,100,82945,102,0,L|245:118,1,200,10|0,0:0|1:0,0:0:0:0:
0,131,83296,1,4,0:3:0:0:
85,146,83414,6,0,B|88:129|34:77|117:28|150:38|204:122|127:136|118:157,1,225.000008583069,2|0,3:2|0:0,0:0:0:0:
100,247,83648,102,0,P|69:225|32:223,1,75.0000028610231,2|0,1:2|0:0,0:0:0:0:
35,218,83765,2,0,P|71:220|102:241,1,75.0000028610231,2|0,0:0|0:0,0:0:0:0:
190,303,83882,6,0,B|167:331|154:305|166:284|206:277,1,75.0000028610231,6|0,0:0|0:0,0:0:0:0:
203,273,83999,2,0,B|175:250|201:237|222:249|229:289,1,75.0000028610231,2|0,0:0|0:0,0:0:0:0:
233,286,84117,2,0,B|256:258|269:284|257:305|217:312,1,75.0000028610231,2|0,1:2|0:0,0:0:0:0:
220,316,84234,2,0,B|248:339|222:352|201:340|194:300,1,75.0000028610231,2|0,0:0|0:0,0:0:0:0:
190,303,84351,102,0,B|169:332|154:307|164:286|204:275,1,75.0000028610231,2|0,3:2|0:0,0:0:0:0:
201,271,84468,2,0,B|171:250|197:235|218:247|228:285,1,75.0000028610231,2|0,0:0|0:0,0:0:0:0:
106,338,84585,6,0,B|118:327|124:313|124:313|209:312|284:287|284:287|294:300|316:309,1,225.000008583069,2|0,1:2|0:0,0:0:0:0:
313,318,84820,2,0,B|301:329|295:343|295:343|210:344|135:369|135:369|125:356|103:347,1,225.000008583069,6|0,0:0|0:0,0:0:0:0:
106,338,85054,102,0,B|118:327|124:313|124:313|209:312|284:287|284:287|294:300|316:309,1,225.000008583069,2|0,1:2|3:0,0:0:0:0:
357,191,85406,6,0,B|391:140|328:158|396:147|412:184,1,75.0000028610231,2|0,0:0|0:0,0:0:0:0:
395,176,85523,2,0,B|425:231|438:167|413:231|373:227,1,75.0000028610231,2|0,1:2|0:0,0:0:0:0:
388,216,85640,2,0,B|324:214|373:257|330:204|354:171,1,75.0000028610231,2|0,0:0|0:0,0:0:0:0:
260,91,85757,102,0,B|303:81|247:42|292:77|291:31|246:41|293:77|249:86,1,75.0000028610231,6|0,0:0|0:0,0:0:0:0:
218,93,85874,2,0,B|208:49|169:105|204:60|158:61|168:106|204:59|213:103,1,75.0000028610231,2|0,0:0|0:0,0:0:0:0:
222,133,85992,2,0,B|178:142|234:181|189:146|190:192|235:182|188:146|232:137,1,75.0000028610231,2|0,1:2|0:0,0:0:0:0:
260,128,86109,2,0,B|269:171|308:115|273:160|319:159|309:114|273:161|264:117,1,75.0000028610231,2|0,0:0|0:0,0:0:0:0:
259,91,86226,6,0,B|302:83|249:42|292:79|293:33|248:41|293:78|248:85,1,75.0000028610231,2|0,3:2|0:0,0:0:0:0:
219,90,86343,2,0,B|211:46|170:99|207:56|161:55|169:100|206:55|213:100,1,75.0000028610231,2|0,0:0|0:0,0:0:0:0:
140,221,86460,102,0,B|155:220|169:211|169:211|232:259|312:288|312:288|313:303|321:317,1,225.000008583069,2|0,1:2|0:0,0:0:0:0:
357,191,86695,6,0,B|341:194|326:188|326:188|276:250|206:297|206:297|208:312|204:328,1,225.000008583069,6|8,0:0|0:3,0:0:0:0:
441,191,87164,102,0,B|421:250|528:233|444:286|475:333|500:283|412:240|520:245|494:188,1,206.250001966953,2|0,3:2|0:0,0:0:0:0:
512,46,87398,6,0,B|471:29|505:73|507:17|461:76,1,68.7500006556511,2|0,1:2|0:0,0:0:0:0:
407,55,87515,2,0,B|444:32|418:80|406:26|462:75,1,68.7500006556511,2|0,0:0|0:0,0:0:0:0:
368,146,87632,102,0,B|386:118|357:108|341:137|377:145,1,68.7500006556511,6|0,0:0|0:0,0:0:0:0:
355,199,87749,2,0,B|334:173|315:198|338:222|357:190,1,68.7500006556511,2|0,0:0|0:0,0:0:0:0:
401,227,87867,2,0,B|370:239|388:264|418:250|393:223,1,68.7500006556511,2|0,1:2|0:0,0:0:0:0:
441,191,87984,2,0,B|443:224|472:215|468:182|434:197,1,68.7500006556511,2|0,0:0|0:0,0:0:0:0:
419,141,88101,6,0,B|451:149|452:119|419:113|423:149,1,68.7500006556511,2|0,3:2|0:0,0:0:0:0:
368,146,88218,2,0,B|386:118|357:108|341:137|377:145,1,68.7500006556511,2|0,0:0|0:0,0:0:0:0:
285,141,88335,102,0,B|269:132|258:121|272:83|237:92|306:118|211:103|211:103|114:90|190:85|159:65|161:107|147:114|130:117,1,206.250001966953,2|0,1:2|0:0,0:0:0:0:
126,133,88570,2,0,B|141:141|152:152|138:190|173:181|104:155|199:170|199:170|296:183|220:188|251:208|249:166|263:159|280:156,1,206.250001966953,6|0,0:0|0:0,0:0:0:0:
225,15,88804,6,0,L|179:314,1,275.000002622604,10|0,3:2|0:0,0:0:0:0:
170,299,89156,102,0,B|116:308|138:343|128:283|171:294,1,68.7500006556511,2|0,0:0|0:0,0:0:0:0:
187,271,89273,2,0,B|206:219|164:221|221:242|190:274,1,68.7500006556511,2|0,3:2|0:0,0:0:0:0:
202,299,89390,2,0,B|236:341|256:304|209:343|197:300,1,68.7500006556511,2|0,0:0|0:0,0:0:0:0:
324,290,89507,6,0,B|315:324|325:333|328:334|325:327|333:292,1,68.7500006556511,14|0,0:0|0:0,0:0:0:0:
312,247,89624,2,0,B|276:249|270:261|271:265|277:260|312:256,1,68.7500006556511,2|0,0:0|0:0,0:0:0:0:
349,222,89742,2,0,B|335:188|322:187|319:188|325:192|339:225,1,68.7500006556511,2|0,3:2|0:0,0:0:0:0:
384,249,89859,2,0,B|411:225|409:212|406:210|404:217|377:241,1,68.7500006556511,2|0,0:0|0:0,0:0:0:0:
369,290,89976,102,0,B|399:308|411:302|412:299|404:299|374:281,1,68.7500006556511,2|0,3:2|0:0,0:0:0:0:
324,290,90093,2,0,B|315:324|325:333|328:334|325:327|333:292,1,68.7500006556511,2|0,0:0|0:0,0:0:0:0:
319,147,90210,6,0,B|318:78|318:78|341:146,1,137.500001311302,2|4,1:2|0:3,0:0:0:0:
125,376,90445,86,0,L|134:322,1,52.4999983978272,6|0,3:2|0:0,0:0:0:0:
133,245,90914,70,0,L|108:248,1,25,6|0,3:2|0:0,0:0:0:0:
140,320,91148,2,0,L|115:323,1,25,2|0,0:0|0:0,0:0:0:0:
133,245,91382,2,0,L|108:248,1,25,2|0,0:0|0:0,0:0:0:0:
30,296,91617,1,2,0:0:0:0:
142,237,91734,6,0,L|92:243,1,50,2|2,0:0|0:0,0:0:0:0:
151,324,92085,2,0,L|101:330,1,50,2|2,0:0|0:0,0:0:0:0:
30,296,92554,1,2,0:0:0:0:
257,240,92789,102,0,L|294:244,1,37.5000014305115,2|0,0:0|0:0,0:0:0:0:
246,352,93023,2,0,L|283:356,1,37.5000014305115,2|0,0:0|0:0,0:0:0:0:
257,240,93257,2,0,L|294:244,1,37.5000014305115,2|0,0:0|0:0,0:0:0:0:
360,308,93492,5,2,0:0:0:0:
242,227,93609,2,0,L|317:237,1,75.0000028610231,2|2,0:0|0:0,0:0:0:0:
303,366,93960,2,0,L|229:357,1,75.0000028610231,2|2,0:0|0:0,0:0:0:0:
370,310,94429,1,2,3:2:0:0:
135,112,94664,6,0,L|84:118,1,50,6|0,3:2|0:0,0:0:0:0:
145,206,94898,2,0,L|94:212,1,50,2|0,0:0|0:0,0:0:0:0:
135,112,95132,2,0,L|84:118,1,50,2|0,0:0|0:0,0:0:0:0:
5,174,95367,1,2,0:0:0:0:
151,95,95484,6,0,L|50:107,1,100,2|2,0:0|0:0,0:0:0:0:
166,214,95835,2,0,L|65:226,1,100,2|2,0:0|0:0,0:0:0:0:
5,174,96304,1,2,0:0:0:0:
325,55,96539,102,0,L|399:64,1,62.5,2|0,0:0|0:0,0:0:0:0:
311,182,96773,2,0,L|385:191,1,62.5,2|0,0:0|0:0,0:0:0:0:
325,55,97007,2,0,L|399:64,1,62.5,2|0,0:0|0:0,0:0:0:0:
478,138,97242,5,2,0:0:0:0:
301,41,97359,2,0,L|425:57,1,125,2|2,0:0|0:0,0:0:0:0:
373,189,97710,2,0,L|311:182,1,62.5,2|0,0:0|0:0,0:0:0:0:
478,138,97945,101,8,0:3:0:0:
480,153,98062,1,8,0:3:0:0:
483,168,98179,1,4,0:3:0:0:
486,183,98296,1,4,0:3:0:0:
462,260,98414,54,0,L|291:293,1,175.00000166893,8|0,0:0|0:0,0:0:0:0:
290,293,98882,2,0,L|257:122,1,175.00000166893,8|0,0:0|0:0,0:0:0:0:
256,121,99351,2,0,L|427:88,1,175.00000166893,8|0,0:0|0:0,0:0:0:0:
428,88,99820,2,0,L|461:259,1,175.00000166893,8|0,0:0|0:0,0:0:0:0:
459,263,100289,6,0,L|287:290,1,175.00000166893,8|0,0:0|0:0,0:0:0:0:
286,290,100757,2,0,L|259:118,1,175.00000166893,8|0,0:0|0:0,0:0:0:0:
258,117,101226,2,0,L|430:90,1,175.00000166893,8|0,0:0|0:0,0:0:0:0:
431,90,101695,2,0,L|458:262,1,175.00000166893,8|0,0:0|0:0,0:0:0:0:
454,270,102164,70,0,L|367:277,1,87.500000834465,8|0,0:0|0:0,0:0:0:0:
279,285,102398,2,0,L|272:198,1,87.500000834465,8|0,0:0|0:0,0:0:0:0:
263,110,102632,2,0,L|350:103,1,87.500000834465,8|0,0:0|0:0,0:0:0:0:
438,95,102867,2,0,L|445:182,1,87.500000834465,8|0,0:0|0:0,0:0:0:0:
418,252,103101,6,0,L|374:251,1,43.7500004172325,8|0,0:0|0:0,0:0:0:0:
296,250,103218,2,0,L|296:206,1,43.7500004172325,0|0,3:0|0:0,0:0:0:0:
298,127,103335,2,0,L|341:127,1,43.7500004172325,8|0,0:0|0:0,0:0:0:0:
420,129,103453,2,0,L|419:172,1,43.7500004172325,0|0,3:0|0:0,0:0:0:0:
389,232,103570,102,0,L|346:225,1,43.7500004172325,8|0,0:0|0:0,0:0:0:0:
316,220,103687,2,0,L|322:177,1,43.7500004172325,0|0,3:0|0:0,0:0:0:0:
327,147,103804,2,0,L|369:153,1,43.7500004172325,8|0,0:0|0:0,0:0:0:0:
400,159,103921,2,0,L|393:201,1,43.7500004172325,0|0,3:0|0:0,0:0:0:0:
356,191,104039,21,0,3:0:0:0:
94,222,104273,1,0,3:0:0:0:
356,191,104507,6,0,P|321:159|257:157,1,100,8|0,0:0|0:0,0:0:0:0:
94,222,104742,1,0,3:0:0:0:
215,208,104859,2,0,P|194:241|162:258,1,75.0000028610231,0|0,3:0|0:0,0:0:0:0:
76,144,105093,1,0,0:0:0:0:
101,335,105210,102,0,L|95:291,1,37.5000014305115,2|0,3:2|0:0,0:0:0:0:
76,144,105445,5,8,0:0:0:0:
74,131,105562,1,8,0:3:0:0:
72,119,105679,1,4,0:3:0:0:
70,106,105796,1,0,3:0:0:0:
113,39,105914,6,0,B|144:44|144:44|178:48|158:86|211:91,1,112.500004291535,2|0,3:1|0:0,0:0:0:0:
275,50,106148,2,0,P|263:29|268:47,1,75.0000028610231,2|0,0:0|0:0,0:0:0:0:
233,160,106382,2,0,B|243:167|243:167|298:137|362:142|362:142|371:127,1,150.000005722046,8|2,1:2|0:0,0:0:0:0:
453,113,106734,2,0,B|485:27|389:-15|308:69|415:46|454:66|449:100,1,225.000008583069,2|6,0:1|0:3,0:0:0:0:
495,223,107320,2,0,B|486:203|486:203|427:201|364:169,1,150.000005722046,8|4,1:2|0:3,0:0:0:0:
307,221,107789,5,2,0:0:0:0:
303,228,107906,1,2,0:0:0:0:
348,298,108023,2,0,B|312:315|312:315|270:301,1,75.0000028610231,2|2,0:3|0:0,0:0:0:0:
214,216,108257,1,8,1:2:0:0:
186,364,108374,2,0,B|240:279|159:263|170:364,1,150.000005722046,2|2,0:0|0:0,0:0:0:0:
88,350,108726,1,2,0:1:0:0:
75,341,108960,6,0,B|43:371|43:371|89:363,1,87.500000834465,2|2,0:2|0:3,0:0:0:0:
67,250,109195,53,8,0:0:0:0:
444,214,109429,1,8,0:0:0:0:
192,143,109664,102,0,B|247:120|242:40|242:40|248:120|312:130|312:130|253:148|261:231|261:231|251:149|190:141,1,450.000017166138,4|0,3:2|0:0,0:0:0:0:
177,222,110132,38,0,L|143:216,1,29.9999990844727,2|2,1:3|0:3,0:0:0:0:
69,24,110367,1,2,0:3:0:0:
60,170,110484,6,0,L|43:173,1,14.9999995422363,2|0,0:3|3:0,0:0:0:0:
49,99,110718,1,2,0:3:0:0:
49,99,110835,2,0,L|32:102,1,14.9999995422363,2|0,0:3|0:0,0:0:0:0:
140,293,111070,6,0,L|157:296,1,14.9999995422363,2|0,1:3|0:0,0:0:0:0:
164,143,111304,2,0,L|189:147,1,25,2|0,0:3|0:0,0:0:0:0:
215,216,111539,85,2,3:2:0:0:
284,227,111656,1,2,0:0:0:0:
326,156,111773,1,2,0:2:0:0:
326,157,112007,2,0,P|316:127|318:96,1,62.5,0|2,1:0|0:3,0:0:0:0:
460,149,112241,6,0,P|425:160|403:177,1,62.5,2|2,0:2|0:3,0:0:0:0:
455,300,112476,2,0,P|433:270|411:255,1,62.5,2|2,3:2|0:3,0:0:0:0:
333,364,112710,1,2,0:2:0:0:
362,323,112827,1,2,0:2:0:0:
333,283,112944,1,2,1:2:0:0:
285,298,113061,1,2,0:2:0:0:
285,348,113179,2,0,L|255:345,1,29.9999990844727,8|4,0:3|0:3,0:0:0:0:
39,324,113414,69,0,3:0:0:0:
39,324,113648,2,0,B|64:321|64:321|88:298,1,50,2|0,0:0|0:0,0:0:0:0:
0,206,113882,5,0,1:0:0:0:
0,206,114116,2,0,B|11:229|11:229|40:245,1,50,2|0,0:0|0:0,0:0:0:0:
100,132,114351,101,0,3:0:0:0:
100,132,114585,2,0,B|81:150|81:150|76:182,1,50,2|0,0:0|0:0,0:0:0:0:
406,90,114820,6,0,B|426:61|426:61|382:22|382:22|328:45|328:45|338:78,1,187.5,2|0,1:2|0:0,0:0:0:0:
359,146,115054,1,4,0:3:0:0:
141,216,115289,6,0,L|150:276,1,50,2|0,3:2|0:0,0:0:0:0:
215,204,115523,2,0,L|224:264,1,50,2|0,0:0|0:0,0:0:0:0:
141,216,115757,2,0,L|150:276,1,50,2|0,1:2|0:0,0:0:0:0:
194,325,115992,1,2,0:0:0:0:
244,179,116109,6,0,L|226:59,1,75.0000028610231,2|0,0:0|3:0,0:0:0:0:
328,138,116343,1,2,0:0:0:0:
328,138,116460,2,0,L|310:18,1,75.0000028610231,2|0,0:0|0:0,0:0:0:0:
411,240,116695,1,2,1:2:0:0:
408,258,116812,1,8,0:3:0:0:
405,277,116929,1,2,3:2:0:0:
402,295,117046,1,4,0:3:0:0:
399,314,117163,1,4,3:2:0:0:
82,341,117398,70,0,P|135:328|208:322,1,112.500004291535,2|2,0:0|0:0,0:0:0:0:
14,309,117632,1,10,1:0:0:0:
171,111,117749,2,0,P|118:124|45:130,1,112.500004291535,2|0,0:0|0:0,0:0:0:0:
61,130,117984,6,0,B|72:62|72:62|77:27|96:7|143:14|156:38|151:72|151:72|141:140,1,275.000002622604,2|2,0:0|0:0,0:0:0:0:
140,145,118277,1,2,0:0:0:0:
140,152,118335,2,0,P|174:202|220:162,1,137.500001311302,2|2,0:0|0:0,0:0:0:0:
265,99,118570,1,10,1:0:0:0:
47,219,118687,2,0,P|173:231|297:261,1,250,2|2,0:0|0:0,0:0:0:0:
442,208,119039,102,0,B|400:230|382:277|382:277|389:228|359:185,1,187.5,2|0,3:2|0:0,0:0:0:0:
383,96,119273,2,0,B|428:75|435:61|435:61|439:77|469:121,1,125,2|2,0:0|0:0,0:0:0:0:
453,330,119507,6,0,P|398:305|271:294,1,168.750006437302,10|0,1:0|0:0,0:0:0:0:
285,293,119742,1,2,0:0:0:0:
111,298,119859,102,0,B|193:323|212:254|208:252|205:249|226:181|300:209,1,225.000008583069,2|2,0:0|0:0,0:0:0:0:
0,242,120210,2,0,B|18:219|18:219|53:223,1,56.2500021457673
104,183,120328,2,0,B|131:193|131:193|138:227,1,56.2500021457673
30,316,120445,6,0,P|32:249|4:111,1,187.5,10|0,1:0|0:0,0:0:0:0:
43,60,120679,2,0,P|60:25|52:67,1,125,2|4,0:0|0:3,0:0:0:0:
189,370,120914,102,0,P|196:289|249:129,1,250,2|2,3:2|0:0,0:0:0:0:
207,62,121265,1,2,0:0:0:0:
320,188,121382,5,10,1:0:0:0:
136,219,121499,1,2,0:0:0:0:
286,277,121617,101,2,0:0:0:0:
169,255,121734,1,2,0:0:0:0:
189,370,121851,5,2,3:2:0:0:
226,192,121968,2,0,B|203:155|249:129|249:129|235:153|248:167|229:187,1,125,2|0,0:0|0:0,0:0:0:0:
207,62,122203,101,2,0:0:0:0:
320,188,122320,2,0,P|375:183|437:167,1,112.500004291535,10|0,1:0|0:0,0:0:0:0:
152,249,122554,2,0,P|97:235|41:230,1,112.500004291535,2|0,0:0|0:0,0:0:0:0:
272,357,122789,1,2,3:2:0:0:
272,357,123023,5,2,0:0:0:0:
284,279,123140,1,2,0:0:0:0:
211,310,123257,1,10,1:0:0:0:
411,323,123374,2,0,B|465:337|465:337|404:336,1,112.500004291535,2|0,0:0|0:0,0:0:0:0:
1,302,123609,86,0,B|-23:222|43:203|45:206|47:209|114:190|87:118,1,225.000008583069,14|0,3:1|0:0,0:0:0:0:
37,58,123843,1,0,0:0:0:0:
62,357,123960,6,0,P|47:244|37:50,1,300.000011444092,6|0,0:0|1:0,0:0:0:0:
233,170,124312,1,0,0:0:0:0:
241,174,124429,2,0,P|291:165|354:139,1,100,8|4,0:3|0:3,0:0:0:0:
182,46,124664,70,0,L|169:131,1,75.0000028610231,6|0,3:2|0:0,0:0:0:0:
431,79,124898,2,0,L|418:164,1,75.0000028610231,2|2,0:0|0:3,0:0:0:0:
182,46,125132,2,0,L|169:131,1,75.0000028610231,2|0,1:2|0:0,0:0:0:0:
278,255,125367,1,2,0:0:0:0:
2,138,125484,6,0,L|13:212,1,75.0000028610231,2|0,0:0|3:0,0:0:0:0:
251,105,125718,1,2,0:0:0:0:
251,105,125835,2,0,L|262:179,1,75.0000028610231,2|2,0:0|0:3,0:0:0:0:
2,138,126070,6,0,L|13:212,1,75.0000028610231,2|2,1:2|0:0,0:0:0:0:
366,216,126539,102,0,L|354:291,1,75.0000028610231,2|0,3:2|0:0,0:0:0:0:
120,190,126773,2,0,L|108:265,1,75.0000028610231,2|2,0:0|0:3,0:0:0:0:
366,216,127007,2,0,L|354:291,1,75.0000028610231,2|0,1:2|0:0,0:0:0:0:
238,237,127242,1,2,0:0:0:0:
448,242,127359,6,0,L|436:147,1,87.500000834465,2|0,0:0|3:0,0:0:0:0:
130,276,127593,1,2,0:0:0:0:
130,276,127710,2,0,L|118:181,1,87.500000834465,2|2,0:0|0:3,0:0:0:0:
270,73,127945,5,2,1:2:0:0:
268,66,128179,1,2,3:2:0:0:
35,300,128414,22,0,P|47:304|68:322,1,37.5000014305115,12|0,0:2|0:0,0:0:0:0:
162,80,128648,2,0,P|173:92|185:126,1,50,12|0,0:2|0:0,0:0:0:0:
457,97,128882,2,0,P|455:117|436:156,1,62.5,12|0,0:2|0:0,0:0:0:0:
130,276,129117,69,12,0:2:0:0:
280,367,129234,2,0,P|316:358|347:337,1,75.0000028610231,12|0,0:2|0:0,0:0:0:0:
206,15,129468,37,12,0:2:0:0:
231,189,129585,2,0,P|264:219|312:238,1,87.500000834465,12|0,0:2|0:0,0:0:0:0:
358,61,129820,70,0,P|347:85|346:116,1,50,12|0,0:2|0:0,0:0:0:0:
400,43,129937,2,0,P|377:57|359:81,1,50,2|0,0:3|0:0,0:0:0:0:
401,159,130054,2,0,P|432:138|468:129,1,75.0000028610231,12|2,0:2|0:3,0:0:0:0:
465,210,130289,69,0,3:0:0:0:
47,174,130523,1,0,3:0:0:0:
306,197,130757,6,0,L|224:189,1,75.0000028610231,8|0,1:0|0:0,0:0:0:0:
95,114,130992,1,2,3:2:0:0:
130,270,131109,6,0,P|119:228|126:176,1,87.500000834465,2|0,3:2|0:0,0:0:0:0:
388,171,131343,1,2,3:2:0:0:
388,171,131460,2,0,P|399:213|392:265,1,87.500000834465,2|0,3:2|0:0,0:0:0:0:
252,356,131695,6,0,L|262:290,1,60,4|0,3:2|0:0,0:0:0:0:
243,147,132164,22,2,B|314:133|327:37|327:37|314:134|389:162|389:162,1,300,0|0,0:0|0:0,0:1:0:0:
454,70,132632,53,0,1:0:0:0:
469,193,132749,2,0,L|462:129,2,50,8|4|0,0:3|0:3|3:0,0:0:0:0:
388,171,133101,54,2,B|310:181|297:279|297:279|316:182|242:152|242:152,1,300,0|2,0:0|0:0,0:1:0:0:
