osu file format v14

[General]
AudioFilename: audio.mp3
AudioLeadIn: 0
PreviewTime: 45914
Countdown: 0
SampleSet: Soft
StackLeniency: 0.3
Mode: 0
LetterboxInBreaks: 0
WidescreenStoryboard: 1

[Editor]
DistanceSpacing: 1
BeatDivisor: 4
GridSize: 16
TimelineZoom: 3.099999

[Metadata]
Title:The 89's Momentum
TitleUnicode:The 89's Momentum
Artist:MYUKKE.
ArtistUnicode:MYUKKE.
Creator:Mafumafu
Version:Ag's Hard
Source:
Tags:regraz __Ag AuroraE flake instrumental electronic PDC2021 PDC 2021 pending cup mapping contest osu!FA osuFA featured artist track mappers guild mapper's mappers' mpg english fa
BeatmapID:4421128
BeatmapSetID:2106075

[Difficulty]
HPDrainRate:4
CircleSize:4
OverallDifficulty:6
ApproachRate:8
SliderMultiplier:1.6
SliderTickRate:1

[Events]
//Background and Video events
0,0,"bg.png",0,0
//Break Periods
2,4864,5789
2,91148,93914
//Storyboard Layer 0 (Background)
//Storyboard Layer 1 (Fail)
//Storyboard Layer 2 (Pass)
//Storyboard Layer 3 (Foreground)
//Storyboard Layer 4 (Overlay)
//Storyboard Sound Samples

[TimingPoints]
914,468.75,4,2,1,50,1,0
2789,-100,4,2,1,55,0,0
4664,-100,4,2,1,60,0,0
6539,-100,4,2,1,65,0,0
7476,-100,4,2,81,80,0,0
7593,-100,4,2,1,65,0,0
7945,-100,4,2,8,65,0,0
8062,-100,4,2,1,65,0,0
8179,-100,4,2,8,65,0,0
8414,-90.9090909090909,4,2,16,70,0,0
8648,-90.9090909090909,4,2,1,70,0,0
10464,-90.9090909090909,4,2,1,5,0,0
10523,-90.9090909090909,4,2,1,70,0,0
10933,-90.9090909090909,4,2,1,5,0,0
10992,-90.9090909090909,4,2,1,70,0,0
11285,-90.9090909090909,4,2,1,5,0,0
11343,-90.9090909090909,4,2,1,70,0,0
13570,-90.9090909090909,4,2,4,70,0,0
13804,-90.9090909090909,4,2,5,70,0,0
13863,-90.9090909090909,4,2,5,5,0,0
14039,-90.9090909090909,4,2,5,80,0,0
14566,-90.9090909090909,4,2,5,5,0,0
14624,-90.9090909090909,4,2,5,80,0,0
14683,-90.9090909090909,4,2,5,5,0,0
14742,-90.9090909090909,4,2,5,80,0,0
14800,-90.9090909090909,4,2,5,5,0,0
15093,-90.9090909090909,4,2,5,80,0,0
15152,-90.9090909090909,4,2,5,5,0,0
15210,-90.9090909090909,4,2,5,80,0,0
15855,-90.9090909090909,4,2,5,5,0,0
15914,-100,4,2,16,70,0,0
16382,-100,4,2,16,60,0,0
19195,-100,4,2,0,60,0,0
19429,-100,4,2,19,60,0,0
19488,-100,4,2,19,5,0,0
19546,-100,4,2,0,60,0,0
19605,-100,4,2,0,5,0,0
19664,-100,4,2,16,60,0,0
19839,-100,4,2,16,5,0,0
19898,-100,4,2,2,60,0,0
20601,-100,4,2,16,60,0,0
20718,-100,4,2,2,60,0,0
20835,-100,4,2,2,60,0,0
21070,-100,4,2,3,60,0,0
21480,-100,4,2,3,5,0,0
21539,-100,4,2,1,60,0,0
21656,-100,4,2,3,60,0,0
21773,-100,4,2,1,60,0,0
23414,-100,4,2,16,60,0,0
23648,-100,4,2,16,60,0,0
23999,-100,4,2,16,60,0,0
24116,-100,4,2,1,60,0,0
26871,-100,4,2,1,5,0,0
26929,-100,4,2,1,60,0,0
27164,-100,4,2,7,60,0,0
27515,-100,4,2,7,5,0,0
27574,-100,4,2,7,5,0,0
27632,-100,4,2,8,60,0,0
28042,-100,4,2,8,5,0,0
28101,-100,4,2,8,60,0,0
28511,-100,4,2,8,5,0,0
28570,-100,4,2,77,80,0,0
28746,-100,4,2,77,5,0,0
28804,-100,4,2,77,60,0,0
29039,-100,4,2,1,60,0,0
30855,-100,4,2,1,5,0,0
30914,-100,4,2,90,70,0,0
31148,-100,4,2,90,70,0,0
31265,-100,4,2,90,70,0,0
31499,-100,4,2,1,70,0,0
31851,-100,4,2,91,70,0,0
31968,-100,4,2,1,70,0,0
32027,-100,4,2,1,5,0,0
32085,-100,4,2,1,70,0,0
32144,-100,4,2,1,5,0,0
32203,-100,4,2,1,70,0,0
32261,-100,4,2,1,5,0,0
32320,-100,4,2,1,70,0,0
32964,-100,4,2,1,5,0,0
33023,-100,4,2,1,70,0,0
33433,-100,4,2,1,5,0,0
33492,-100,4,2,1,70,0,0
33785,-100,4,2,1,5,0,0
33843,-100,4,2,1,70,0,0
34664,-100,4,2,92,70,0,0
34898,-100,4,2,1,70,0,0
35015,-100,4,2,92,70,0,0
35132,-100,4,2,1,70,0,0
35601,-100,4,2,93,70,0,0
35718,-100,4,2,1,70,0,0
35835,-100,4,2,93,70,0,0
36070,-100,4,2,94,70,0,0
36304,-100,4,2,1,70,0,0
36539,-100,4,2,95,70,0,0
36656,-100,4,2,95,70,0,0
36890,-100,4,2,95,70,0,0
37007,-100,4,2,1,70,0,0
37535,-100,4,2,1,5,0,0
37593,-100,4,2,1,70,0,0
38414,-100,4,2,62,80,0,0
38589,-100,4,2,62,5,0,0
38648,-100,4,2,62,80,0,0
38882,-100,4,2,1,70,0,0
40289,-100,4,2,65,80,0,0
40406,-100,4,2,65,5,0,0
40464,-100,4,2,65,5,0,0
40523,-100,4,2,64,80,0,0
40640,-100,4,2,1,70,0,0
41871,-100,4,2,1,5,0,0
41929,-100,4,2,1,70,0,0
45914,-125,4,2,0,75,0,0
53414,-111.111111111111,4,2,0,75,0,0
58746,-111.111111111111,4,2,0,5,0,0
58804,-111.111111111111,4,2,0,75,0,0
59273,-111.111111111111,4,2,52,75,0,0
59507,-111.111111111111,4,2,53,75,0,0
59859,-111.111111111111,4,2,54,75,0,0
59976,-111.111111111111,4,2,55,75,0,0
60328,-111.111111111111,4,2,1,75,0,0
60445,-200,4,2,63,75,0,0
60855,-333.333333333333,4,2,63,5,0,0
60914,-90.9090909090909,4,2,17,80,0,0
61148,-90.9090909090909,4,2,1,80,0,0
62144,-90.9090909090909,4,2,1,5,0,0
62203,-90.9090909090909,4,2,1,80,0,0
62261,-90.9090909090909,4,2,1,5,0,0
62320,-90.9090909090909,4,2,1,80,0,0
65601,-90.9090909090909,4,2,40,80,0,0
65718,-90.9090909090909,4,2,1,80,0,0
68414,-90.9090909090909,4,2,16,80,0,0
68648,-90.9090909090909,4,2,1,80,0,0
69644,-90.9090909090909,4,2,1,5,0,0
69703,-90.9090909090909,4,2,1,80,0,0
69761,-90.9090909090909,4,2,1,5,0,0
69820,-90.9090909090909,4,2,1,80,0,0
71285,-90.9090909090909,4,2,1,5,0,0
71343,-90.9090909090909,4,2,1,80,0,0
71402,-90.9090909090909,4,2,1,5,0,0
71460,-90.9090909090909,4,2,1,80,0,0
71519,-90.9090909090909,4,2,1,5,0,0
71578,-90.9090909090909,4,2,1,80,0,0
72164,-90.9090909090909,4,2,83,80,0,0
72339,-90.9090909090909,4,2,83,5,0,0
72398,-90.9090909090909,4,2,1,80,0,0
73570,-90.9090909090909,4,2,21,80,0,0
73746,-90.9090909090909,4,2,21,5,0,0
73804,-90.9090909090909,4,2,1,80,0,0
73980,-90.9090909090909,4,2,1,5,0,0
74039,-90.9090909090909,4,2,19,80,0,0
74097,-90.9090909090909,4,2,19,5,0,0
74156,-90.9090909090909,4,2,19,80,0,0
74214,-90.9090909090909,4,2,19,5,0,0
74273,-90.9090909090909,4,2,19,80,0,0
74449,-90.9090909090909,4,2,19,5,0,0
74507,-90.9090909090909,4,2,1,80,0,0
74624,-90.9090909090909,4,2,54,80,0,0
74976,-90.9090909090909,4,2,96,80,0,0
75445,-90.9090909090909,4,2,16,80,0,0
75855,-90.9090909090909,4,2,16,5,0,0
75914,-90.9090909090909,4,2,9,90,0,0
76089,-90.9090909090909,4,2,9,5,0,0
76148,-90.9090909090909,4,2,10,90,0,0
76206,-90.9090909090909,4,2,10,5,0,0
76265,-90.9090909090909,4,2,10,90,0,0
76323,-90.9090909090909,4,2,10,5,0,0
76382,-90.9090909090909,4,2,10,90,0,0
76440,-90.9090909090909,4,2,10,5,0,0
76499,-90.9090909090909,4,2,10,90,0,0
76557,-90.9090909090909,4,2,10,5,0,0
76617,-90.9090909090909,4,2,10,90,0,0
76675,-90.9090909090909,4,2,10,5,0,0
76734,-90.9090909090909,4,2,10,90,0,0
76792,-90.9090909090909,4,2,10,5,0,0
76851,-90.9090909090909,4,2,10,90,0,0
76909,-90.9090909090909,4,2,10,5,0,0
76968,-90.9090909090909,4,2,10,90,0,0
77026,-90.9090909090909,4,2,10,5,0,0
77085,-90.9090909090909,4,2,10,90,0,0
77261,-90.9090909090909,4,2,10,5,0,0
77320,-90.9090909090909,4,2,10,90,0,0
77496,-90.9090909090909,4,2,10,5,0,0
77554,-90.9090909090909,4,2,10,90,0,0
77964,-90.9090909090909,4,2,10,5,0,0
78023,-90.9090909090909,4,2,10,90,0,0
78081,-90.9090909090909,4,2,10,5,0,0
78140,-90.9090909090909,4,2,10,90,0,0
78198,-90.9090909090909,4,2,10,5,0,0
78257,-90.9090909090909,4,2,10,90,0,0
78315,-90.9090909090909,4,2,10,5,0,0
78374,-90.9090909090909,4,2,10,90,0,0
78432,-90.9090909090909,4,2,10,5,0,0
78492,-90.9090909090909,4,2,10,90,0,0
78550,-90.9090909090909,4,2,10,5,0,0
78609,-90.9090909090909,4,2,10,90,0,0
78667,-90.9090909090909,4,2,10,5,0,0
78726,-90.9090909090909,4,2,10,90,0,0
78784,-90.9090909090909,4,2,10,5,0,0
78843,-90.9090909090909,4,2,10,90,0,0
78901,-90.9090909090909,4,2,10,5,0,0
78960,-90.9090909090909,4,2,10,90,0,0
79136,-90.9090909090909,4,2,10,5,0,0
79195,-90.9090909090909,4,2,11,90,0,0
79664,-90.9090909090909,4,2,10,90,0,0
79839,-90.9090909090909,4,2,10,5,0,0
79898,-90.9090909090909,4,2,10,90,0,0
79956,-90.9090909090909,4,2,10,5,0,0
80015,-90.9090909090909,4,2,10,90,0,0
80073,-90.9090909090909,4,2,10,5,0,0
80132,-90.9090909090909,4,2,10,90,0,0
80190,-90.9090909090909,4,2,10,5,0,0
80249,-90.9090909090909,4,2,10,90,0,0
80307,-90.9090909090909,4,2,10,5,0,0
80367,-90.9090909090909,4,2,10,90,0,0
80425,-90.9090909090909,4,2,10,5,0,0
80484,-90.9090909090909,4,2,10,90,0,0
80542,-90.9090909090909,4,2,10,5,0,0
80601,-90.9090909090909,4,2,10,90,0,0
80659,-90.9090909090909,4,2,10,5,0,0
80718,-90.9090909090909,4,2,10,90,0,0
80776,-90.9090909090909,4,2,10,5,0,0
80835,-90.9090909090909,4,2,10,90,0,0
81011,-90.9090909090909,4,2,10,5,0,0
81070,-90.9090909090909,4,2,10,90,0,0
81246,-90.9090909090909,4,2,10,5,0,0
81304,-90.9090909090909,4,2,10,90,0,0
81714,-90.9090909090909,4,2,10,5,0,0
81773,-90.9090909090909,4,2,10,90,0,0
81831,-90.9090909090909,4,2,10,5,0,0
81890,-90.9090909090909,4,2,10,90,0,0
81948,-90.9090909090909,4,2,10,5,0,0
82007,-90.9090909090909,4,2,10,90,0,0
82065,-90.9090909090909,4,2,10,5,0,0
82124,-90.9090909090909,4,2,10,90,0,0
82182,-90.9090909090909,4,2,10,5,0,0
82242,-90.9090909090909,4,2,10,90,0,0
82300,-90.9090909090909,4,2,10,5,0,0
82359,-90.9090909090909,4,2,10,90,0,0
82417,-90.9090909090909,4,2,10,5,0,0
82476,-90.9090909090909,4,2,10,90,0,0
82710,-90.9090909090909,4,2,12,90,0,0
82945,-90.9090909090909,4,2,13,90,0,0
83414,-90.9090909090909,4,2,10,90,0,0
83589,-90.9090909090909,4,2,10,5,0,0
83648,-90.9090909090909,4,2,10,90,0,0
83706,-90.9090909090909,4,2,10,5,0,0
83765,-90.9090909090909,4,2,10,90,0,0
83823,-90.9090909090909,4,2,10,5,0,0
83882,-90.9090909090909,4,2,10,90,0,0
83940,-90.9090909090909,4,2,10,5,0,0
83999,-90.9090909090909,4,2,10,90,0,0
84057,-90.9090909090909,4,2,10,5,0,0
84117,-90.9090909090909,4,2,10,90,0,0
84175,-90.9090909090909,4,2,10,5,0,0
84234,-90.9090909090909,4,2,10,90,0,0
84292,-90.9090909090909,4,2,10,5,0,0
84351,-90.9090909090909,4,2,10,90,0,0
84409,-90.9090909090909,4,2,10,5,0,0
84468,-90.9090909090909,4,2,10,90,0,0
84526,-90.9090909090909,4,2,10,5,0,0
84585,-90.9090909090909,4,2,10,90,0,0
84761,-90.9090909090909,4,2,10,5,0,0
84820,-90.9090909090909,4,2,10,90,0,0
84996,-90.9090909090909,4,2,10,5,0,0
85054,-90.9090909090909,4,2,10,90,0,0
85464,-90.9090909090909,4,2,10,5,0,0
85523,-90.9090909090909,4,2,10,90,0,0
85581,-90.9090909090909,4,2,10,5,0,0
85640,-90.9090909090909,4,2,10,90,0,0
85698,-90.9090909090909,4,2,10,5,0,0
85757,-90.9090909090909,4,2,10,90,0,0
85815,-90.9090909090909,4,2,10,5,0,0
85874,-90.9090909090909,4,2,10,90,0,0
85932,-90.9090909090909,4,2,10,5,0,0
85992,-90.9090909090909,4,2,10,90,0,0
86050,-90.9090909090909,4,2,10,5,0,0
86109,-90.9090909090909,4,2,10,90,0,0
86167,-90.9090909090909,4,2,10,5,0,0
86226,-90.9090909090909,4,2,10,90,0,0
86284,-90.9090909090909,4,2,10,5,0,0
86343,-90.9090909090909,4,2,10,90,0,0
86401,-90.9090909090909,4,2,10,5,0,0
86460,-90.9090909090909,4,2,10,90,0,0
86636,-90.9090909090909,4,2,10,5,0,0
86695,-90.9090909090909,4,2,11,90,0,0
87164,-90.9090909090909,4,2,14,90,0,0
87339,-90.9090909090909,4,2,14,5,0,0
87398,-90.9090909090909,4,2,14,90,0,0
87456,-90.9090909090909,4,2,14,5,0,0
87515,-90.9090909090909,4,2,14,90,0,0
87573,-90.9090909090909,4,2,14,5,0,0
87632,-90.9090909090909,4,2,14,90,0,0
87690,-90.9090909090909,4,2,14,5,0,0
87749,-90.9090909090909,4,2,14,90,0,0
87807,-90.9090909090909,4,2,14,5,0,0
87867,-90.9090909090909,4,2,14,90,0,0
87925,-90.9090909090909,4,2,14,5,0,0
87984,-90.9090909090909,4,2,14,90,0,0
88042,-90.9090909090909,4,2,14,5,0,0
88101,-90.9090909090909,4,2,14,90,0,0
88159,-90.9090909090909,4,2,14,5,0,0
88218,-90.9090909090909,4,2,14,90,0,0
88276,-90.9090909090909,4,2,14,5,0,0
88335,-90.9090909090909,4,2,14,90,0,0
88511,-90.9090909090909,4,2,14,5,0,0
88570,-90.9090909090909,4,2,14,90,0,0
88746,-90.9090909090909,4,2,14,5,0,0
88804,-90.9090909090909,4,2,15,90,0,0
89214,-90.9090909090909,4,2,15,5,0,0
89273,-90.9090909090909,4,2,15,90,0,0
89331,-90.9090909090909,4,2,15,5,0,0
89390,-90.9090909090909,4,2,15,90,0,0
89448,-90.9090909090909,4,2,15,5,0,0
89507,-90.9090909090909,4,2,15,90,0,0
89565,-90.9090909090909,4,2,15,5,0,0
89624,-90.9090909090909,4,2,15,90,0,0
89682,-90.9090909090909,4,2,15,5,0,0
89742,-90.9090909090909,4,2,15,90,0,0
89800,-90.9090909090909,4,2,15,5,0,0
89859,-90.9090909090909,4,2,15,90,0,0
89917,-90.9090909090909,4,2,15,5,0,0
89976,-90.9090909090909,4,2,15,90,0,0
90034,-90.9090909090909,4,2,15,5,0,0
90093,-90.9090909090909,4,2,15,90,0,0
90151,-90.9090909090909,4,2,15,5,0,0
90210,-90.9090909090909,4,2,12,90,0,0
90445,-200,4,2,16,90,0,0
90855,-200,4,2,16,5,0,0
90914,-100,4,2,1,60,0,0
98414,-100,4,2,17,70,0,0
104039,-100,4,2,17,60,0,0
105210,-100,4,2,82,60,0,0
105562,-100,4,2,82,60,0,0
105914,-111.111111111111,4,2,0,55,0,0
106617,-111.111111111111,4,2,0,60,0,0
107085,-111.111111111111,4,2,0,65,0,0
107789,-111.111111111111,4,2,0,70,0,0
108960,-111.111111111111,4,2,19,60,0,0
109077,-111.111111111111,4,2,0,60,0,0
109195,-111.111111111111,4,2,17,80,0,0
109664,-100,4,2,16,60,0,0
109898,-100,4,2,16,60,0,0
110249,-100,4,2,16,60,0,0
110484,-100,4,2,1,60,0,0
113648,-100,4,2,50,60,0,0
114351,-100,4,2,1,60,0,0
114468,-100,4,2,50,60,0,0
114585,-100,4,2,50,60,0,0
114820,-100,4,2,51,60,0,0
114937,-100,4,2,51,60,0,0
114996,-100,4,2,1,5,0,0
115054,-100,4,2,50,60,0,0
115289,-100,4,2,1,70,0,0
117164,-100,4,2,16,80,0,0
117398,-100,4,2,1,80,0,0
123609,-100,4,2,69,80,0,0
123960,-100,4,1,49,80,0,0
124195,-100,4,2,1,80,0,0
124664,-100,4,2,1,70,0,0
131695,-100,4,2,16,70,0,0
132105,-100,4,2,16,5,0,0
132164,-100,4,2,1,60,0,0
133101,-100,4,2,1,50,0,0
133453,-100,4,2,97,80,0,0

[Colours]
Combo1 : 188,185,206
Combo2 : 135,89,166
Combo3 : 162,32,223
Combo4 : 236,149,2
Combo5 : 235,200,1
Combo6 : 20,194,60
Combo7 : 133,217,30
Combo8 : 120,111,153

[HitObjects]
172,312,914,5,6,3:2:0:0:
119,372,1148,1,2,0:0:0:0:
91,296,1382,2,0,L|2:289,1,80,2|2,0:0|0:0,0:0:0:0:
7,261,1734,1,2,0:0:0:0:
67,208,1968,1,2,0:0:0:0:
67,208,2085,1,2,0:0:0:0:
129,157,2320,2,0,L|153:254,1,80,2|2,0:0|0:0,0:0:0:0:
227,249,2789,5,2,0:0:0:0:
283,192,3023,1,2,0:0:0:0:
268,113,3257,2,0,L|176:103,1,80,2|2,0:0|0:0,0:0:0:0:
156,80,3609,1,2,0:0:0:0:
129,157,3843,1,2,0:0:0:0:
129,157,3960,1,2,0:0:0:0:
55,124,4195,5,2,0:0:0:0:
97,224,4429,5,2,3:2:0:0:
198,187,4664,5,6,3:2:0:0:
406,272,6539,5,8,0:3:0:0:
406,272,6656,1,8,0:3:0:0:
406,272,6773,2,0,L|421:229,3,40,4|6|0|2,0:3|0:3|3:0|0:3,0:0:0:0:
345,203,7359,2,0,P|306:193|254:217,1,80,0|2,3:0|0:3,0:0:0:0:
237,228,7710,1,2,0:3:0:0:
176,283,7945,1,8,0:3:0:0:
156,204,8179,1,4,0:3:0:0:
109,318,8414,6,0,B|67:283|67:283|69:225|69:225|17:178,1,176.000005371094,4|2,0:0|1:2,0:0:0:0:
52,101,9117,1,0,0:0:0:0:
52,101,9234,1,2,0:1:0:0:
52,101,9351,2,0,L|149:88,1,88.000002685547,2|2,3:2|0:0,0:0:0:0:
189,159,9820,2,0,L|153:254,1,88.000002685547,2|2,1:2|0:3,0:0:0:0:
207,314,10289,5,2,3:2:0:0:
251,237,10523,2,0,P|287:224|348:259,1,88.000002685547,2|2,0:0|1:2,0:0:0:0:
395,308,10992,1,2,0:0:0:0:
395,308,11109,1,2,0:0:0:0:
422,227,11343,1,2,0:0:0:0:
422,227,11460,1,2,0:0:0:0:
449,143,11695,2,0,P|405:132|374:89,1,88.000002685547,2|2,1:2|0:0,0:0:0:0:
332,24,12164,5,8,0:0:0:0:
293,102,12398,1,8,0:0:0:0:
241,30,12632,1,8,0:0:0:0:
205,112,12867,1,8,0:0:0:0:
205,112,12984,1,8,0:0:0:0:
166,192,13218,1,8,0:0:0:0:
166,192,13335,1,8,0:0:0:0:
109,124,13570,2,0,L|71:82,2,44.0000013427735,10|0|2,0:0|0:0|0:0,0:0:0:0:
166,192,14039,6,0,L|231:269,1,88.000002685547,4|0,3:2|3:0,0:0:0:0:
264,347,14507,1,0,1:0:0:0:
264,347,14624,1,0,0:0:0:0:
264,347,14742,2,0,P|296:270|338:316,1,176.000005371094,0|0,3:0|3:0,0:0:0:0:
344,328,15328,1,0,3:0:0:0:
350,342,15445,2,0,B|346:293|346:293|370:256|370:256|360:153,1,176.000005371094,0|4,1:0|3:2,0:0:0:0:
283,155,16148,6,0,B|226:178|226:178|170:158,1,120,0|2,0:0|0:3,0:0:0:0:
163,170,16617,2,0,L|120:153,1,40,2|2,0:3|0:3,0:0:0:0:
68,66,16968,2,0,L|111:83,1,40,2|2,0:3|0:3,0:0:0:0:
54,143,17320,2,0,B|46:164|46:164|49:193|49:193|30:226,1,80,2|2,1:3|0:3,0:0:0:0:
69,300,17789,5,0,3:0:0:0:
69,300,17906,1,2,0:3:0:0:
69,300,18023,2,0,B|108:286|108:286|126:254|126:254|169:241,1,120,2|2,0:3|0:3,0:0:0:0:
183,246,18492,2,0,L|223:275,1,40,2|2,0:3|0:3,0:0:0:0:
290,329,18843,1,2,0:3:0:0:
290,329,18960,1,2,0:3:0:0:
345,259,19195,1,2,1:2:0:0:
406,323,19429,2,0,L|421:284,1,40,2|2,0:0|0:0,0:0:0:0:
424,266,19664,6,0,L|406:182,1,80,0|6,3:0|0:0,0:0:0:0:
416,24,20249,2,0,L|392:71,1,40,2|6,0:0|0:0,0:0:0:0:
380,64,20484,2,0,P|325:72|303:118,1,80,8|0,0:3|0:0,0:0:0:0:
289,106,20835,1,6,0:0:0:0:
209,66,21070,2,0,P|169:70|129:35,1,80,6|0,1:2|0:0,0:0:0:0:
118,140,21539,5,2,3:2:0:0:
118,140,21656,1,0,1:2:0:0:
118,140,21773,2,0,L|93:268,1,120,2|0,0:2|0:0,0:0:0:0:
109,264,22242,2,0,L|97:311,1,40,2|2,0:2|0:0,0:0:0:0:
169,348,22593,1,0,0:0:0:0:
169,348,22710,1,2,0:2:0:0:
245,373,22945,1,2,1:2:0:0:
254,267,23179,2,0,L|296:280,1,40,2|4,0:2|0:3,0:0:0:0:
316,284,23414,6,0,L|405:264,1,80,4|0,0:0|0:0,0:0:0:0:
500,119,23999,2,0,L|480:180,1,40,2|2,0:3|0:3,0:0:0:0:
481,171,24234,2,0,B|432:153|406:200,1,80,2|2,0:3|0:3,0:0:0:0:
393,193,24585,1,2,0:3:0:0:
308,204,24820,2,0,P|310:164|343:128,1,80,2|2,1:2|0:2,0:0:0:0:
372,63,25289,5,0,3:0:0:0:
372,63,25406,1,2,0:3:0:0:
372,63,25523,2,0,B|334:55|334:55|297:68|297:68|247:54,1,120,2|2,0:3|0:3,0:0:0:0:
241,50,25992,2,0,L|190:36,1,40,2|2,0:3|0:3,0:0:0:0:
129,71,26343,1,2,0:3:0:0:
129,71,26460,1,2,0:3:0:0:
71,15,26695,1,2,1:1:0:0:
18,75,26929,1,2,0:1:0:0:
76,132,27164,6,0,B|81:164|81:164|70:200|70:200|83:243,1,80,2|0,3:2|0:0,0:0:0:0:
64,289,27632,2,0,L|18:315,2,40,2|2|2,1:2|0:2|0:2,0:0:0:0:
153,292,28101,1,2,3:2:0:0:
153,292,28218,1,2,0:0:0:0:
153,292,28335,1,2,0:0:0:0:
195,360,28570,1,2,1:2:0:0:
234,290,28804,2,0,L|276:270,1,40,8|4,0:3|0:3,0:0:0:0:
280,259,29039,6,0,L|371:270,1,80,2|2,3:2|0:0,0:0:0:0:
438,279,29507,1,2,1:2:0:0:
457,203,29742,1,2,0:0:0:0:
457,203,29859,1,2,0:0:0:0:
472,127,30093,1,2,0:0:0:0:
472,127,30210,1,2,0:0:0:0:
393,142,30445,2,0,L|306:190,1,80,6|0,0:0|0:0,0:0:0:0:
248,149,30914,6,0,B|235:48,1,80,6|0,3:2|0:0,0:0:0:0:
228,61,31265,1,2,0:3:0:0:
219,52,31382,2,0,L|214:11,1,40,0|2,1:0|0:0,0:0:0:0:
137,35,31734,1,2,0:0:0:0:
79,90,31968,1,2,0:0:0:0:
79,90,32085,2,0,P|55:52|67:-2,1,80,2|0,0:0|1:0,0:0:0:0:
137,35,32554,1,0,0:0:0:0:
160,111,32789,5,2,3:2:0:0:
160,111,32906,2,0,P|138:152|87:175,1,80,0|2,0:0|0:3,0:0:0:0:
98,174,33257,2,0,P|74:177|48:170,1,40,2|0,1:2|0:0,0:0:0:0:
26,247,33609,1,2,0:0:0:0:
108,263,33843,1,2,0:0:0:0:
108,263,33960,2,0,L|86:355,1,80,2|2,0:0|1:2,0:0:0:0:
99,348,34312,2,0,L|88:393,1,40,0|2,0:0|0:0,0:0:0:0:
173,383,34664,5,2,3:2:0:0:
173,383,34781,2,0,P|188:355|247:355,1,80,0|2,0:0|0:3,0:0:0:0:
240,341,35132,2,0,P|258:348|275:367,1,40,2|2,1:2|0:0,0:0:0:0:
352,368,35484,1,2,0:0:0:0:
369,289,35718,1,2,0:0:0:0:
369,289,35835,1,0,0:0:0:0:
418,225,36070,2,0,P|379:206|334:211,1,80,2|2,1:2|0:0,0:0:0:0:
270,241,36539,5,2,3:2:0:0:
270,241,36656,2,0,L|243:131,1,80,0|2,0:0|0:3,0:0:0:0:
240,161,37007,2,0,L|228:117,1,40,0|2,1:0|0:0,0:0:0:0:
172,66,37359,1,2,0:0:0:0:
249,46,37593,1,2,0:0:0:0:
249,46,37710,1,2,0:0:0:0:
325,21,37945,2,0,P|356:53|411:54,1,80,2|2,1:2|0:0,0:0:0:0:
465,102,38414,6,0,P|446:112|435:131,1,40,6|0,3:1|0:0,0:0:0:0:
432,144,38648,2,0,B|369:139|369:139|353:157,1,80,2|0,0:1|1:0,0:0:0:0:
303,210,39117,1,2,0:0:0:0:
388,234,39351,1,0,3:0:0:0:
388,234,39468,1,2,0:0:0:0:
388,234,39585,2,0,L|431:323,1,80,2|2,0:0|1:2,0:0:0:0:
414,320,39937,2,0,L|434:355,1,40,2|2,0:0|0:3,0:0:0:0:
355,369,40289,5,4,3:2:0:0:
312,300,40523,2,0,P|272:289|226:315,1,80,6|0,0:2|1:0,0:0:0:0:
170,259,40992,1,2,0:0:0:0:
178,347,41226,1,0,3:0:0:0:
178,347,41343,1,2,0:0:0:0:
178,347,41460,1,2,0:0:0:0:
99,307,41695,2,0,P|52:320|9:304,1,80,2|2,1:2|0:0,0:0:0:0:
54,238,42164,6,0,L|48:189,2,40,14|0|0,0:3|0:0|0:0,0:0:0:0:
132,222,42632,1,2,0:3:0:0:
132,222,42749,2,0,L|125:169,1,40
122,142,42984,2,0,P|165:160|225:117,1,120,2|0,0:3|0:0,0:0:0:0:
232,43,43570,1,2,0:3:0:0:
310,25,43804,1,0,0:0:0:0:
350,94,44039,6,0,P|369:92|399:75,2,40,14|0|0,0:3|0:0|0:0,0:0:0:0:
314,112,44390,1,0,0:0:0:0:
314,112,44507,2,0,B|338:169|257:189|325:249,1,120,2|2,0:3|0:3,0:0:0:0:
369,327,45210,2,0,P|325:321|292:359,1,80,2|0,0:0|1:0,0:0:0:0:
226,380,45679,1,4,0:3:0:0:
212,283,45914,5,6,0:0:0:0:
147,325,46148,1,2,0:0:0:0:
88,275,46382,1,10,0:0:0:0:
117,203,46617,1,2,0:0:0:0:
194,209,46851,2,0,B|185:165|185:165|159:138|159:138|150:75,1,128,2|10,0:0|0:0,0:0:0:0:
233,96,47554,2,0,P|236:69|276:115,1,128,2|2,0:0|0:0,0:0:0:0:
261,173,48257,5,10,0:0:0:0:
194,209,48492,1,2,0:0:0:0:
259,249,48726,1,2,0:0:0:0:
324,288,48960,1,2,0:0:0:0:
256,324,49195,1,10,0:0:0:0:
456,212,49664,5,2,0:0:0:0:
507,268,49898,1,2,0:0:0:0:
469,335,50132,1,10,0:0:0:0:
394,319,50367,1,2,0:0:0:0:
385,242,50601,2,0,B|341:244|329:208|329:208|314:246|266:252,1,128,2|10,0:0|0:0,0:0:0:0:
216,187,51304,2,0,P|213:147|257:183,1,128,2|2,0:0|0:0,0:0:0:0:
214,264,52007,6,0,P|207:296|160:315,1,64,10|2,0:0|0:0,0:0:0:0:
138,251,52476,2,0,L|64:250,1,64,2|2,0:0|0:0,0:0:0:0:
29,187,52945,1,8,0:3:0:0:
29,187,53062,1,8,0:3:0:0:
29,187,53179,1,4,0:3:0:0:
98,135,53414,6,0,L|66:57,1,71.9999978027344,2|2,0:0|0:3,0:0:0:0:
134,10,53882,2,0,L|166:88,1,71.9999978027344,8|2,0:0|0:3,0:0:0:0:
196,155,54351,1,2,0:0:0:0:
249,87,54585,1,2,0:3:0:0:
294,160,54820,1,8,0:0:0:0:
347,92,55054,6,0,B|372:139|372:139|368:187|368:187|403:242,1,143.999995605469,2|2,0:0|0:3,0:0:0:0:
442,292,55757,1,10,0:0:0:0:
362,326,55992,1,2,0:1:0:0:
362,326,56109,1,0,0:0:0:0:
362,326,56226,2,0,L|274:308,1,71.9999978027344,2|2,0:0|0:3,0:0:0:0:
289,224,56695,2,0,L|201:206,1,71.9999978027344,8|2,0:0|0:0,0:0:0:0:
189,291,57164,6,0,B|131:333|131:333|69:291,1,143.999995605469,2|10,0:0|0:0,0:0:0:0:
1,240,57867,1,2,0:0:0:0:
48,167,58101,1,2,0:0:0:0:
125,224,58335,1,2,0:0:0:0:
125,224,58453,1,2,0:0:0:0:
125,224,58570,1,10,1:1:0:0:
141,139,58804,6,0,P|136:98|219:89,1,143.999995605469,6|6,0:2|0:0,0:0:0:0:
263,160,59507,1,6,0:0:0:0:
349,156,59742,1,2,0:0:0:0:
377,74,59976,2,0,P|390:65|416:63,3,35.9999989013672,6|8|4|0,1:2|0:3|0:3|3:0,0:0:0:0:
432,70,60445,6,0,P|456:108|477:111,1,60,10|0,3:2|0:0,0:0:0:0:
483,114,60914,6,0,B|512:198|389:208|445:295,1,176.000005371094,6|8,1:2|0:0,0:0:0:0:
475,350,61617,1,2,0:0:0:0:
459,352,61734,1,2,0:3:0:0:
444,349,61851,1,0,3:0:0:0:
365,309,62085,1,2,0:1:0:0:
293,360,62320,1,10,0:0:0:0:
283,237,62554,6,0,P|274:282|192:251,1,132.00000402832,6|0,1:2|0:0,0:0:0:0:
176,241,63023,1,2,0:0:0:0:
90,220,63257,1,10,0:0:0:0:
61,303,63492,1,2,0:0:0:0:
8,198,63726,1,2,3:2:0:0:
8,198,63843,1,2,0:0:0:0:
124,140,64078,1,2,0:0:0:0:
124,140,64195,2,0,B|160:160|160:160|225:147,1,88.000002685547,8|10,0:0|0:3,0:0:0:0:
307,36,64664,6,0,B|221:-1|221:-1|171:71,1,176.000005371094,2|10,3:2|0:0,0:0:0:0:
205,150,65367,1,2,0:0:0:0:
219,166,65484,1,2,0:3:0:0:
217,185,65601,1,2,3:2:0:0:
169,266,65835,1,2,0:0:0:0:
263,275,66070,2,0,P|293:247|349:258,1,88.000002685547,8|0,0:0|0:0,0:0:0:0:
407,315,66539,5,0,3:0:0:0:
472,237,66773,2,0,L|457:193,1,44.0000013427735,2|2,0:0|0:0,0:0:0:0:
444,194,67007,2,0,L|421:110,1,88.000002685547,8|2,0:0|0:0,0:0:0:0:
415,90,67359,1,2,0:0:0:0:
409,71,67476,2,0,P|366:94|287:67,1,132.00000402832,2|2,3:1|0:0,0:0:0:0:
258,35,67945,2,0,B|275:80|226:124,1,88.000002685547,12|8,0:0|0:3,0:0:0:0:
130,228,68414,6,0,B|164:203|165:150|165:150|192:200|258:191,1,176.000005371094,4|8,3:2|0:0,0:0:0:0:
331,176,69117,1,2,0:0:0:0:
339,191,69234,1,2,0:3:0:0:
337,208,69351,1,0,3:0:0:0:
255,335,69585,1,2,0:1:0:0:
332,284,69820,1,10,0:0:0:0:
391,357,70054,2,0,P|439:366|477:342,1,88.000002685547,6|0,1:2|0:0,0:0:0:0:
504,231,70523,5,2,0:0:0:0:
504,231,70640,1,2,0:3:0:0:
402,194,70874,2,0,L|413:249,2,44.0000013427735,2|2|2,0:0|0:0|0:0,0:0:0:0:
398,155,71225,1,2,3:1:0:0:
417,158,71342,1,2,0:0:0:0:
436,153,71460,1,2,0:0:0:0:
452,142,71578,2,0,P|485:103|485:51,1,88.000002685547,2|2,0:0|0:0,0:0:0:0:
483,35,71929,1,8,0:3:0:0:
370,64,72164,6,0,B|324:55|324:55|265:79|265:79|193:61,1,176.000005371094,2|10,3:2|0:0,0:0:0:0:
73,78,72867,1,2,0:0:0:0:
88,68,72984,1,2,0:0:0:0:
106,69,73101,1,2,3:2:0:0:
145,162,73335,2,0,L|121:257,1,88.000002685547,2|2,0:0|1:2,0:0:0:0:
93,337,73804,1,6,3:2:0:0:
221,360,74039,5,2,1:2:0:0:
221,360,74156,1,0,1:0:0:0:
221,360,74273,2,0,L|197:265,1,88.000002685547,4|12,3:2|0:0,0:0:0:0:
254,190,74742,1,4,0:0:0:0:
254,190,74859,1,4,0:0:0:0:
254,190,74976,2,0,P|305:149|351:217,1,132.00000402832,2|8,0:0|0:3,0:0:0:0:
355,202,75445,2,0,B|352:161|352:161|383:115|383:115|383:67,1,132.00000402832,4|0,0:0|0:0,0:0:0:0:
357,65,75914,5,6,3:2:0:0:
476,83,76148,1,2,1:2:0:0:
476,83,76265,1,2,0:0:0:0:
442,185,76499,1,2,0:0:0:0:
443,197,76616,1,2,1:2:0:0:
445,210,76733,1,2,0:0:0:0:
448,223,76851,2,0,L|456:277,1,44.0000013427735,2|2,3:2|0:0,0:0:0:0:
470,308,77085,2,0,B|446:303|446:303|410:314|410:314|377:303,1,88.000002685547,2|10,1:2|0:0,0:0:0:0:
320,239,77554,1,2,1:2:0:0:
245,338,77789,5,0,3:0:0:0:
243,328,77906,1,2,0:0:0:0:
241,318,78023,1,2,1:2:0:0:
239,308,78140,1,2,0:0:0:0:
238,298,78257,2,0,L|231:252,3,44.0000013427735,10|2|2|2,0:0|0:0|1:2|0:0,0:0:0:0:
226,230,78726,2,0,P|181:254|139:238,1,88.000002685547,2|2,3:2|1:2,0:0:0:0:
174,150,79195,2,0,P|178:100|214:71,1,88.000002685547,10|0,0:0|1:0,0:0:0:0:
317,209,79664,5,2,3:2:0:0:
257,142,79898,1,2,1:2:0:0:
257,142,80015,1,2,0:0:0:0:
379,104,80249,1,2,0:0:0:0:
380,116,80366,1,2,1:2:0:0:
381,129,80483,1,2,0:0:0:0:
384,142,80601,2,0,L|391:192,1,44.0000013427735,2|2,3:2|0:0,0:0:0:0:
407,202,80835,2,0,B|383:263|383:263|392:300,1,88.000002685547,2|10,1:2|0:0,0:0:0:0:
443,365,81304,1,2,1:2:0:0:
325,343,81539,5,0,3:0:0:0:
315,346,81656,1,2,0:0:0:0:
305,349,81773,1,2,1:2:0:0:
296,353,81890,1,2,0:0:0:0:
287,358,82007,2,0,L|240:349,3,44.0000013427735,10|2|2|2,0:0|0:0|1:2|0:0,0:0:0:0:
205,372,82476,2,0,L|189:272,2,88.000002685547,2|2|10,3:2|1:2|0:0,0:0:0:0:
111,349,83179,1,0,1:0:0:0:
247,233,83414,5,2,3:2:0:0:
132,225,83648,1,2,1:2:0:0:
132,225,83765,1,2,0:0:0:0:
206,133,83999,1,2,0:0:0:0:
208,117,84117,1,2,1:2:0:0:
212,102,84234,1,2,0:0:0:0:
217,86,84351,2,0,L|227:35,1,44.0000013427735,2|2,3:2|0:0,0:0:0:0:
233,23,84585,2,0,B|258:43|258:43|268:68|268:68|300:88,1,88.000002685547,2|6,1:2|0:0,0:0:0:0:
342,159,85054,1,2,1:2:0:0:
392,42,85289,6,0,L|373:85,3,44.0000013427735,0|2|2|2,3:0|0:0|1:2|0:0,0:0:0:0:
406,110,85757,1,6,0:0:0:0:
411,122,85874,1,2,0:0:0:0:
416,134,85991,1,2,1:2:0:0:
421,146,86108,1,2,0:0:0:0:
427,158,86226,2,0,P|476:146|516:165,2,88.000002685547,2|2|6,3:2|1:2|0:0,0:0:0:0:
361,229,86929,1,8,0:3:0:0:
231,181,87164,5,2,3:2:0:0:
271,274,87398,1,2,1:2:0:0:
271,274,87515,1,2,0:0:0:0:
324,149,87749,2,0,L|345:109,2,44.0000013427735,2|2|2,0:0|1:2|0:0,0:0:0:0:
330,169,88101,2,0,L|374:83,1,88.000002685547,2|2,3:2|1:2,0:0:0:0:
294,41,88570,1,6,0:0:0:0:
428,18,88804,6,0,L|461:99,1,88.000002685547,10|0,3:2|0:0,0:0:0:0:
475,103,89156,2,0,L|495:146,1,44.0000013427735,2|2,0:0|3:2,0:0:0:0:
426,217,89507,1,14,0:0:0:0:
426,217,89624,1,2,0:0:0:0:
492,299,89859,1,2,0:0:0:0:
492,299,89976,1,2,3:2:0:0:
400,331,90210,1,2,1:2:0:0:
330,270,90445,6,0,L|257:260,1,60,6|0,3:2|0:0,0:0:0:0:
245,255,90914,5,6,3:2:0:0:
507,296,94664,5,6,3:2:0:0:
433,265,94898,1,2,0:0:0:0:
454,357,95132,1,2,0:0:0:0:
379,326,95367,2,0,L|338:340,1,40,2|2,0:0|0:0,0:0:0:0:
315,263,95718,2,0,L|274:277,1,40,2|2,0:0|0:0,0:0:0:0:
223,347,96070,2,0,L|128:305,1,80,2|2,0:0|0:0,0:0:0:0:
59,276,96539,6,0,P|62:250|54:231,3,40,2|0|2|0,0:0|0:0|0:0|0:0,0:0:0:0:
57,222,97007,2,0,P|89:199|129:205,1,80,2|2,0:0|0:0,0:0:0:0:
146,210,97359,2,0,P|192:203|218:169,1,80,2|2,0:0|0:0,0:0:0:0:
216,157,97710,1,2,0:0:0:0:
299,201,97945,1,8,0:3:0:0:
371,145,98179,1,4,0:3:0:0:
430,91,98414,6,0,L|365:43,1,80,8|0,0:0|0:0,0:0:0:0:
371,145,98882,2,0,L|306:97,1,80,8|0,0:0|0:0,0:0:0:0:
206,97,99351,2,0,L|141:145,1,80,8|0,0:0|0:0,0:0:0:0:
147,43,99819,2,0,L|82:91,1,80,8|0,0:0|0:0,0:0:0:0:
93,209,100289,6,0,L|165:257,1,80,8|0,0:0|0:0,0:0:0:0:
112,318,100757,2,0,L|184:366,1,80,8|0,0:0|0:0,0:0:0:0:
333,362,101226,2,0,L|400:318,1,80,8|0,0:0|0:0,0:0:0:0:
352,253,101694,2,0,L|419:209,1,80,8|0,0:0|0:0,0:0:0:0:
426,53,102164,5,8,0:0:0:0:
428,132,102398,1,8,0:0:0:0:
303,94,102632,1,8,0:0:0:0:
346,27,102866,1,8,0:0:0:0:
353,157,103101,1,8,0:0:0:0:
345,161,103218,1,0,3:0:0:0:
337,166,103335,1,8,0:0:0:0:
329,171,103452,1,0,3:0:0:0:
321,176,103570,2,0,L|280:200,3,40,8|0|8|0,0:0|3:0|0:0|3:0,0:0:0:0:
250,214,104039,6,0,L|208:126,2,80,0|0|8,3:0|3:0|0:0,0:0:0:0:
285,306,104742,1,0,3:0:0:0:
285,306,104859,2,0,B|239:308|239:308|204:288|204:288|147:295,1,120,0|2,3:0|3:2,0:0:0:0:
90,287,105445,2,0,L|104:242,1,40,8|8,0:0|0:3,0:0:0:0:
74,264,105679,2,0,L|88:219,1,40,4|0,0:3|3:0,0:0:0:0:
56,230,105914,6,0,L|77:156,1,71.9999978027344,2|2,3:1|0:0,0:0:0:0:
102,86,106382,1,8,1:2:0:0:
156,152,106617,1,2,0:0:0:0:
156,152,106734,2,0,P|206:173|266:129,1,107.999996704102,2|6,0:1|0:3,0:0:0:0:
323,115,107320,2,0,P|296:86|259:76,1,71.9999978027344,8|4,1:2|0:3,0:0:0:0:
316,193,107789,6,0,P|337:195|361:188,1,35.9999989013672,2|2,0:0|0:0,0:0:0:0:
340,291,108140,1,2,0:0:0:0:
154,283,108609,1,2,0:0:0:0:
154,283,108726,2,0,P|121:325|66:309,1,107.999996704102,2|2,0:1|0:3,0:0:0:0:
56,290,109195,1,8,0:0:0:0:
53,205,109429,1,8,0:0:0:0:
141,200,109664,5,4,3:2:0:0:
116,124,109898,2,0,B|154:114|154:114|183:126|183:126|245:106,1,120,2|2,0:3|0:3,0:0:0:0:
243,107,110367,2,0,L|305:88,1,40,2|2,0:3|0:3,0:0:0:0:
379,129,110718,2,0,L|317:148,1,40,2|2,0:3|0:3,0:0:0:0:
272,183,111070,2,0,L|297:262,1,80,2|2,1:3|0:3,0:0:0:0:
368,293,111539,5,2,3:2:0:0:
330,363,111773,1,2,0:2:0:0:
162,328,112124,2,0,P|180:314|209:312,1,40,2|2,0:3|0:2,0:0:0:0:
213,309,112358,2,0,P|232:313|282:273,1,80,2|2,0:3|0:3,0:0:0:0:
287,242,112710,1,2,0:2:0:0:
368,226,112945,1,2,1:2:0:0:
308,162,113179,1,8,0:3:0:0:
308,162,113296,1,4,0:3:0:0:
308,162,113414,1,0,3:0:0:0:
240,110,113648,6,0,P|188:133|114:84,1,120,2|0,0:0|0:0,0:0:0:0:
121,101,114117,2,0,P|110:84|110:55,1,40,2|2,0:0|0:3,0:0:0:0:
28,66,114468,2,0,P|5:73|-9:91,1,40,2|2,0:3|0:0,0:0:0:0:
54,150,114820,2,0,L|74:194,1,40,2|0,1:2|0:0,0:0:0:0:
78,209,115054,2,0,L|38:297,1,80,4|2,0:3|3:2,0:0:0:0:
103,343,115523,5,2,0:0:0:0:
137,271,115757,1,2,1:2:0:0:
183,342,115992,1,2,0:0:0:0:
183,342,116109,1,2,0:0:0:0:
222,274,116343,1,2,0:0:0:0:
222,274,116460,1,2,0:0:0:0:
218,193,116695,2,0,P|259:202|293:244,1,80,2|2,1:2|3:2,0:0:0:0:
303,304,117164,6,0,P|339:289|360:256,1,80,4|2,3:2|0:0,0:0:0:0:
397,241,117515,2,0,L|361:212,2,40,2|10|2,0:0|1:0|0:0,0:0:0:0:
469,203,117984,1,2,0:0:0:0:
469,203,118101,2,0,L|397:145,1,80,2|2,3:2|0:0,0:0:0:0:
357,89,118570,1,10,1:0:0:0:
401,22,118804,1,0,0:0:0:0:
290,43,119039,5,2,3:2:0:0:
290,43,119156,1,0,0:0:0:0:
290,43,119273,1,2,0:0:0:0:
271,120,119507,2,0,P|234:104|210:65,1,80,10|2,1:0|0:0,0:0:0:0:
191,37,119859,1,2,0:0:0:0:
110,99,120093,2,0,L|120:52,2,40,2|0|0,0:0|0:0|0:0,0:0:0:0:
102,132,120445,2,0,P|63:122|17:140,1,80,10|2,1:0|0:0,0:0:0:0:
132,206,120914,6,0,P|165:185|178:130,1,80,2|2,3:2|0:0,0:0:0:0:
202,136,121265,1,2,0:0:0:0:
281,143,121499,2,0,L|273:98,2,40,2|2|2,0:0|0:0|0:0,0:0:0:0:
290,182,121851,2,0,B|290:210|290:210|270:238|270:238|268:274,1,80,2|0,3:2|0:0,0:0:0:0:
304,327,122320,1,10,1:0:0:0:
224,318,122554,1,2,0:0:0:0:
349,263,122789,6,0,P|396:293|457:273,1,120,2|2,3:2|0:0,0:0:0:0:
493,268,123257,1,10,1:0:0:0:
457,201,123492,1,2,0:0:0:0:
457,201,123609,2,0,B|462:163|462:163|490:140|490:140|500:77,1,120,14|6,3:1|0:0,0:0:0:0:
417,89,124195,2,0,P|381:71|328:117,1,80,0|8,1:0|0:3,0:0:0:0:
266,100,124664,5,6,3:2:0:0:
294,174,124898,1,2,0:0:0:0:
209,158,125132,2,0,B|167:164|167:164|115:141,1,80,2|2,1:2|0:0,0:0:0:0:
96,130,125484,1,2,0:0:0:0:
28,168,125718,1,2,0:0:0:0:
28,168,125835,1,2,0:0:0:0:
52,244,126070,2,0,B|20:270|20:270|12:321,1,80,2|2,1:2|0:0,0:0:0:0:
52,378,126539,5,2,3:2:0:0:
103,316,126773,2,0,L|186:311,1,80,2|2,0:0|1:2,0:0:0:0:
255,344,127242,1,2,0:0:0:0:
255,344,127359,1,2,0:0:0:0:
241,259,127593,1,2,0:0:0:0:
241,259,127710,1,2,0:0:0:0:
314,290,127945,2,0,L|414:284,1,80,2|2,1:2|3:2,0:0:0:0:
472,269,128414,5,12,0:2:0:0:
416,153,128648,1,12,0:2:0:0:
488,190,128882,1,12,0:2:0:0:
363,213,129117,1,12,0:2:0:0:
363,213,129234,1,12,0:2:0:0:
282,168,129468,1,12,0:2:0:0:
280,158,129585,1,12,0:2:0:0:
278,149,129702,1,0,0:0:0:0:
277,140,129820,2,0,L|268:97,3,40,12|2|12|2,0:2|0:3|0:2|0:3,0:0:0:0:
276,62,130289,6,0,P|236:79|191:64,1,80,0|0,3:0|3:0,0:0:0:0:
136,24,130757,1,8,1:0:0:0:
116,104,130992,1,2,3:2:0:0:
116,104,131109,1,2,3:2:0:0:
94,183,131343,1,2,3:2:0:0:
94,183,131460,1,2,3:2:0:0:
171,164,131695,2,0,L|206:251,1,80,4|0,3:2|0:0,0:0:0:0:
153,302,132164,6,2,P|111:262|39:280,1,120,2|0,0:0|0:0,0:1:0:0:
359,302,133101,2,2,P|401:262|473:280,1,120,2|2,0:0|0:0,0:1:0:0:
