osu file format v14

[General]
AudioFilename: audio.mp3
AudioLeadIn: 0
PreviewTime: 60884
Countdown: 0
SampleSet: Normal
StackLeniency: 0.7
Mode: 1
LetterboxInBreaks: 0
WidescreenStoryboard: 1

[Editor]
Bookmarks: 914,15914,30914,45914,60914,75914,90914,109664,124664
DistanceSpacing: 0.4
BeatDivisor: 4
GridSize: 32
TimelineZoom: 2.5

[Metadata]
Title:The 89's Momentum
TitleUnicode:The 89's Momentum
Artist:MYUKKE.
ArtistUnicode:MYUKKE.
Creator:HiroK
Version:Futsuu
Source:Muse Dash
Tags:electronic instrumental disco featured artist fa video game osu! mpg mappers' guild english happy otaku pack vol.7 volume 7
BeatmapID:2869068
BeatmapSetID:1320872

[Difficulty]
HPDrainRate:6.5
CircleSize:5
OverallDifficulty:4
ApproachRate:5
SliderMultiplier:1.4
SliderTickRate:1

[Events]
//Background and Video events
0,0,"bg.jpg",0,65
//Break Periods
2,46121,52221
//Storyboard Layer 0 (Background)
//Storyboard Layer 1 (Fail)
//Storyboard Layer 2 (Pass)
//Storyboard Layer 3 (Foreground)
//Storyboard Layer 4 (Overlay)
//Storyboard Sound Samples

[TimingPoints]
921,468.75,4,1,0,75,1,0
6428,-100,4,1,0,90,0,0
45803,-100,4,1,0,80,0,0
46038,-100,4,1,0,70,0,0
53362,-100,4,1,0,80,0,0
60335,-100,4,1,0,90,0,0
60921,-100,4,1,0,90,0,1
74983,-100,4,1,0,90,0,0
75921,-100,4,1,0,90,0,1
90803,-100,4,1,0,80,0,1
90921,-100,4,1,0,80,0,0
109085,-100,4,1,0,90,0,0
109671,468.75,4,1,0,90,1,0
131819,-100,4,1,0,80,0,0

[HitObjects]
256,192,921,5,4,0:0:0:0:
256,192,1389,1,8,0:0:0:0:
256,192,1741,1,0,0:0:0:0:
256,192,2092,1,0,0:0:0:0:
256,192,2327,1,8,0:0:0:0:
256,192,2796,1,0,0:0:0:0:
256,192,3264,1,8,0:0:0:0:
256,192,3616,1,8,0:0:0:0:
256,192,4202,1,8,0:0:0:0:
256,192,4436,1,4,0:0:0:0:
256,192,4671,1,4,0:0:0:0:
256,192,5139,1,8,0:0:0:0:
256,192,5491,1,0,0:0:0:0:
256,192,5842,1,0,0:0:0:0:
256,192,6077,1,8,0:0:0:0:
256,192,6546,1,0,0:0:0:0:
256,192,6780,1,0,0:0:0:0:
256,192,7014,1,8,0:0:0:0:
256,192,7952,1,8,0:0:0:0:
256,192,8421,1,4,0:0:0:0:
256,192,8889,1,8,0:0:0:0:
256,192,9241,1,0,0:0:0:0:
256,192,9592,1,0,0:0:0:0:
256,192,9827,1,8,0:0:0:0:
256,192,10296,1,0,0:0:0:0:
256,192,10764,1,8,0:0:0:0:
256,192,11116,1,0,0:0:0:0:
256,192,11467,1,8,0:0:0:0:
256,192,11702,1,0,0:0:0:0:
256,192,12171,1,8,0:0:0:0:
256,192,12639,1,8,0:0:0:0:
256,192,13108,1,8,0:0:0:0:
256,192,13342,1,8,0:0:0:0:
256,192,13577,1,8,0:0:0:0:
256,192,14046,1,0,0:0:0:0:
256,192,14514,1,8,0:0:0:0:
256,192,14866,1,0,0:0:0:0:
256,192,15452,1,12,0:0:0:0:
256,192,15921,5,4,0:0:0:0:
256,192,16858,1,0,0:0:0:0:
256,192,17092,1,0,0:0:0:0:
256,192,17327,1,0,0:0:0:0:
256,192,17796,1,0,0:0:0:0:
256,192,18264,1,8,0:0:0:0:
256,192,18733,1,8,0:0:0:0:
256,192,19202,1,0,0:0:0:0:
256,192,19436,1,8,0:0:0:0:
256,192,19671,1,0,0:0:0:0:
256,192,20139,1,0,0:0:0:0:
256,192,20608,1,0,0:0:0:0:
256,192,20842,1,0,0:0:0:0:
256,192,21077,1,0,0:0:0:0:
256,192,21546,1,0,0:0:0:0:
256,192,22014,1,8,0:0:0:0:
256,192,22483,1,8,0:0:0:0:
256,192,23421,1,0,0:0:0:0:
256,192,23889,1,0,0:0:0:0:
256,192,24358,1,0,0:0:0:0:
256,192,24592,1,0,0:0:0:0:
256,192,24827,1,0,0:0:0:0:
256,192,25296,1,0,0:0:0:0:
256,192,25764,1,8,0:0:0:0:
256,192,26233,1,8,0:0:0:0:
256,192,26702,1,0,0:0:0:0:
256,192,26936,1,8,0:0:0:0:
256,192,27171,1,0,0:0:0:0:
256,192,27639,1,0,0:0:0:0:
256,192,28108,1,0,0:0:0:0:
256,192,28342,1,0,0:0:0:0:
256,192,28577,1,0,0:0:0:0:
256,192,29046,1,8,0:0:0:0:
256,192,29280,1,8,0:0:0:0:
256,192,29514,1,8,0:0:0:0:
256,192,29983,1,0,0:0:0:0:
256,192,30452,1,12,0:0:0:0:
256,192,30921,1,4,0:0:0:0:
256,192,31858,1,8,0:0:0:0:
256,192,32327,1,0,0:0:0:0:
256,192,32561,1,0,0:0:0:0:
256,192,32796,1,8,0:0:0:0:
256,192,33264,1,0,0:0:0:0:
256,192,33733,1,8,0:0:0:0:
256,192,33967,1,0,0:0:0:0:
256,192,34202,1,8,0:0:0:0:
256,192,34671,1,0,0:0:0:0:
256,192,35139,1,8,0:0:0:0:
256,192,35608,1,8,0:0:0:0:
256,192,36077,1,0,0:0:0:0:
256,192,36311,1,8,0:0:0:0:
256,192,36546,1,0,0:0:0:0:
256,192,37014,1,8,0:0:0:0:
256,192,37366,1,8,0:0:0:0:
256,192,37717,1,0,0:0:0:0:
256,192,37952,1,8,0:0:0:0:
256,192,38421,1,0,0:0:0:0:
256,192,39358,1,0,0:0:0:0:
256,192,39592,1,0,0:0:0:0:
256,192,39827,1,8,0:0:0:0:
256,192,40296,1,0,0:0:0:0:
256,192,41233,1,0,0:0:0:0:
256,192,41467,1,8,0:0:0:0:
256,192,41702,1,8,0:0:0:0:
256,192,42171,1,0,0:0:0:0:
256,192,42639,1,8,0:0:0:0:
256,192,42991,1,0,0:0:0:0:
256,192,43342,1,8,0:0:0:0:
256,192,43577,1,0,0:0:0:0:
256,192,44046,1,8,0:0:0:0:
256,192,44514,1,0,0:0:0:0:
256,192,44866,1,8,0:0:0:0:
256,192,45217,1,0,0:0:0:0:
256,192,45452,1,8,0:0:0:0:
256,192,45921,1,4,0:0:0:0:
256,192,53421,5,0,0:0:0:0:
256,192,53889,1,8,0:0:0:0:
256,192,54358,1,0,0:0:0:0:
256,192,54827,1,8,0:0:0:0:
256,192,55061,1,0,0:0:0:0:
256,192,55530,1,0,0:0:0:0:
256,192,55764,1,8,0:0:0:0:
256,192,56233,5,0,0:0:0:0:
256,192,56702,1,8,0:0:0:0:
256,192,57171,1,0,0:0:0:0:
256,192,57639,1,0,0:0:0:0:
256,192,58108,1,8,0:0:0:0:
256,192,58577,1,8,0:0:0:0:
256,192,58811,1,0,0:0:0:0:
256,192,59280,1,0,0:0:0:0:
256,192,59514,1,8,0:0:0:0:
256,192,59749,1,8,0:0:0:0:
256,192,59983,1,0,0:0:0:0:
256,192,60921,5,4,0:0:0:0:
256,192,61272,1,8,0:0:0:0:
256,192,61624,1,0,0:0:0:0:
256,192,62092,1,8,0:0:0:0:
256,192,62327,1,8,0:0:0:0:
256,192,62561,1,8,0:0:0:0:
256,192,63030,1,0,0:0:0:0:
256,192,63264,1,8,0:0:0:0:
256,192,63733,1,0,0:0:0:0:
256,192,64085,1,8,0:0:0:0:
256,192,64671,1,0,0:0:0:0:
256,192,64905,1,8,0:0:0:0:
256,192,65139,1,8,0:0:0:0:
256,192,65608,1,0,0:0:0:0:
256,192,65842,1,8,0:0:0:0:
256,192,66194,1,8,0:0:0:0:
256,192,66546,1,0,0:0:0:0:
256,192,67483,1,12,0:0:0:0:
256,192,67952,1,12,0:0:0:0:
256,192,68421,1,0,0:0:0:0:
256,192,68772,1,8,0:0:0:0:
256,192,69124,1,0,0:0:0:0:
256,192,69592,1,8,0:0:0:0:
256,192,69827,1,8,0:0:0:0:
256,192,70061,1,8,0:0:0:0:
256,192,70296,1,0,0:0:0:0:
256,192,70764,1,8,0:0:0:0:
256,192,71233,1,0,0:0:0:0:
256,192,71467,1,8,0:0:0:0:
256,192,71702,1,8,0:0:0:0:
256,192,72171,1,0,0:0:0:0:
256,192,72639,1,8,0:0:0:0:
256,192,73108,1,0,0:0:0:0:
256,192,73577,1,8,0:0:0:0:
256,192,73811,1,4,0:0:0:0:
256,192,74514,1,0,0:0:0:0:
256,192,74983,1,12,0:0:0:0:
256,192,75452,1,12,0:0:0:0:
256,192,75921,5,4,0:0:0:0:
256,192,76389,1,8,0:0:0:0:
256,192,76858,1,0,0:0:0:0:
256,192,77092,1,0,0:0:0:0:
256,192,77327,1,8,0:0:0:0:
256,192,77561,1,0,0:0:0:0:
256,192,78030,1,0,0:0:0:0:
256,192,78264,1,8,0:0:0:0:
256,192,78733,1,0,0:0:0:0:
256,192,79671,1,0,0:0:0:0:
256,192,80139,1,8,0:0:0:0:
256,192,80608,1,0,0:0:0:0:
256,192,80842,1,0,0:0:0:0:
256,192,81077,1,8,0:0:0:0:
256,192,81311,1,0,0:0:0:0:
256,192,81780,1,8,0:0:0:0:
256,192,82014,1,0,0:0:0:0:
256,192,82483,1,8,0:0:0:0:
256,192,82952,1,8,0:0:0:0:
256,192,83421,1,0,0:0:0:0:
256,192,83889,1,8,0:0:0:0:
256,192,84358,1,0,0:0:0:0:
256,192,84592,1,0,0:0:0:0:
256,192,84827,1,8,0:0:0:0:
256,192,85061,1,0,0:0:0:0:
256,192,85530,1,0,0:0:0:0:
256,192,85764,1,8,0:0:0:0:
256,192,86233,1,0,0:0:0:0:
256,192,87171,1,0,0:0:0:0:
256,192,87639,1,8,0:0:0:0:
256,192,88108,1,0,0:0:0:0:
256,192,88577,1,0,0:0:0:0:
256,192,88811,1,12,0:0:0:0:
256,192,89280,1,8,0:0:0:0:
256,192,89514,1,0,0:0:0:0:
256,192,89983,1,8,0:0:0:0:
256,192,90921,1,4,0:0:0:0:
256,192,91389,1,8,0:0:0:0:
256,192,91741,1,0,0:0:0:0:
256,192,92092,1,0,0:0:0:0:
256,192,92327,1,8,0:0:0:0:
256,192,92796,1,0,0:0:0:0:
256,192,93264,1,8,0:0:0:0:
256,192,93616,1,8,0:0:0:0:
256,192,94202,1,8,0:0:0:0:
256,192,94436,1,4,0:0:0:0:
256,192,94671,1,4,0:0:0:0:
256,192,95139,1,8,0:0:0:0:
256,192,95491,1,0,0:0:0:0:
256,192,95842,1,0,0:0:0:0:
256,192,96077,1,8,0:0:0:0:
256,192,96546,1,0,0:0:0:0:
256,192,97014,1,8,0:0:0:0:
256,192,97366,1,8,0:0:0:0:
256,192,97952,1,0,0:0:0:0:
256,192,98186,1,0,0:0:0:0:
256,192,98421,1,8,0:0:0:0:
256,192,98889,1,8,0:0:0:0:
256,192,99358,1,0,0:0:0:0:
256,192,99827,1,0,0:0:0:0:
256,192,100296,1,8,0:0:0:0:
256,192,100764,1,8,0:0:0:0:
256,192,101233,1,0,0:0:0:0:
256,192,102171,1,8,0:0:0:0:
256,192,102639,1,8,0:0:0:0:
256,192,103108,1,0,0:0:0:0:
256,192,103342,1,0,0:0:0:0:
256,192,103577,1,8,0:0:0:0:
256,192,103811,1,8,0:0:0:0:
256,192,104046,1,0,0:0:0:0:
256,192,104514,1,8,0:0:0:0:
256,192,104866,1,0,0:0:0:0:
256,192,105217,1,0,0:0:0:0:
256,192,105452,1,8,0:0:0:0:
256,192,105921,1,0,0:0:0:0:
256,192,106389,1,8,0:0:0:0:
256,192,107327,1,8,0:0:0:0:
256,192,107796,1,0,0:0:0:0:
256,192,108264,1,8,0:0:0:0:
256,192,109202,1,8,0:0:0:0:
256,192,109436,1,8,0:0:0:0:
256,192,109671,5,4,0:0:0:0:
256,192,110608,1,0,0:0:0:0:
256,192,110842,1,0,0:0:0:0:
256,192,111077,1,0,0:0:0:0:
256,192,111546,1,0,0:0:0:0:
256,192,112014,1,8,0:0:0:0:
256,192,112483,1,8,0:0:0:0:
256,192,112952,1,0,0:0:0:0:
256,192,113186,1,8,0:0:0:0:
256,192,113421,1,0,0:0:0:0:
256,192,113889,1,0,0:0:0:0:
256,192,114358,1,0,0:0:0:0:
256,192,114592,1,0,0:0:0:0:
256,192,114827,1,0,0:0:0:0:
256,192,115296,1,8,0:0:0:0:
256,192,115764,1,8,0:0:0:0:
256,192,116702,1,8,0:0:0:0:
256,192,117171,1,4,0:0:0:0:
256,192,117639,1,8,0:0:0:0:
256,192,117991,1,0,0:0:0:0:
256,192,118342,1,0,0:0:0:0:
256,192,118577,1,8,0:0:0:0:
256,192,119046,1,0,0:0:0:0:
256,192,119514,1,8,0:0:0:0:
256,192,119866,1,0,0:0:0:0:
256,192,120217,1,8,0:0:0:0:
256,192,120452,1,0,0:0:0:0:
256,192,120921,1,8,0:0:0:0:
256,192,121389,1,8,0:0:0:0:
256,192,121858,1,0,0:0:0:0:
256,192,122327,1,0,0:0:0:0:
256,192,122561,1,8,0:0:0:0:
256,192,122796,1,0,0:0:0:0:
256,192,123264,1,0,0:0:0:0:
256,192,123616,1,12,0:0:0:0:
256,192,124671,1,0,0:0:0:0:
256,192,125139,1,8,0:0:0:0:
256,192,125491,1,0,0:0:0:0:
256,192,125842,1,0,0:0:0:0:
256,192,126077,1,8,0:0:0:0:
256,192,126546,1,0,0:0:0:0:
256,192,127014,1,8,0:0:0:0:
256,192,127366,1,8,0:0:0:0:
256,192,127952,1,0,0:0:0:0:
256,192,128186,1,0,0:0:0:0:
256,192,128421,1,8,0:0:0:0:
256,192,128889,1,8,0:0:0:0:
256,192,129241,1,8,0:0:0:0:
256,192,129592,1,8,0:0:0:0:
256,192,129827,1,8,0:0:0:0:
256,192,130296,1,0,0:0:0:0:
256,192,130764,1,8,0:0:0:0:
256,192,131116,1,0,0:0:0:0:
256,192,131702,1,12,0:0:0:0:
256,192,132171,1,8,0:0:0:0:
256,192,132522,1,8,0:0:0:0:
256,192,133108,1,0,0:0:0:0:
256,192,133460,1,0,0:0:0:0:
