osu file format v14

[General]
AudioFilename: audio.mp3
AudioLeadIn: 0
PreviewTime: 29161
Countdown: 0
SampleSet: Soft
StackLeniency: 0.7
Mode: 3
LetterboxInBreaks: 0
SpecialStyle: 0
WidescreenStoryboard: 1

[Editor]
Bookmarks: 3252,20706,29433,38161,46888,55615,73070,81797,90524,99252,107979,117388
DistanceSpacing: 0.4
BeatDivisor: 4
GridSize: 16
TimelineZoom: 2.1

[Metadata]
Title:ROAD to 773H
TitleUnicode:ROAD to 773H
Artist:MYUKKE.
ArtistUnicode:MYUKKE.
Creator:Irone OSU
Version:MEGA
Source:Dynamix
Tags:[_Decku_] [Decku] DarkistDeci FAMoss featured artist fa mpg mappers' guild instrumental english electronic happy hardcore hardstyle dubstep wub upbeat WE LOVE MYUKKE. EP Vol​.​2 C4Cat Video Game
BeatmapID:3228379
BeatmapSetID:1581028

[Difficulty]
HPDrainRate:8
CircleSize:4
OverallDifficulty:8
ApproachRate:5
SliderMultiplier:1.4
SliderTickRate:1

[Events]
//Background and Video events
0,0,"90047994_p0.jpg",0,0
//Break Periods
//Storyboard Layer 0 (Background)
//Storyboard Layer 1 (Fail)
//Storyboard Layer 2 (Pass)
//Storyboard Layer 3 (Foreground)
//Storyboard Layer 4 (Overlay)
//Storyboard Sound Samples

[TimingPoints]
3252,272.727272727273,4,2,1,73,1,0
29433,-100,4,2,1,73,0,1
46888,-100,4,2,1,73,0,0
81797,-100,4,2,1,73,0,1
89433,-100,4,2,1,73,0,0
90524,-100,4,2,1,73,0,1
107979,-100,4,2,1,73,0,0

[HitObjects]
64,192,3252,5,2,0:0:0:0:
192,192,3252,1,4,0:0:0:0:
320,192,3252,1,0,0:0:0:0:
320,192,3524,1,0,0:0:0:0:
64,192,3797,1,8,0:0:0:0:
192,192,3797,1,0,0:0:0:0:
448,192,3797,1,0,0:0:0:0:
192,192,4070,1,0,0:0:0:0:
320,192,4342,1,2,0:0:0:0:
448,192,4342,1,0,0:0:0:0:
192,192,4479,1,0,0:0:0:0:
64,192,4615,1,0,0:0:0:0:
64,192,4888,1,8,0:0:0:0:
192,192,4888,1,0,0:0:0:0:
448,192,4888,1,0,0:0:0:0:
448,192,5161,1,0,0:0:0:0:
64,192,5433,1,2,0:0:0:0:
192,192,5433,1,0,0:0:0:0:
320,192,5570,1,0,0:0:0:0:
448,192,5706,1,0,0:0:0:0:
64,192,5979,1,8,0:0:0:0:
320,192,5979,1,0,0:0:0:0:
448,192,5979,1,0,0:0:0:0:
64,192,6252,1,0,0:0:0:0:
320,192,6388,1,2,0:0:0:0:
448,192,6388,1,0,0:0:0:0:
192,192,6524,1,0,0:0:0:0:
320,192,6661,1,0,0:0:0:0:
64,192,6797,1,2,0:0:0:0:
192,192,6797,1,0,0:0:0:0:
64,192,7070,1,8,0:0:0:0:
320,192,7070,1,0,0:0:0:0:
448,192,7070,1,0,0:0:0:0:
64,192,7342,1,2,0:0:0:0:
192,192,7342,1,0,0:0:0:0:
320,192,7615,1,2,0:0:0:0:
448,192,7615,1,0,0:0:0:0:
192,192,7752,1,0,0:0:0:0:
64,192,7888,1,0,0:0:0:0:
64,192,8161,1,8,0:0:0:0:
320,192,8161,1,0,0:0:0:0:
448,192,8161,1,0,0:0:0:0:
192,192,8297,1,0,0:0:0:0:
320,192,8433,1,0,0:0:0:0:
192,192,8570,1,0,0:0:0:0:
320,192,8706,1,2,0:0:0:0:
448,192,8706,1,0,0:0:0:0:
192,192,8842,1,0,0:0:0:0:
64,192,8979,1,0,0:0:0:0:
64,192,9252,1,8,0:0:0:0:
320,192,9252,1,0,0:0:0:0:
448,192,9252,1,0,0:0:0:0:
320,192,9524,1,0,0:0:0:0:
192,192,9661,1,0,0:0:0:0:
320,192,9797,1,2,0:0:0:0:
448,192,9797,1,0,0:0:0:0:
192,192,10070,1,0,0:0:0:0:
64,192,10206,1,0,0:0:0:0:
192,192,10342,1,8,0:0:0:0:
320,192,10342,1,0,0:0:0:0:
448,192,10342,1,0,0:0:0:0:
320,192,10615,1,0,0:0:0:0:
64,192,10752,1,2,0:0:0:0:
192,192,10752,1,0,0:0:0:0:
448,192,10888,128,0,11161:0:0:0:0:
64,192,11161,1,2,0:0:0:0:
192,192,11161,1,0,0:0:0:0:
64,192,11433,128,8,11706:0:0:0:0:
320,192,11433,1,0,0:0:0:0:
448,192,11433,1,0,0:0:0:0:
320,192,11706,1,2,0:0:0:0:
448,192,11706,1,0,0:0:0:0:
64,192,11979,1,2,0:0:0:0:
320,192,11979,1,4,0:0:0:0:
448,192,11979,1,0,0:0:0:0:
192,192,12115,1,0,0:0:0:0:
448,192,12252,1,0,0:0:0:0:
64,192,12388,1,0,0:0:0:0:
192,192,12524,1,8,0:0:0:0:
320,192,12524,1,0,0:0:0:0:
448,192,12524,1,0,0:0:0:0:
64,192,12661,1,0,0:0:0:0:
448,192,12797,1,0,0:0:0:0:
192,192,12933,1,0,0:0:0:0:
320,192,13070,1,2,0:0:0:0:
448,192,13070,1,0,0:0:0:0:
64,192,13206,1,0,0:0:0:0:
320,192,13342,1,0,0:0:0:0:
192,192,13479,1,0,0:0:0:0:
64,192,13615,1,8,0:0:0:0:
320,192,13615,1,0,0:0:0:0:
448,192,13615,1,0,0:0:0:0:
320,192,13888,1,0,0:0:0:0:
320,192,14024,1,0,0:0:0:0:
64,192,14161,1,2,0:0:0:0:
192,192,14161,1,0,0:0:0:0:
448,192,14297,1,0,0:0:0:0:
64,192,14433,1,0,0:0:0:0:
320,192,14570,1,0,0:0:0:0:
64,192,14706,1,8,0:0:0:0:
192,192,14706,1,0,0:0:0:0:
448,192,14706,1,0,0:0:0:0:
320,192,14842,1,0,0:0:0:0:
64,192,14979,1,0,0:0:0:0:
320,192,15115,1,2,0:0:0:0:
448,192,15115,1,0,0:0:0:0:
192,192,15252,1,0,0:0:0:0:
320,192,15388,1,0,0:0:0:0:
64,192,15524,1,2,0:0:0:0:
448,192,15524,1,0,0:0:0:0:
64,192,15797,1,8,0:0:0:0:
320,192,15797,1,0,0:0:0:0:
448,192,15797,1,0,0:0:0:0:
192,192,16070,1,2,0:0:0:0:
192,192,16206,1,0,0:0:0:0:
320,192,16342,1,2,0:0:0:0:
448,192,16342,1,0,0:0:0:0:
64,192,16479,1,0,0:0:0:0:
448,192,16615,1,0,0:0:0:0:
192,192,16752,1,0,0:0:0:0:
64,192,16888,1,8,0:0:0:0:
320,192,16888,1,0,0:0:0:0:
448,192,16888,1,0,0:0:0:0:
192,192,17024,1,0,0:0:0:0:
448,192,17161,1,0,0:0:0:0:
64,192,17297,1,0,0:0:0:0:
320,192,17433,1,2,0:0:0:0:
448,192,17433,1,0,0:0:0:0:
320,192,17706,1,0,0:0:0:0:
64,192,17979,1,8,0:0:0:0:
192,192,17979,1,0,0:0:0:0:
448,192,17979,1,0,0:0:0:0:
320,192,18252,1,0,0:0:0:0:
320,192,18388,1,0,0:0:0:0:
64,192,18524,1,2,0:0:0:0:
192,192,18524,1,0,0:0:0:0:
448,192,18661,1,0,0:0:0:0:
64,192,18797,1,0,0:0:0:0:
320,192,18933,1,0,0:0:0:0:
64,192,19070,1,8,0:0:0:0:
192,192,19070,1,0,0:0:0:0:
448,192,19070,1,0,0:0:0:0:
320,192,19206,1,0,0:0:0:0:
64,192,19342,1,0,0:0:0:0:
320,192,19479,1,2,0:0:0:0:
448,192,19479,1,0,0:0:0:0:
64,192,19615,128,0,19888:0:0:0:0:
192,192,19615,1,0,0:0:0:0:
320,192,19888,1,2,0:0:0:0:
448,192,19888,1,0,0:0:0:0:
64,192,20161,1,8,0:0:0:0:
192,192,20161,1,0,0:0:0:0:
448,192,20161,128,0,20433:0:0:0:0:
64,192,20433,1,2,0:0:0:0:
192,192,20433,1,0,0:0:0:0:
64,192,20706,1,4,0:0:0:0:
320,192,20706,1,2,0:0:0:0:
448,192,20706,1,0,0:0:0:73:fat kick.wav
64,192,20842,1,0,0:0:0:0:
192,192,20842,1,0,0:0:0:0:
320,192,20979,1,0,0:0:0:73:fat kick.wav
448,192,20979,1,0,0:0:0:0:
192,192,21115,1,0,0:0:0:0:
448,192,21115,1,0,0:0:0:0:
64,192,21252,1,0,0:0:0:73:fat kick.wav
320,192,21252,1,0,0:0:0:0:
64,192,21388,1,0,0:0:0:0:
192,192,21388,1,0,0:0:0:0:
320,192,21524,1,0,0:0:0:73:fat kick.wav
448,192,21524,1,0,0:0:0:0:
192,192,21661,1,0,0:0:0:0:
448,192,21661,1,0,0:0:0:0:
64,192,21797,1,0,0:0:0:73:fat kick.wav
320,192,21797,1,0,0:0:0:0:
64,192,21933,1,0,0:0:0:0:
192,192,22070,1,0,0:0:0:73:fat kick.wav
448,192,22070,1,0,0:0:0:0:
448,192,22206,1,0,0:0:0:0:
64,192,22342,1,0,0:0:0:73:fat kick.wav
192,192,22342,1,0,0:0:0:0:
192,192,22479,1,0,0:0:0:0:
320,192,22615,1,0,0:0:0:73:fat kick.wav
448,192,22615,1,0,0:0:0:0:
320,192,22752,1,0,0:0:0:0:
64,192,22888,1,0,0:0:0:73:fat kick.wav
448,192,22888,1,0,0:0:0:0:
320,192,23024,1,0,0:0:0:0:
448,192,23024,1,0,0:0:0:0:
64,192,23161,1,0,0:0:0:73:fat kick.wav
192,192,23161,1,0,0:0:0:0:
64,192,23297,1,0,0:0:0:0:
320,192,23297,1,0,0:0:0:0:
192,192,23433,1,0,0:0:0:73:fat kick.wav
448,192,23433,1,0,0:0:0:0:
320,192,23570,1,0,0:0:0:0:
448,192,23570,1,0,0:0:0:0:
64,192,23706,1,0,0:0:0:73:fat kick.wav
192,192,23706,1,0,0:0:0:0:
64,192,23842,1,0,0:0:0:0:
320,192,23842,1,0,0:0:0:0:
192,192,23979,1,0,0:0:0:73:fat kick.wav
448,192,23979,1,0,0:0:0:0:
448,192,24115,1,0,0:0:0:0:
64,192,24252,1,0,0:0:0:73:fat kick.wav
320,192,24252,1,0,0:0:0:0:
64,192,24388,1,0,0:0:0:0:
320,192,24524,1,0,0:0:0:73:fat kick.wav
448,192,24524,1,0,0:0:0:0:
320,192,24661,1,0,0:0:0:0:
64,192,24797,1,0,0:0:0:73:fat kick.wav
192,192,24797,1,0,0:0:0:0:
64,192,24933,1,0,0:0:0:73:fat kick.wav
192,192,24933,1,0,0:0:0:0:
320,192,25070,1,0,0:0:0:73:fat kick.wav
448,192,25070,1,0,0:0:0:0:
192,192,25138,1,0,0:0:0:73:fat kick.wav
64,192,25206,1,0,0:0:0:73:fat kick.wav
448,192,25206,1,0,0:0:0:0:
320,192,25274,1,0,0:0:0:73:fat kick.wav
64,192,25342,1,0,0:0:0:73:Splash.wav
192,192,25342,1,0,0:0:0:73:fat kick.wav
448,192,25342,1,0,0:0:0:0:
64,192,25615,1,0,0:0:0:73:fat kick.wav
192,192,25615,1,0,0:0:0:0:
320,192,25683,1,0,0:0:0:73:fat kick.wav
64,192,25752,1,0,0:0:0:73:fat kick.wav
448,192,25752,1,0,0:0:0:0:
192,192,25820,1,0,0:0:0:73:fat kick.wav
64,192,25888,1,0,0:0:0:73:Splash.wav
320,192,25888,1,0,0:0:0:73:fat kick.wav
448,192,25888,1,0,0:0:0:0:
320,192,26161,1,0,0:0:0:73:fat kick.wav
448,192,26161,1,0,0:0:0:0:
64,192,26229,1,0,0:0:0:73:fat kick.wav
192,192,26297,1,0,0:0:0:73:fat kick.wav
320,192,26297,1,0,0:0:0:0:
448,192,26365,1,0,0:0:0:73:fat kick.wav
64,192,26433,1,0,0:0:0:73:Splash.wav
192,192,26433,1,0,0:0:0:73:fat kick.wav
320,192,26433,1,0,0:0:0:0:
64,192,26706,1,0,0:0:0:73:fat kick.wav
192,192,26706,1,0,0:0:0:0:
448,192,26774,1,0,0:0:0:73:fat kick.wav
192,192,26842,1,0,0:0:0:73:fat kick.wav
320,192,26842,1,0,0:0:0:0:
64,192,26911,1,0,0:0:0:73:fat kick.wav
192,192,26979,1,0,0:0:0:73:Splash.wav
320,192,26979,1,0,0:0:0:73:fat kick.wav
448,192,26979,1,0,0:0:0:0:
320,192,27252,1,0,0:0:0:73:fat kick.wav
448,192,27252,1,0,0:0:0:0:
64,192,27320,1,0,0:0:0:73:fat kick.wav
192,192,27388,1,0,0:0:0:73:fat kick.wav
448,192,27388,1,0,0:0:0:0:
320,192,27456,1,0,0:0:0:73:fat kick.wav
64,192,27524,1,0,0:0:0:73:fat kick.wav
192,192,27524,1,0,0:0:0:0:
448,192,27592,1,0,0:0:0:73:fat kick.wav
64,192,27661,1,0,0:0:0:73:fat kick.wav
320,192,27661,1,0,0:0:0:0:
192,192,27729,1,0,0:0:0:73:fat kick.wav
320,192,27797,1,0,0:0:0:70:fat kick.wav
448,192,27797,1,0,0:0:0:0:
64,192,27865,1,0,0:0:0:65:fat kick.wav
192,192,27933,1,0,0:0:0:60:fat kick.wav
320,192,28002,1,0,0:0:0:55:fat kick.wav
64,192,28070,1,0,0:0:0:50:fat kick.wav
192,192,28070,1,0,0:0:0:0:
448,192,28138,1,0,0:0:0:45:fat kick.wav
320,192,28206,1,0,0:0:0:40:fat kick.wav
192,192,28274,1,0,0:0:0:35:fat kick.wav
64,192,28342,1,0,0:0:0:0:
320,192,28342,1,0,0:0:0:0:
448,192,28342,1,0,0:0:0:0:
320,192,28615,1,0,0:0:0:0:
448,192,28615,1,0,0:0:0:0:
448,192,28888,1,0,0:0:0:0:
64,192,29161,1,0,0:0:0:0:
192,192,29161,1,0,0:0:0:0:
320,192,29297,1,0,0:0:0:0:
448,192,29297,1,0,0:0:0:0:
64,192,29433,1,4,0:0:0:0:
192,192,29433,1,0,0:0:0:73:fat kick.wav
448,192,29433,1,0,0:0:0:0:
192,192,29570,1,0,0:0:0:0:
64,192,29706,1,0,0:0:0:73:fat kick.wav
448,192,29706,1,0,0:0:0:0:
64,192,29842,1,0,0:0:0:0:
320,192,29842,1,0,0:0:0:0:
320,192,29979,1,0,0:0:0:73:fat kick.wav
448,192,29979,1,0,0:0:0:0:
64,192,30115,1,0,0:0:0:0:
192,192,30115,1,0,0:0:0:0:
192,192,30252,1,0,0:0:0:73:fat kick.wav
448,192,30252,1,0,0:0:0:0:
64,192,30388,1,0,0:0:0:0:
192,192,30388,1,0,0:0:0:0:
320,192,30524,1,0,0:0:0:73:fat kick.wav
448,192,30524,1,0,0:0:0:0:
64,192,30661,1,0,0:0:0:0:
448,192,30661,1,0,0:0:0:0:
64,192,30797,1,0,0:0:0:73:fat kick.wav
192,192,30797,1,0,0:0:0:0:
192,192,30933,1,0,0:0:0:0:
448,192,30933,1,0,0:0:0:0:
320,192,31070,1,0,0:0:0:73:fat kick.wav
448,192,31070,1,0,0:0:0:0:
64,192,31206,1,0,0:0:0:0:
192,192,31206,1,0,0:0:0:0:
192,192,31342,1,0,0:0:0:73:fat kick.wav
320,192,31342,1,0,0:0:0:0:
64,192,31479,1,0,0:0:0:0:
320,192,31479,1,0,0:0:0:0:
192,192,31615,1,0,0:0:0:73:fat kick.wav
448,192,31615,1,0,0:0:0:0:
192,192,31752,1,0,0:0:0:0:
64,192,31888,1,0,0:0:0:73:fat kick.wav
448,192,31888,1,0,0:0:0:0:
320,192,32024,1,0,0:0:0:0:
448,192,32024,1,0,0:0:0:0:
64,192,32161,1,0,0:0:0:73:fat kick.wav
320,192,32161,1,0,0:0:0:0:
64,192,32297,1,0,0:0:0:0:
192,192,32297,1,0,0:0:0:0:
320,192,32433,1,0,0:0:0:73:fat kick.wav
448,192,32433,1,0,0:0:0:0:
192,192,32570,1,0,0:0:0:0:
320,192,32570,1,0,0:0:0:0:
64,192,32706,1,0,0:0:0:73:fat kick.wav
448,192,32706,1,0,0:0:0:0:
64,192,32842,1,0,0:0:0:0:
192,192,32842,1,0,0:0:0:0:
64,192,32979,1,0,0:0:0:73:fat kick.wav
448,192,32979,1,0,0:0:0:0:
192,192,33115,1,0,0:0:0:0:
320,192,33115,1,0,0:0:0:0:
192,192,33252,1,0,0:0:0:73:fat kick.wav
448,192,33252,1,0,0:0:0:0:
64,192,33388,1,0,0:0:0:0:
320,192,33388,1,0,0:0:0:0:
64,192,33524,1,0,0:0:0:73:fat kick.wav
192,192,33524,1,0,0:0:0:0:
192,192,33661,1,0,0:0:0:73:fat kick.wav
320,192,33661,1,0,0:0:0:0:
320,192,33797,1,0,0:0:0:73:fat kick.wav
448,192,33797,1,0,0:0:0:0:
448,192,33933,1,0,0:0:0:0:
64,192,34070,1,0,0:0:0:73:fat kick.wav
320,192,34070,1,0,0:0:0:0:
64,192,34206,1,0,0:0:0:0:
192,192,34206,1,0,0:0:0:0:
192,192,34342,1,0,0:0:0:73:fat kick.wav
320,192,34342,1,0,0:0:0:0:
64,192,34479,1,0,0:0:0:0:
448,192,34479,1,0,0:0:0:0:
192,192,34615,1,0,0:0:0:73:fat kick.wav
448,192,34615,1,0,0:0:0:0:
64,192,34752,1,0,0:0:0:0:
448,192,34752,1,0,0:0:0:0:
192,192,34888,1,0,0:0:0:73:fat kick.wav
320,192,34888,1,0,0:0:0:0:
192,192,35024,1,0,0:0:0:0:
448,192,35024,1,0,0:0:0:0:
320,192,35161,1,0,0:0:0:73:fat kick.wav
448,192,35161,1,0,0:0:0:0:
64,192,35297,1,0,0:0:0:0:
320,192,35297,1,0,0:0:0:0:
64,192,35433,1,0,0:0:0:73:fat kick.wav
192,192,35433,1,0,0:0:0:0:
320,192,35570,1,0,0:0:0:0:
448,192,35570,1,0,0:0:0:0:
64,192,35706,1,0,0:0:0:73:fat kick.wav
448,192,35706,1,0,0:0:0:0:
64,192,35842,1,0,0:0:0:0:
192,192,35842,1,0,0:0:0:0:
192,192,35979,1,0,0:0:0:73:fat kick.wav
448,192,35979,1,0,0:0:0:0:
448,192,36115,1,0,0:0:0:0:
192,192,36252,1,0,0:0:0:73:fat kick.wav
320,192,36252,1,0,0:0:0:0:
192,192,36388,1,0,0:0:0:0:
448,192,36388,1,0,0:0:0:0:
64,192,36524,1,0,0:0:0:73:fat kick.wav
448,192,36524,1,0,0:0:0:0:
64,192,36661,1,0,0:0:0:0:
320,192,36661,1,0,0:0:0:0:
320,192,36797,1,0,0:0:0:73:fat kick.wav
448,192,36797,1,0,0:0:0:0:
192,192,36933,1,0,0:0:0:0:
448,192,36933,1,0,0:0:0:0:
64,192,37070,1,0,0:0:0:73:fat kick.wav
320,192,37070,1,0,0:0:0:0:
64,192,37206,1,0,0:0:0:73:fat kick.wav
448,192,37206,1,0,0:0:0:0:
64,192,37342,1,0,0:0:0:73:fat kick.wav
192,192,37342,1,0,0:0:0:0:
192,192,37479,1,0,0:0:0:0:
320,192,37479,1,0,0:0:0:0:
64,192,37615,1,0,0:0:0:0:
448,192,37615,1,0,0:0:0:0:
320,192,37752,1,0,0:0:0:0:
448,192,37752,1,0,0:0:0:0:
192,192,37820,1,0,0:0:0:0:
64,192,37888,128,0,38092:0:0:0:0:
320,192,38024,128,0,38161:0:0:0:0:
64,192,38161,1,4,0:0:0:0:
192,192,38161,1,0,0:0:0:73:fat kick.wav
448,192,38161,1,0,0:0:0:0:
320,192,38297,1,0,0:0:0:0:
448,192,38297,1,0,0:0:0:0:
192,192,38433,1,0,0:0:0:73:fat kick.wav
448,192,38433,1,0,0:0:0:0:
64,192,38570,1,0,0:0:0:0:
192,192,38570,1,0,0:0:0:0:
64,192,38706,1,0,0:0:0:73:fat kick.wav
320,192,38706,1,0,0:0:0:0:
320,192,38842,1,0,0:0:0:0:
448,192,38842,1,0,0:0:0:0:
192,192,38979,1,0,0:0:0:73:fat kick.wav
448,192,38979,1,0,0:0:0:0:
64,192,39115,1,0,0:0:0:0:
192,192,39115,1,0,0:0:0:0:
320,192,39252,1,0,0:0:0:73:fat kick.wav
448,192,39252,1,0,0:0:0:0:
192,192,39320,1,0,0:0:0:0:
64,192,39388,1,0,0:0:0:0:
320,192,39456,1,0,0:0:0:0:
64,192,39524,1,0,0:0:0:73:fat kick.wav
192,192,39524,1,0,0:0:0:0:
448,192,39661,1,0,0:0:0:0:
64,192,39729,1,0,0:0:0:0:
192,192,39797,1,0,0:0:0:73:fat kick.wav
320,192,39797,1,0,0:0:0:0:
320,192,39933,1,0,0:0:0:0:
448,192,39933,1,0,0:0:0:0:
64,192,40070,1,0,0:0:0:73:fat kick.wav
192,192,40070,1,0,0:0:0:0:
192,192,40206,1,0,0:0:0:0:
448,192,40206,1,0,0:0:0:0:
64,192,40342,1,0,0:0:0:73:fat kick.wav
320,192,40342,1,0,0:0:0:0:
320,192,40479,1,0,0:0:0:0:
448,192,40479,1,0,0:0:0:0:
192,192,40615,1,0,0:0:0:73:fat kick.wav
448,192,40615,1,0,0:0:0:0:
64,192,40752,1,0,0:0:0:0:
192,192,40752,1,0,0:0:0:0:
64,192,40888,1,0,0:0:0:73:fat kick.wav
320,192,40888,1,0,0:0:0:0:
320,192,41024,1,0,0:0:0:0:
448,192,41024,1,0,0:0:0:0:
192,192,41161,1,0,0:0:0:73:fat kick.wav
448,192,41161,1,0,0:0:0:0:
64,192,41297,1,0,0:0:0:0:
192,192,41297,1,0,0:0:0:0:
320,192,41433,1,0,0:0:0:73:fat kick.wav
448,192,41433,1,0,0:0:0:0:
192,192,41502,1,0,0:0:0:0:
64,192,41570,128,0,41706:0:0:0:73:fat kick.wav
448,192,41638,1,0,0:0:0:73:fat kick.wav
192,192,41706,1,0,0:0:0:73:fat kick.wav
320,192,41706,1,0,0:0:0:0:
64,192,41842,1,0,0:0:0:73:fat kick.wav
192,192,41842,1,0,0:0:0:0:
64,192,41979,1,0,0:0:0:73:fat kick.wav
320,192,41979,1,0,0:0:0:0:
192,192,42115,1,0,0:0:0:0:
448,192,42115,1,0,0:0:0:0:
320,192,42252,1,0,0:0:0:73:fat kick.wav
448,192,42252,1,0,0:0:0:0:
64,192,42388,1,0,0:0:0:73:fat kick.wav
192,192,42388,1,0,0:0:0:0:
64,192,42524,1,0,0:0:0:73:fat kick.wav
320,192,42524,1,0,0:0:0:0:
320,192,42661,1,0,0:0:0:0:
448,192,42661,1,0,0:0:0:0:
192,192,42797,1,0,0:0:0:73:fat kick.wav
448,192,42797,1,0,0:0:0:0:
64,192,42933,1,0,0:0:0:0:
192,192,42933,1,0,0:0:0:0:
64,192,43070,1,0,0:0:0:73:fat kick.wav
320,192,43070,1,0,0:0:0:0:
320,192,43206,1,0,0:0:0:0:
448,192,43206,1,0,0:0:0:0:
192,192,43342,1,0,0:0:0:73:fat kick.wav
448,192,43342,1,0,0:0:0:0:
64,192,43479,1,0,0:0:0:0:
192,192,43479,1,0,0:0:0:0:
320,192,43615,1,0,0:0:0:73:fat kick.wav
448,192,43615,1,0,0:0:0:0:
64,192,43752,1,0,0:0:0:0:
448,192,43752,1,0,0:0:0:0:
64,192,43888,1,0,0:0:0:73:fat kick.wav
448,192,43888,1,0,0:0:0:0:
192,192,44024,1,0,0:0:0:0:
320,192,44024,1,0,0:0:0:0:
64,192,44161,1,0,0:0:0:73:fat kick.wav
320,192,44161,1,0,0:0:0:0:
192,192,44297,1,0,0:0:0:0:
448,192,44297,1,0,0:0:0:0:
320,192,44433,1,0,0:0:0:73:fat kick.wav
448,192,44433,1,0,0:0:0:0:
192,192,44570,1,0,0:0:0:0:
320,192,44570,1,0,0:0:0:0:
64,192,44706,1,0,0:0:0:73:fat kick.wav
192,192,44706,1,0,0:0:0:0:
64,192,44842,1,0,0:0:0:0:
448,192,44842,1,0,0:0:0:0:
64,192,44979,1,0,0:0:0:73:fat kick.wav
448,192,44979,1,0,0:0:0:0:
192,192,45115,1,0,0:0:0:0:
320,192,45115,1,0,0:0:0:0:
192,192,45252,1,0,0:0:0:73:fat kick.wav
448,192,45252,1,0,0:0:0:0:
64,192,45388,1,0,0:0:0:0:
320,192,45388,1,0,0:0:0:0:
64,192,45524,1,0,0:0:0:73:fat kick.wav
192,192,45524,1,0,0:0:0:0:
192,192,45661,1,0,0:0:0:0:
448,192,45661,1,0,0:0:0:0:
320,192,45797,1,0,0:0:0:73:fat kick.wav
448,192,45797,1,0,0:0:0:0:
192,192,45933,1,0,0:0:0:73:fat kick.wav
320,192,45933,1,0,0:0:0:0:
64,192,46070,1,0,0:0:0:73:fat kick.wav
192,192,46070,1,0,0:0:0:0:
320,192,46206,1,0,0:0:0:0:
64,192,46342,1,0,0:0:0:0:
448,192,46342,1,0,0:0:0:0:
448,192,46479,1,0,0:0:0:0:
64,192,46615,1,0,0:0:0:0:
320,192,46615,1,0,0:0:0:0:
320,192,46752,1,0,0:0:0:0:
64,192,46888,1,4,0:0:0:0:
192,192,46888,1,0,0:0:0:0:
448,192,46888,128,0,47161:0:0:0:0:
64,192,47161,1,0,0:0:0:0:
192,192,47161,1,0,0:0:0:0:
320,192,47297,1,0,0:0:0:0:
64,192,47433,1,0,0:0:0:0:
448,192,47433,1,0,0:0:0:0:
192,192,47570,1,0,0:0:0:0:
64,192,47706,1,0,0:0:0:0:
448,192,47706,1,0,0:0:0:0:
192,192,47842,1,0,0:0:0:0:
320,192,47979,1,0,0:0:0:0:
448,192,47979,1,0,0:0:0:0:
64,192,48115,1,0,0:0:0:0:
192,192,48252,128,0,48388:0:0:0:0:
448,192,48252,1,0,0:0:0:0:
448,192,48388,128,0,48524:0:0:0:0:
64,192,48524,1,0,0:0:0:0:
192,192,48524,128,0,48661:0:0:0:0:
448,192,48661,128,0,48797:0:0:0:0:
64,192,48797,128,0,49070:0:0:0:0:
320,192,48797,1,0,0:0:0:0:
320,192,49070,1,0,0:0:0:0:
448,192,49070,128,0,49206:0:0:0:0:
192,192,49206,128,0,49342:0:0:0:0:
64,192,49342,1,0,0:0:0:0:
448,192,49342,128,0,49479:0:0:0:0:
192,192,49479,128,0,49615:0:0:0:0:
64,192,49615,1,0,0:0:0:0:
448,192,49615,1,0,0:0:0:0:
320,192,49752,1,0,0:0:0:0:
64,192,49888,1,0,0:0:0:0:
448,192,49888,1,0,0:0:0:0:
320,192,50024,1,0,0:0:0:0:
64,192,50161,128,0,50297:0:0:0:0:
192,192,50161,1,0,0:0:0:0:
320,192,50297,128,0,50433:0:0:0:0:
64,192,50433,128,0,50570:0:0:0:0:
448,192,50433,1,0,0:0:0:0:
320,192,50570,128,0,50706:0:0:0:0:
64,192,50706,1,0,0:0:0:0:
448,192,50706,1,0,0:0:0:0:
192,192,50842,1,0,0:0:0:0:
64,192,50979,1,0,0:0:0:0:
448,192,50979,1,0,0:0:0:0:
320,192,51115,1,0,0:0:0:0:
64,192,51252,1,0,0:0:0:0:
448,192,51252,128,0,51524:0:0:0:0:
64,192,51388,1,0,0:0:0:0:
192,192,51524,1,0,0:0:0:0:
320,192,51524,1,0,0:0:0:0:
192,192,51661,1,0,0:0:0:0:
448,192,51797,128,0,52070:0:0:0:0:
320,192,51933,1,0,0:0:0:0:
64,192,52070,1,0,0:0:0:0:
192,192,52070,1,0,0:0:0:0:
192,192,52206,1,0,0:0:0:0:
64,192,52342,128,0,52615:0:0:0:0:
448,192,52342,1,0,0:0:0:0:
448,192,52479,1,0,0:0:0:0:
192,192,52615,1,0,0:0:0:0:
320,192,52615,1,0,0:0:0:0:
320,192,52752,1,0,0:0:0:0:
64,192,52888,128,0,53161:0:0:0:0:
192,192,53024,1,0,0:0:0:0:
320,192,53161,1,0,0:0:0:0:
448,192,53161,1,0,0:0:0:0:
320,192,53297,1,0,0:0:0:0:
64,192,53433,1,0,0:0:0:0:
192,192,53570,1,0,0:0:0:0:
320,192,53706,1,0,0:0:0:0:
64,192,53979,1,0,0:0:0:0:
192,192,53979,1,0,0:0:0:0:
320,192,54115,1,0,0:0:0:0:
192,192,54252,1,0,0:0:0:0:
320,192,54388,1,0,0:0:0:0:
448,192,54524,1,0,0:0:0:0:
64,192,54661,1,0,0:0:0:0:
320,192,54797,1,0,0:0:0:0:
192,192,54933,1,0,0:0:0:0:
320,192,55070,1,0,0:0:0:0:
64,192,55342,1,0,0:0:0:0:
320,192,55342,1,0,0:0:0:0:
448,192,55342,1,0,0:0:0:0:
64,192,55615,1,2,0:0:0:0:
448,192,55615,128,0,55888:0:0:0:0:
320,192,55683,128,0,55888:0:0:0:0:
192,192,55752,128,0,55888:0:0:0:0:
64,192,55888,128,0,56024:0:0:0:0:
448,192,56024,128,0,56161:0:0:0:0:
64,192,56161,1,8,0:0:0:0:
192,192,56161,1,0,0:0:0:0:
320,192,56229,128,0,56297:0:0:0:0:
192,192,56297,128,0,56433:0:0:0:0:
320,192,56433,128,0,56502:0:0:0:0:
64,192,56570,128,2,56706:0:0:0:0:
192,192,56570,1,0,0:0:0:0:
448,192,56706,1,0,0:0:0:0:
320,192,56842,128,0,56979:0:0:0:0:
64,192,56979,1,2,0:0:0:0:
448,192,56979,128,0,57115:0:0:0:0:
192,192,57115,128,0,57252:0:0:0:0:
64,192,57252,128,8,57388:0:0:0:0:
320,192,57252,1,0,0:0:0:0:
448,192,57252,1,0,0:0:0:0:
320,192,57388,128,0,57524:0:0:0:0:
448,192,57456,128,0,57524:0:0:0:0:
64,192,57524,1,2,0:0:0:0:
192,192,57524,1,0,0:0:0:0:
448,192,57661,128,0,57797:0:0:0:0:
64,192,57797,1,2,0:0:0:0:
320,192,57797,1,0,0:0:0:0:
192,192,57933,128,0,58002:0:0:0:0:
320,192,58002,128,0,58070:0:0:0:0:
64,192,58070,1,0,0:0:0:0:
448,192,58070,128,0,58206:0:0:0:0:
64,192,58206,128,0,58342:0:0:0:0:
192,192,58342,1,8,0:0:0:0:
320,192,58342,1,0,0:0:0:0:
448,192,58342,1,0,0:0:0:0:
192,192,58479,1,0,0:0:0:0:
320,192,58615,1,0,0:0:0:0:
64,192,58752,128,2,58888:0:0:0:0:
192,192,58752,1,0,0:0:0:0:
448,192,58888,1,0,0:0:0:0:
448,192,59024,128,0,59161:0:0:0:0:
64,192,59161,1,2,0:0:0:0:
192,192,59161,128,0,59297:0:0:0:0:
320,192,59297,128,0,59433:0:0:0:0:
64,192,59433,128,8,59570:0:0:0:0:
192,192,59433,1,0,0:0:0:0:
448,192,59433,1,0,0:0:0:0:
448,192,59570,128,0,59706:0:0:0:0:
320,192,59638,128,0,59706:0:0:0:0:
64,192,59706,1,2,0:0:0:0:
192,192,59706,1,0,0:0:0:0:
320,192,59842,128,0,59979:0:0:0:0:
64,192,59979,128,2,60252:0:0:0:0:
448,192,59979,1,0,0:0:0:0:
192,192,60047,128,0,60252:0:0:0:0:
320,192,60115,128,0,60252:0:0:0:0:
448,192,60252,128,0,60388:0:0:0:0:
64,192,60388,128,0,60524:0:0:0:0:
192,192,60524,1,8,0:0:0:0:
320,192,60524,1,0,0:0:0:0:
448,192,60524,1,0,0:0:0:0:
64,192,60592,128,0,60729:0:0:0:0:
448,192,60797,1,0,0:0:0:0:
64,192,60933,128,2,61070:0:0:0:0:
448,192,60933,1,0,0:0:0:0:
192,192,61070,1,0,0:0:0:0:
320,192,61206,128,0,61342:0:0:0:0:
64,192,61342,128,2,61479:0:0:0:0:
192,192,61342,1,0,0:0:0:0:
320,192,61479,128,0,61615:0:0:0:0:
64,192,61615,1,8,0:0:0:0:
192,192,61615,1,0,0:0:0:0:
448,192,61615,128,0,61752:0:0:0:0:
64,192,61752,128,0,61888:0:0:0:0:
192,192,61820,128,0,61888:0:0:0:0:
320,192,61888,1,2,0:0:0:0:
448,192,61888,128,0,62161:0:0:0:0:
64,192,62161,1,2,0:0:0:0:
192,192,62161,1,0,0:0:0:0:
64,192,62297,128,0,62433:0:0:0:0:
448,192,62297,1,0,0:0:0:0:
448,192,62570,1,0,0:0:0:0:
64,192,62706,1,8,0:0:0:0:
192,192,62706,1,0,0:0:0:0:
448,192,62706,128,0,62842:0:0:0:0:
192,192,62979,128,0,63115:0:0:0:0:
320,192,63115,128,2,63252:0:0:0:0:
448,192,63115,1,0,0:0:0:0:
64,192,63252,128,0,63388:0:0:0:0:
448,192,63388,128,0,63524:0:0:0:0:
192,192,63524,128,2,63661:0:0:0:0:
320,192,63524,1,0,0:0:0:0:
64,192,63661,128,0,63797:0:0:0:0:
192,192,63797,1,8,0:0:0:0:
320,192,63797,1,0,0:0:0:0:
448,192,63797,1,0,0:0:0:0:
64,192,63933,128,0,64070:0:0:0:0:
192,192,64070,1,2,0:0:0:0:
448,192,64070,128,0,64206:0:0:0:0:
64,192,64342,128,2,64615:0:0:0:0:
448,192,64342,1,0,0:0:0:0:
192,192,64411,128,0,64615:0:0:0:0:
320,192,64479,128,0,64615:0:0:0:0:
448,192,64615,128,0,64752:0:0:0:0:
64,192,64752,128,0,64888:0:0:0:0:
320,192,64888,1,8,0:0:0:0:
448,192,64888,1,0,0:0:0:0:
192,192,64956,128,0,65024:0:0:0:0:
320,192,65024,128,0,65161:0:0:0:0:
192,192,65161,128,0,65229:0:0:0:0:
320,192,65297,1,2,0:0:0:0:
448,192,65297,128,0,65433:0:0:0:0:
64,192,65433,1,0,0:0:0:0:
192,192,65570,128,0,65706:0:0:0:0:
64,192,65706,128,2,65842:0:0:0:0:
448,192,65706,1,0,0:0:0:0:
320,192,65842,128,0,65979:0:0:0:0:
64,192,65979,1,8,0:0:0:0:
192,192,65979,1,0,0:0:0:0:
448,192,65979,128,0,66115:0:0:0:0:
192,192,66115,128,0,66252:0:0:0:0:
64,192,66183,128,0,66252:0:0:0:0:
320,192,66252,1,2,0:0:0:0:
448,192,66252,1,0,0:0:0:0:
64,192,66388,128,0,66524:0:0:0:0:
192,192,66524,1,2,0:0:0:0:
448,192,66524,1,0,0:0:0:0:
320,192,66661,128,0,66729:0:0:0:0:
192,192,66729,128,0,66797:0:0:0:0:
64,192,66797,128,0,66933:0:0:0:0:
448,192,66797,1,0,0:0:0:0:
448,192,66933,128,0,67070:0:0:0:0:
64,192,67070,1,8,0:0:0:0:
192,192,67070,1,0,0:0:0:0:
320,192,67070,1,0,0:0:0:0:
320,192,67206,1,0,0:0:0:0:
192,192,67342,1,0,0:0:0:0:
320,192,67479,1,2,0:0:0:0:
448,192,67479,128,0,67615:0:0:0:0:
64,192,67615,1,0,0:0:0:0:
64,192,67752,128,0,67888:0:0:0:0:
320,192,67888,128,2,68024:0:0:0:0:
448,192,67888,1,0,0:0:0:0:
192,192,68024,128,0,68161:0:0:0:0:
64,192,68161,1,8,0:0:0:0:
320,192,68161,1,0,0:0:0:0:
448,192,68161,128,0,68297:0:0:0:0:
64,192,68297,128,0,68433:0:0:0:0:
192,192,68365,128,0,68433:0:0:0:0:
320,192,68433,1,2,0:0:0:0:
448,192,68433,1,0,0:0:0:0:
192,192,68570,128,0,68706:0:0:0:0:
64,192,68706,1,2,0:0:0:0:
448,192,68706,128,0,68979:0:0:0:0:
320,192,68774,128,0,68979:0:0:0:0:
192,192,68842,128,0,68979:0:0:0:0:
64,192,68979,128,0,69047:0:0:0:0:
448,192,69115,128,0,69183:0:0:0:0:
64,192,69252,1,8,0:0:0:0:
192,192,69252,1,0,0:0:0:0:
320,192,69252,1,0,0:0:0:0:
448,192,69320,128,0,69456:0:0:0:0:
64,192,69524,1,0,0:0:0:0:
64,192,69661,1,2,0:0:0:0:
448,192,69661,128,0,69797:0:0:0:0:
320,192,69797,1,0,0:0:0:0:
192,192,69933,128,0,70070:0:0:0:0:
320,192,70070,1,2,0:0:0:0:
448,192,70070,128,0,70206:0:0:0:0:
192,192,70206,128,0,70342:0:0:0:0:
64,192,70342,128,8,70479:0:0:0:0:
320,192,70342,1,0,0:0:0:0:
448,192,70342,1,0,0:0:0:0:
448,192,70479,128,0,70615:0:0:0:0:
320,192,70547,128,0,70615:0:0:0:0:
64,192,70615,128,2,70888:0:0:0:0:
192,192,70615,1,0,0:0:0:0:
320,192,70888,1,0,0:0:0:63:soft-hitwhistle.wav
448,192,70888,1,0,0:0:0:0:
448,192,71024,1,0,0:0:0:0:
64,192,71161,1,0,0:0:0:53:soft-hitwhistle.wav
192,192,71161,1,0,0:0:0:0:
64,192,71297,1,0,0:0:0:0:
320,192,71433,1,0,0:0:0:43:soft-hitwhistle.wav
448,192,71433,1,0,0:0:0:0:
320,192,71570,1,0,0:0:0:0:
64,192,71706,1,0,0:0:0:33:soft-hitwhistle.wav
192,192,71706,1,0,0:0:0:0:
192,192,71842,1,0,0:0:0:0:
64,192,71979,1,0,0:0:0:30:soft-hitwhistle.wav
320,192,71979,1,0,0:0:0:0:
192,192,72115,1,0,0:0:0:27:soft-hitwhistle.wav
448,192,72115,1,0,0:0:0:0:
320,192,72252,1,0,0:0:0:24:soft-hitwhistle.wav
448,192,72252,1,0,0:0:0:0:
64,192,72388,1,0,0:0:0:21:soft-hitwhistle.wav
192,192,72388,1,0,0:0:0:0:
192,192,72524,1,0,0:0:0:18:soft-hitwhistle.wav
448,192,72524,1,0,0:0:0:0:
64,192,72661,1,0,0:0:0:15:soft-hitwhistle.wav
320,192,72661,1,0,0:0:0:0:
192,192,72797,1,0,0:0:0:12:soft-hitwhistle.wav
448,192,72797,128,0,73002:0:0:0:0:
64,192,73070,1,4,0:0:0:0:
320,192,73070,1,0,0:0:0:30:soft-hitwhistle.wav
448,192,73070,1,0,0:0:0:0:
192,192,73206,1,0,0:0:0:0:
320,192,73342,1,0,0:0:0:0:
448,192,73342,1,0,0:0:0:0:
192,192,73479,1,0,0:0:0:0:
64,192,73615,1,0,0:0:0:0:
448,192,73615,1,0,0:0:0:0:
192,192,73752,1,0,0:0:0:0:
320,192,73752,1,0,0:0:0:0:
448,192,73888,1,0,0:0:0:0:
64,192,74024,1,0,0:0:0:0:
320,192,74024,1,0,0:0:0:0:
192,192,74161,1,0,0:0:0:0:
448,192,74161,1,0,0:0:0:0:
64,192,74297,1,0,0:0:0:0:
320,192,74433,1,0,0:0:0:0:
448,192,74433,1,0,0:0:0:0:
192,192,74570,1,0,0:0:0:0:
320,192,74706,1,0,0:0:0:0:
448,192,74706,1,0,0:0:0:0:
64,192,74842,1,0,0:0:0:0:
448,192,74979,1,0,0:0:0:0:
320,192,75047,1,0,0:0:0:0:
64,192,75115,1,0,0:0:0:0:
192,192,75183,1,0,0:0:0:0:
320,192,75252,1,0,0:0:0:0:
448,192,75252,1,0,0:0:0:0:
192,192,75388,1,0,0:0:0:0:
64,192,75524,1,0,0:0:0:0:
448,192,75524,1,0,0:0:0:0:
192,192,75661,1,0,0:0:0:0:
64,192,75797,1,0,0:0:0:0:
448,192,75797,1,0,0:0:0:0:
192,192,75933,1,0,0:0:0:0:
320,192,75933,1,0,0:0:0:0:
448,192,76070,1,0,0:0:0:0:
64,192,76206,1,0,0:0:0:0:
192,192,76206,1,0,0:0:0:0:
320,192,76342,1,0,0:0:0:0:
448,192,76342,1,0,0:0:0:0:
192,192,76411,1,0,0:0:0:0:
64,192,76479,1,0,0:0:0:0:
320,192,76615,1,0,0:0:0:0:
448,192,76615,1,0,0:0:0:0:
192,192,76683,1,0,0:0:0:0:
64,192,76752,1,0,0:0:0:0:
320,192,76888,1,0,0:0:0:0:
448,192,76888,1,0,0:0:0:0:
192,192,77024,1,0,0:0:0:0:
64,192,77161,1,0,0:0:0:0:
448,192,77161,1,0,0:0:0:0:
320,192,77297,1,0,0:0:0:0:
64,192,77433,1,0,0:0:0:0:
448,192,77433,1,0,0:0:0:0:
192,192,77570,1,0,0:0:0:0:
320,192,77706,1,0,0:0:0:0:
192,192,77842,1,0,0:0:0:0:
64,192,77979,1,0,0:0:0:0:
448,192,77979,1,0,0:0:0:0:
320,192,78115,1,0,0:0:0:0:
192,192,78252,1,0,0:0:0:0:
320,192,78388,1,0,0:0:0:0:
64,192,78524,1,0,0:0:0:0:
192,192,78524,1,0,0:0:0:0:
320,192,78661,1,0,0:0:0:0:
192,192,78797,1,0,0:0:0:0:
448,192,78933,1,0,0:0:0:0:
64,192,79070,1,0,0:0:0:0:
192,192,79070,1,0,0:0:0:0:
320,192,79206,1,0,0:0:0:0:
64,192,79342,1,0,0:0:0:0:
192,192,79411,1,0,0:0:0:0:
448,192,79479,1,0,0:0:0:0:
320,192,79547,1,0,0:0:0:0:
64,192,79615,1,0,0:0:0:0:
192,192,79615,1,0,0:0:0:0:
320,192,79752,1,0,0:0:0:0:
64,192,79888,1,0,0:0:0:0:
448,192,79888,1,0,0:0:0:0:
192,192,80024,1,0,0:0:0:0:
320,192,80161,1,0,0:0:0:0:
448,192,80161,1,0,0:0:0:0:
64,192,80297,1,0,0:0:0:0:
192,192,80297,1,0,0:0:0:0:
320,192,80433,1,0,0:0:0:0:
192,192,80570,1,0,0:0:0:0:
64,192,80706,1,0,0:0:0:0:
448,192,80706,1,0,0:0:0:0:
320,192,80774,1,0,0:0:0:0:
64,192,80842,1,0,0:0:0:0:
64,192,80979,1,0,0:0:0:0:
448,192,80979,1,0,0:0:0:0:
192,192,81047,1,0,0:0:0:0:
448,192,81115,1,0,0:0:0:0:
320,192,81252,1,0,0:0:0:0:
192,192,81524,1,0,0:0:0:0:
64,192,81797,1,4,0:0:0:0:
320,192,81797,1,0,0:0:0:73:fat kick.wav
448,192,81797,1,0,0:0:0:0:
64,192,81933,1,0,0:0:0:0:
192,192,81933,1,0,0:0:0:0:
320,192,82070,1,0,0:0:0:73:fat kick.wav
448,192,82070,1,0,0:0:0:0:
192,192,82206,1,0,0:0:0:0:
448,192,82206,1,0,0:0:0:0:
64,192,82342,1,0,0:0:0:73:fat kick.wav
320,192,82342,1,0,0:0:0:0:
64,192,82479,1,0,0:0:0:0:
192,192,82479,1,0,0:0:0:0:
320,192,82615,1,0,0:0:0:73:fat kick.wav
448,192,82615,1,0,0:0:0:0:
192,192,82752,1,0,0:0:0:0:
448,192,82752,1,0,0:0:0:0:
64,192,82888,1,0,0:0:0:73:fat kick.wav
320,192,82888,1,0,0:0:0:0:
64,192,83024,128,0,83161:0:0:0:0:
192,192,83161,1,0,0:0:0:73:fat kick.wav
448,192,83161,1,0,0:0:0:0:
448,192,83297,128,0,83433:0:0:0:0:
64,192,83433,1,0,0:0:0:73:fat kick.wav
192,192,83433,1,0,0:0:0:0:
192,192,83570,128,0,83706:0:0:0:0:
320,192,83706,1,0,0:0:0:73:fat kick.wav
448,192,83706,1,0,0:0:0:0:
320,192,83842,128,0,83979:0:0:0:0:
64,192,83979,1,0,0:0:0:73:fat kick.wav
448,192,83979,1,0,0:0:0:0:
320,192,84115,1,0,0:0:0:0:
448,192,84115,1,0,0:0:0:0:
64,192,84252,1,0,0:0:0:73:fat kick.wav
192,192,84252,1,0,0:0:0:0:
64,192,84388,1,0,0:0:0:0:
320,192,84388,1,0,0:0:0:0:
192,192,84524,1,0,0:0:0:73:fat kick.wav
448,192,84524,1,0,0:0:0:0:
320,192,84661,1,0,0:0:0:0:
448,192,84661,1,0,0:0:0:0:
64,192,84797,1,0,0:0:0:73:fat kick.wav
192,192,84797,1,0,0:0:0:0:
64,192,84933,1,0,0:0:0:0:
320,192,84933,1,0,0:0:0:0:
192,192,85070,1,0,0:0:0:73:fat kick.wav
448,192,85070,1,0,0:0:0:0:
448,192,85206,128,0,85342:0:0:0:0:
64,192,85342,1,0,0:0:0:73:fat kick.wav
320,192,85342,1,0,0:0:0:0:
64,192,85479,128,0,85615:0:0:0:0:
320,192,85615,1,0,0:0:0:73:fat kick.wav
448,192,85615,1,0,0:0:0:0:
320,192,85752,128,0,85888:0:0:0:0:
64,192,85888,1,0,0:0:0:73:fat kick.wav
192,192,85888,1,0,0:0:0:0:
192,192,86024,128,0,86161:0:0:0:0:
320,192,86161,1,0,0:0:0:73:fat kick.wav
448,192,86161,1,0,0:0:0:0:
192,192,86229,1,0,0:0:0:73:fat kick.wav
64,192,86297,1,0,0:0:0:73:fat kick.wav
448,192,86297,1,0,0:0:0:0:
320,192,86365,1,0,0:0:0:73:fat kick.wav
64,192,86433,1,0,0:0:0:73:fat kick.wav
192,192,86433,1,0,0:0:0:0:
448,192,86433,1,0,0:0:0:0:
320,192,86570,1,0,0:0:0:73:fat kick.wav
448,192,86570,1,0,0:0:0:0:
64,192,86706,1,0,0:0:0:73:fat kick.wav
192,192,86706,1,0,0:0:0:0:
192,192,86842,1,0,0:0:0:73:fat kick.wav
448,192,86842,1,0,0:0:0:0:
64,192,86979,1,0,0:0:0:73:fat kick.wav
320,192,86979,1,0,0:0:0:0:
448,192,86979,1,0,0:0:0:0:
64,192,87115,1,0,0:0:0:73:fat kick.wav
192,192,87115,1,0,0:0:0:0:
320,192,87252,1,0,0:0:0:73:fat kick.wav
448,192,87252,1,0,0:0:0:0:
64,192,87320,1,0,0:0:0:73:fat kick.wav
192,192,87388,1,0,0:0:0:73:fat kick.wav
320,192,87388,1,0,0:0:0:0:
448,192,87456,1,0,0:0:0:73:fat kick.wav
64,192,87524,1,0,0:0:0:73:fat kick.wav
192,192,87524,1,0,0:0:0:0:
320,192,87524,1,0,0:0:0:0:
64,192,87661,1,0,0:0:0:73:fat kick.wav
448,192,87661,1,0,0:0:0:0:
192,192,87797,1,0,0:0:0:73:fat kick.wav
448,192,87797,1,0,0:0:0:0:
192,192,87933,1,0,0:0:0:73:fat kick.wav
320,192,87933,1,0,0:0:0:0:
64,192,88070,1,0,0:0:0:73:fat kick.wav
320,192,88070,1,0,0:0:0:0:
448,192,88070,1,0,0:0:0:0:
192,192,88206,1,0,0:0:0:0:
320,192,88342,1,0,0:0:0:73:fat kick.wav
448,192,88342,1,0,0:0:0:0:
64,192,88411,1,0,0:0:0:73:fat kick.wav
192,192,88479,1,0,0:0:0:73:fat kick.wav
448,192,88479,1,0,0:0:0:0:
320,192,88547,1,0,0:0:0:73:fat kick.wav
64,192,88615,1,0,0:0:0:73:fat kick.wav
192,192,88615,1,0,0:0:0:0:
448,192,88683,1,0,0:0:0:73:fat kick.wav
64,192,88752,1,0,0:0:0:73:fat kick.wav
320,192,88752,1,0,0:0:0:0:
192,192,88820,1,0,0:0:0:73:fat kick.wav
320,192,88888,1,0,0:0:0:70:fat kick.wav
448,192,88888,1,0,0:0:0:0:
64,192,88956,1,0,0:0:0:65:fat kick.wav
192,192,89024,1,0,0:0:0:60:fat kick.wav
320,192,89092,1,0,0:0:0:55:fat kick.wav
64,192,89161,1,0,0:0:0:50:fat kick.wav
192,192,89161,1,0,0:0:0:0:
448,192,89229,1,0,0:0:0:45:fat kick.wav
320,192,89297,1,0,0:0:0:40:fat kick.wav
192,192,89365,1,0,0:0:0:35:fat kick.wav
64,192,89433,1,0,0:0:0:0:
320,192,89433,1,0,0:0:0:0:
448,192,89433,1,0,0:0:0:0:
320,192,89706,1,0,0:0:0:0:
448,192,89706,1,0,0:0:0:0:
448,192,89979,1,0,0:0:0:0:
64,192,90252,1,0,0:0:0:0:
192,192,90252,1,0,0:0:0:0:
320,192,90388,1,0,0:0:0:0:
448,192,90388,1,0,0:0:0:0:
64,192,90524,1,4,0:0:0:0:
192,192,90524,1,0,0:0:0:73:fat kick.wav
448,192,90524,1,0,0:0:0:0:
192,192,90661,1,0,0:0:0:0:
64,192,90797,1,0,0:0:0:73:fat kick.wav
448,192,90797,1,0,0:0:0:0:
64,192,90933,1,0,0:0:0:0:
320,192,90933,1,0,0:0:0:0:
320,192,91070,1,0,0:0:0:73:fat kick.wav
448,192,91070,1,0,0:0:0:0:
64,192,91206,1,0,0:0:0:0:
192,192,91206,1,0,0:0:0:0:
192,192,91342,1,0,0:0:0:73:fat kick.wav
448,192,91342,1,0,0:0:0:0:
64,192,91479,1,0,0:0:0:0:
192,192,91479,1,0,0:0:0:0:
320,192,91615,1,0,0:0:0:73:fat kick.wav
448,192,91615,1,0,0:0:0:0:
64,192,91752,1,0,0:0:0:0:
448,192,91752,1,0,0:0:0:0:
64,192,91888,1,0,0:0:0:73:fat kick.wav
192,192,91888,1,0,0:0:0:0:
192,192,92024,1,0,0:0:0:0:
448,192,92024,1,0,0:0:0:0:
320,192,92161,1,0,0:0:0:73:fat kick.wav
448,192,92161,1,0,0:0:0:0:
64,192,92297,1,0,0:0:0:0:
192,192,92297,1,0,0:0:0:0:
192,192,92433,1,0,0:0:0:73:fat kick.wav
320,192,92433,1,0,0:0:0:0:
64,192,92570,1,0,0:0:0:0:
320,192,92570,1,0,0:0:0:0:
192,192,92706,1,0,0:0:0:73:fat kick.wav
448,192,92706,1,0,0:0:0:0:
192,192,92842,1,0,0:0:0:0:
64,192,92979,1,0,0:0:0:73:fat kick.wav
448,192,92979,1,0,0:0:0:0:
320,192,93115,1,0,0:0:0:0:
448,192,93115,1,0,0:0:0:0:
64,192,93252,1,0,0:0:0:73:fat kick.wav
320,192,93252,1,0,0:0:0:0:
64,192,93388,1,0,0:0:0:0:
192,192,93388,1,0,0:0:0:0:
320,192,93524,1,0,0:0:0:73:fat kick.wav
448,192,93524,1,0,0:0:0:0:
192,192,93661,1,0,0:0:0:0:
320,192,93661,1,0,0:0:0:0:
64,192,93797,1,0,0:0:0:73:fat kick.wav
448,192,93797,1,0,0:0:0:0:
64,192,93933,1,0,0:0:0:0:
192,192,93933,1,0,0:0:0:0:
64,192,94070,1,0,0:0:0:73:fat kick.wav
448,192,94070,1,0,0:0:0:0:
192,192,94206,1,0,0:0:0:0:
320,192,94206,1,0,0:0:0:0:
192,192,94342,1,0,0:0:0:73:fat kick.wav
448,192,94342,1,0,0:0:0:0:
64,192,94479,1,0,0:0:0:0:
320,192,94479,1,0,0:0:0:0:
64,192,94615,1,0,0:0:0:73:fat kick.wav
192,192,94615,1,0,0:0:0:0:
192,192,94752,1,0,0:0:0:73:fat kick.wav
320,192,94752,1,0,0:0:0:0:
64,192,94820,1,0,0:0:0:73:fat kick.wav
320,192,94888,1,0,0:0:0:73:fat kick.wav
448,192,94888,1,0,0:0:0:0:
448,192,95024,1,0,0:0:0:0:
64,192,95161,1,0,0:0:0:73:fat kick.wav
320,192,95161,1,0,0:0:0:0:
64,192,95297,1,0,0:0:0:0:
192,192,95297,1,0,0:0:0:0:
192,192,95433,1,0,0:0:0:73:fat kick.wav
320,192,95433,1,0,0:0:0:0:
64,192,95570,1,0,0:0:0:0:
448,192,95570,1,0,0:0:0:0:
192,192,95706,1,0,0:0:0:73:fat kick.wav
448,192,95706,1,0,0:0:0:0:
64,192,95842,1,0,0:0:0:0:
448,192,95842,1,0,0:0:0:0:
192,192,95979,1,0,0:0:0:73:fat kick.wav
320,192,95979,1,0,0:0:0:0:
192,192,96115,1,0,0:0:0:0:
448,192,96115,1,0,0:0:0:0:
320,192,96252,1,0,0:0:0:73:fat kick.wav
448,192,96252,1,0,0:0:0:0:
64,192,96388,1,0,0:0:0:0:
320,192,96388,1,0,0:0:0:0:
64,192,96524,1,0,0:0:0:73:fat kick.wav
192,192,96524,1,0,0:0:0:0:
320,192,96661,1,0,0:0:0:0:
448,192,96661,1,0,0:0:0:0:
64,192,96797,1,0,0:0:0:73:fat kick.wav
448,192,96797,1,0,0:0:0:0:
64,192,96933,1,0,0:0:0:0:
192,192,96933,1,0,0:0:0:0:
192,192,97070,1,0,0:0:0:73:fat kick.wav
448,192,97070,1,0,0:0:0:0:
448,192,97206,1,0,0:0:0:0:
192,192,97342,1,0,0:0:0:73:fat kick.wav
320,192,97342,1,0,0:0:0:0:
192,192,97479,1,0,0:0:0:0:
448,192,97479,1,0,0:0:0:0:
64,192,97615,1,0,0:0:0:73:fat kick.wav
448,192,97615,1,0,0:0:0:0:
64,192,97752,1,0,0:0:0:0:
320,192,97752,1,0,0:0:0:0:
320,192,97888,1,0,0:0:0:73:fat kick.wav
448,192,97888,1,0,0:0:0:0:
192,192,98024,1,0,0:0:0:0:
448,192,98024,1,0,0:0:0:0:
64,192,98161,1,0,0:0:0:73:fat kick.wav
320,192,98161,1,0,0:0:0:0:
64,192,98297,1,0,0:0:0:73:fat kick.wav
448,192,98297,128,0,98433:0:0:0:0:
64,192,98433,1,0,0:0:0:73:fat kick.wav
192,192,98433,1,0,0:0:0:0:
192,192,98570,1,0,0:0:0:73:fat kick.wav
320,192,98570,1,0,0:0:0:0:
448,192,98638,1,0,0:0:0:73:fat kick.wav
64,192,98706,1,0,0:0:0:0:
320,192,98706,1,0,0:0:0:0:
64,192,98842,1,0,0:0:0:0:
192,192,98842,1,0,0:0:0:0:
320,192,98911,1,0,0:0:0:0:
448,192,98979,128,0,99183:0:0:0:0:
64,192,99115,128,0,99252:0:0:0:0:
192,192,99252,1,4,0:0:0:0:
320,192,99252,1,0,0:0:0:73:fat kick.wav
448,192,99252,1,0,0:0:0:0:
64,192,99388,1,0,0:0:0:0:
320,192,99388,1,0,0:0:0:0:
64,192,99524,1,0,0:0:0:73:fat kick.wav
192,192,99524,1,0,0:0:0:0:
192,192,99661,1,0,0:0:0:0:
448,192,99661,1,0,0:0:0:0:
320,192,99797,1,0,0:0:0:73:fat kick.wav
448,192,99797,1,0,0:0:0:0:
64,192,99933,1,0,0:0:0:0:
320,192,99933,1,0,0:0:0:0:
64,192,100070,1,0,0:0:0:73:fat kick.wav
192,192,100070,1,0,0:0:0:0:
192,192,100206,1,0,0:0:0:0:
448,192,100206,1,0,0:0:0:0:
64,192,100342,1,0,0:0:0:73:fat kick.wav
320,192,100342,1,0,0:0:0:0:
448,192,100411,1,0,0:0:0:0:
192,192,100479,1,0,0:0:0:0:
320,192,100547,1,0,0:0:0:0:
64,192,100615,1,0,0:0:0:73:fat kick.wav
448,192,100615,1,0,0:0:0:0:
192,192,100752,1,0,0:0:0:0:
64,192,100820,1,0,0:0:0:0:
320,192,100888,1,0,0:0:0:73:fat kick.wav
448,192,100888,1,0,0:0:0:0:
192,192,101024,1,0,0:0:0:0:
448,192,101024,1,0,0:0:0:0:
64,192,101161,1,0,0:0:0:73:fat kick.wav
320,192,101161,1,0,0:0:0:0:
64,192,101297,1,0,0:0:0:0:
448,192,101297,1,0,0:0:0:0:
320,192,101433,1,0,0:0:0:73:fat kick.wav
448,192,101433,1,0,0:0:0:0:
64,192,101570,1,0,0:0:0:0:
320,192,101570,1,0,0:0:0:0:
64,192,101706,1,0,0:0:0:73:fat kick.wav
192,192,101706,1,0,0:0:0:0:
192,192,101842,1,0,0:0:0:0:
448,192,101842,1,0,0:0:0:0:
320,192,101979,1,0,0:0:0:73:fat kick.wav
448,192,101979,1,0,0:0:0:0:
64,192,102115,1,0,0:0:0:0:
320,192,102115,1,0,0:0:0:0:
64,192,102252,1,0,0:0:0:73:fat kick.wav
192,192,102252,1,0,0:0:0:0:
192,192,102388,1,0,0:0:0:0:
448,192,102388,1,0,0:0:0:0:
64,192,102524,1,0,0:0:0:73:fat kick.wav
320,192,102524,1,0,0:0:0:0:
448,192,102592,1,0,0:0:0:0:
192,192,102661,128,0,102797:0:0:0:73:fat kick.wav
320,192,102729,1,0,0:0:0:73:fat kick.wav
64,192,102797,1,0,0:0:0:73:fat kick.wav
448,192,102797,1,0,0:0:0:0:
320,192,102865,1,0,0:0:0:73:fat kick.wav
64,192,102933,1,0,0:0:0:73:fat kick.wav
192,192,102933,1,0,0:0:0:0:
448,192,103002,1,0,0:0:0:73:fat kick.wav
64,192,103070,1,0,0:0:0:73:fat kick.wav
320,192,103070,1,0,0:0:0:0:
192,192,103206,1,0,0:0:0:73:fat kick.wav
448,192,103206,1,0,0:0:0:0:
320,192,103342,1,0,0:0:0:73:fat kick.wav
448,192,103342,1,0,0:0:0:0:
192,192,103479,1,0,0:0:0:0:
320,192,103615,1,0,0:0:0:73:Splash.wav
448,192,103615,1,0,0:0:0:73:fat kick.wav
64,192,103752,1,0,0:0:0:73:fat kick.wav
448,192,103752,1,0,0:0:0:0:
64,192,103888,1,0,0:0:0:0:
320,192,104024,1,0,0:0:0:73:fat kick.wav
448,192,104024,1,0,0:0:0:0:
64,192,104161,1,0,0:0:0:73:Splash.wav
448,192,104161,1,0,0:0:0:73:fat kick.wav
192,192,104297,1,0,0:0:0:73:fat kick.wav
320,192,104297,1,0,0:0:0:0:
192,192,104433,1,0,0:0:0:0:
320,192,104570,1,0,0:0:0:73:fat kick.wav
448,192,104570,1,0,0:0:0:0:
64,192,104706,1,0,0:0:0:73:Splash.wav
320,192,104706,1,0,0:0:0:73:fat kick.wav
64,192,104842,1,0,0:0:0:73:fat kick.wav
320,192,104842,1,0,0:0:0:0:
448,192,104979,1,0,0:0:0:0:
64,192,105115,1,0,0:0:0:73:fat kick.wav
192,192,105115,1,0,0:0:0:0:
192,192,105252,1,0,0:0:0:73:Splash.wav
448,192,105252,1,0,0:0:0:73:fat kick.wav
192,192,105388,1,0,0:0:0:73:fat kick.wav
448,192,105388,1,0,0:0:0:0:
64,192,105524,1,0,0:0:0:0:
320,192,105661,1,0,0:0:0:73:fat kick.wav
448,192,105661,1,0,0:0:0:0:
64,192,105797,1,0,0:0:0:73:fat kick.wav
192,192,105797,1,0,0:0:0:0:
64,192,105933,1,0,0:0:0:73:fat kick.wav
192,192,105933,1,0,0:0:0:0:
320,192,106070,1,0,0:0:0:73:fat kick.wav
448,192,106070,1,0,0:0:0:0:
192,192,106206,1,0,0:0:0:73:fat kick.wav
64,192,106342,1,0,0:0:0:73:fat kick.wav
448,192,106342,1,0,0:0:0:0:
320,192,106411,1,0,0:0:0:73:fat kick.wav
64,192,106479,1,0,0:0:0:73:fat kick.wav
448,192,106479,1,0,0:0:0:0:
192,192,106547,1,0,0:0:0:73:fat kick.wav
320,192,106615,1,0,0:0:0:73:fat kick.wav
448,192,106615,1,0,0:0:0:0:
64,192,106752,1,0,0:0:0:73:fat kick.wav
320,192,106752,1,0,0:0:0:0:
192,192,106888,1,0,0:0:0:73:Splash.wav
448,192,106888,1,0,0:0:0:73:fat kick.wav
192,192,107024,1,0,0:0:0:0:
64,192,107161,1,0,0:0:0:73:Splash.wav
320,192,107161,1,0,0:0:0:73:fat kick.wav
320,192,107297,1,0,0:0:0:0:
192,192,107433,1,0,0:0:0:73:fat kick.wav
448,192,107433,1,0,0:0:0:0:
320,192,107570,1,0,0:0:0:73:fat kick.wav
448,192,107570,1,0,0:0:0:0:
64,192,107706,1,0,0:0:0:73:fat kick.wav
320,192,107706,1,0,0:0:0:0:
64,192,107842,1,0,0:0:0:73:fat kick.wav
192,192,107842,1,0,0:0:0:0:
192,192,107979,1,4,0:0:0:0:
320,192,107979,1,2,0:0:0:0:
448,192,107979,1,0,0:0:0:0:
64,192,108115,1,0,0:0:0:0:
320,192,108252,1,0,0:0:0:0:
448,192,108252,1,0,0:0:0:0:
192,192,108388,1,0,0:0:0:0:
64,192,108524,1,8,0:0:0:0:
320,192,108524,1,0,0:0:0:0:
448,192,108524,1,0,0:0:0:0:
192,192,108661,1,0,0:0:0:0:
320,192,108797,1,0,0:0:0:0:
64,192,108933,1,0,0:0:0:0:
192,192,108933,1,0,0:0:0:0:
320,192,109070,1,2,0:0:0:0:
448,192,109070,1,0,0:0:0:0:
192,192,109206,1,0,0:0:0:0:
64,192,109342,1,0,0:0:0:0:
448,192,109342,1,0,0:0:0:0:
320,192,109479,1,0,0:0:0:0:
64,192,109615,1,8,0:0:0:0:
192,192,109615,1,0,0:0:0:0:
448,192,109615,1,0,0:0:0:0:
320,192,109752,1,0,0:0:0:0:
64,192,109888,1,0,0:0:0:0:
192,192,109888,1,0,0:0:0:0:
320,192,110024,1,0,0:0:0:0:
64,192,110161,1,2,0:0:0:0:
448,192,110161,1,0,0:0:0:0:
192,192,110297,1,0,0:0:0:0:
320,192,110433,1,0,0:0:0:0:
448,192,110433,1,0,0:0:0:0:
64,192,110570,1,0,0:0:0:0:
192,192,110706,1,8,0:0:0:0:
320,192,110706,1,0,0:0:0:0:
448,192,110706,1,0,0:0:0:0:
64,192,110842,1,0,0:0:0:0:
320,192,110979,1,0,0:0:0:0:
64,192,111115,1,0,0:0:0:0:
192,192,111115,1,0,0:0:0:0:
320,192,111252,1,2,0:0:0:0:
448,192,111252,1,0,0:0:0:0:
192,192,111388,1,0,0:0:0:0:
64,192,111524,1,0,0:0:0:0:
448,192,111524,1,0,0:0:0:0:
320,192,111661,1,0,0:0:0:0:
64,192,111797,1,8,0:0:0:0:
192,192,111797,1,0,0:0:0:0:
448,192,111797,1,0,0:0:0:0:
320,192,111933,1,0,0:0:0:0:
64,192,112070,1,2,0:0:0:0:
192,192,112070,1,0,0:0:0:0:
448,192,112206,1,0,0:0:0:0:
64,192,112342,1,2,0:0:0:0:
320,192,112342,1,0,0:0:0:0:
192,192,112479,1,0,0:0:0:0:
320,192,112615,1,0,0:0:0:0:
448,192,112615,1,0,0:0:0:0:
64,192,112752,1,0,0:0:0:0:
192,192,112888,1,8,0:0:0:0:
320,192,112888,1,0,0:0:0:0:
448,192,112888,1,0,0:0:0:0:
64,192,113024,1,0,0:0:0:0:
448,192,113161,1,0,0:0:0:0:
64,192,113297,1,0,0:0:0:0:
320,192,113297,1,0,0:0:0:0:
192,192,113433,1,2,0:0:0:0:
448,192,113433,1,0,0:0:0:0:
64,192,113570,1,0,0:0:0:0:
320,192,113706,1,0,0:0:0:0:
448,192,113706,1,0,0:0:0:0:
192,192,113842,1,0,0:0:0:0:
64,192,113979,1,8,0:0:0:0:
320,192,113979,1,0,0:0:0:0:
448,192,113979,1,0,0:0:0:0:
192,192,114115,1,0,0:0:0:0:
64,192,114252,1,0,0:0:0:0:
448,192,114252,1,0,0:0:0:0:
320,192,114388,1,0,0:0:0:0:
64,192,114524,1,2,0:0:0:0:
192,192,114524,1,0,0:0:0:0:
448,192,114661,1,0,0:0:0:0:
192,192,114797,1,0,0:0:0:0:
320,192,114797,1,0,0:0:0:0:
64,192,114933,1,0,0:0:0:0:
192,192,115070,1,8,0:0:0:0:
320,192,115070,1,0,0:0:0:0:
448,192,115070,1,0,0:0:0:0:
64,192,115206,1,0,0:0:0:0:
192,192,115342,1,0,0:0:0:0:
320,192,115479,1,0,0:0:0:0:
448,192,115479,1,0,0:0:0:0:
64,192,115615,1,2,0:0:0:0:
192,192,115615,1,0,0:0:0:0:
320,192,115752,1,0,0:0:0:0:
192,192,115888,1,0,0:0:0:0:
320,192,116024,1,0,0:0:0:0:
64,192,116161,1,8,0:0:0:0:
192,192,116161,1,0,0:0:0:0:
448,192,116161,1,0,0:0:0:0:
192,192,116433,1,0,0:0:0:0:
320,192,116740,128,0,117149:0:0:0:0:
448,192,116740,128,0,117388:0:0:0:0:
