osu file format v14

[General]
AudioFilename: audio.mp3
AudioLeadIn: 0
PreviewTime: 79974
Countdown: 0
SampleSet: Normal
StackLeniency: 0.7
Mode: 1
LetterboxInBreaks: 0
WidescreenStoryboard: 1

[Editor]
DistanceSpacing: 0.4
BeatDivisor: 1
GridSize: 16
TimelineZoom: 2.1

[Metadata]
Title:OCCHOCO-REST-LESS
TitleUnicode:OCCHOCO-REST-LESS
Artist:MYUKKE.
ArtistUnicode:MYUKKE.
Creator:Emre1504
Version:HiroK's Kantan
Source:osu!
Tags:featured artist fa future house dynamix electronic instrumental video game Muse Dash Happy Otaku Pack MUSIC快楽天 Vol.12 mpg mappers' guild hirok
BeatmapID:3095279
BeatmapSetID:1474029

[Difficulty]
HPDrainRate:8
CircleSize:5
OverallDifficulty:3
ApproachRate:5
SliderMultiplier:1.4
SliderTickRate:1

[Events]
//Background and Video events
0,0,"bg_occhoco.jpg",0,0
//Break Periods
2,58850,64561
//Storyboard Layer 0 (Background)
//Storyboard Layer 1 (Fail)
//Storyboard Layer 2 (Pass)
//Storyboard Layer 3 (Foreground)
//Storyboard Layer 4 (Overlay)
//Storyboard Sound Samples

[TimingPoints]
1762,444.444444444444,4,1,0,65,1,0
1762,-105.263157894737,4,1,0,65,0,0
15984,-105.263157894737,4,1,0,75,0,0
30206,-105.263157894737,4,1,0,80,0,0
44873,-105.263157894737,4,1,0,100,0,1
58650,-105.263157894737,4,1,0,65,0,0
65761,-105.263157894737,4,1,0,75,0,0
72873,-105.263157894737,4,1,0,65,0,0
74650,-105.263157894737,4,1,0,75,0,0
76428,-105.263157894737,4,1,0,85,0,0
79984,-105.263157894737,4,1,0,100,0,1
90650,-105.263157894737,4,1,0,90,0,0
94650,-105.263157894737,4,1,0,100,0,1
108428,-105.263157894737,4,1,0,75,0,0

[HitObjects]
256,192,1762,5,4,0:0:0:0:
256,192,2206,1,8,0:0:0:0:
256,192,3095,1,8,0:0:0:0:
256,192,3984,1,8,0:0:0:0:
256,192,4873,1,8,0:0:0:0:
256,192,5317,1,0,0:0:0:0:
256,192,5761,1,8,0:0:0:0:
256,192,6650,1,8,0:0:0:0:
256,192,7095,1,0,0:0:0:0:
256,192,7984,1,8,0:0:0:0:
256,192,8873,1,0,0:0:0:0:
256,192,9317,1,8,0:0:0:0:
256,192,10206,1,8,0:0:0:0:
256,192,11095,1,8,0:0:0:0:
256,192,11984,1,8,0:0:0:0:
256,192,12428,1,0,0:0:0:0:
256,192,12873,1,8,0:0:0:0:
256,192,13761,1,8,0:0:0:0:
256,192,14206,1,0,0:0:0:0:
256,192,15539,1,8,0:0:0:0:
256,192,15984,1,0,0:0:0:0:
256,192,16428,1,0,0:0:0:0:
256,192,16873,1,8,0:0:0:0:
256,192,17761,1,0,0:0:0:0:
256,192,18206,1,8,0:0:0:0:
256,192,18650,1,0,0:0:0:0:
256,192,19539,1,0,0:0:0:0:
256,192,19984,1,0,0:0:0:0:
256,192,20428,1,8,0:0:0:0:
256,192,21317,1,0,0:0:0:0:
256,192,22650,1,0,0:0:0:0:
256,192,23095,1,8,0:0:0:0:
256,192,23984,1,8,0:0:0:0:
256,192,24873,1,8,0:0:0:0:
256,192,25761,1,8,0:0:0:0:
256,192,26650,1,8,0:0:0:0:
256,192,27095,1,8,0:0:0:0:
256,192,27539,1,8,0:0:0:0:
256,192,28428,1,0,0:0:0:0:
256,192,29761,1,8,0:0:0:0:
256,192,30206,1,4,0:0:0:0:
256,192,31095,1,0,0:0:0:0:
256,192,31539,1,8,0:0:0:0:
256,192,31984,1,8,0:0:0:0:
256,192,32873,1,8,0:0:0:0:
256,192,33317,1,8,0:0:0:0:
256,192,33761,1,0,0:0:0:0:
256,192,34650,1,0,0:0:0:0:
256,192,35095,1,8,0:0:0:0:
256,192,35539,1,0,0:0:0:0:
256,192,36428,1,0,0:0:0:0:
256,192,37317,5,8,0:0:0:0:
256,192,38206,1,0,0:0:0:0:
256,192,38650,1,8,0:0:0:0:
256,192,39095,1,8,0:0:0:0:
256,192,39984,1,8,0:0:0:0:
256,192,40428,1,8,0:0:0:0:
256,192,40873,1,0,0:0:0:0:
256,192,41761,1,0,0:0:0:0:
256,192,42206,1,8,0:0:0:0:
256,192,42650,1,0,0:0:0:0:
256,192,43095,1,0,0:0:0:0:
256,192,43539,1,8,0:0:0:0:
256,192,44873,1,4,0:0:0:0:
256,192,45761,1,8,0:0:0:0:
256,192,46206,1,8,0:0:0:0:
256,192,47095,1,8,0:0:0:0:
256,192,47539,1,8,0:0:0:0:
256,192,47984,1,0,0:0:0:0:
256,192,48873,1,0,0:0:0:0:
256,192,49317,1,8,0:0:0:0:
256,192,49761,1,0,0:0:0:0:
256,192,50650,1,0,0:0:0:0:
256,192,51539,1,8,0:0:0:0:
256,192,52428,1,0,0:0:0:0:
256,192,52873,1,8,0:0:0:0:
256,192,53317,1,8,0:0:0:0:
256,192,54206,1,8,0:0:0:0:
256,192,54650,1,8,0:0:0:0:
256,192,55095,1,0,0:0:0:0:
256,192,55984,1,0,0:0:0:0:
256,192,56428,1,8,0:0:0:0:
256,192,56873,1,0,0:0:0:0:
256,192,58206,1,8,0:0:0:0:
256,192,58650,1,4,0:0:0:0:
256,192,65761,5,0,0:0:0:0:
256,192,66206,1,8,0:0:0:0:
256,192,66650,1,0,0:0:0:0:
256,192,67539,1,8,0:0:0:0:
256,192,68428,1,0,0:0:0:0:
256,192,69317,1,8,0:0:0:0:
256,192,69761,1,0,0:0:0:0:
256,192,70206,1,8,0:0:0:0:
256,192,71095,1,0,0:0:0:0:
256,192,72873,1,8,0:0:0:0:
256,192,73761,1,8,0:0:0:0:
256,192,74650,1,8,0:0:0:0:
256,192,75539,1,8,0:0:0:0:
256,192,76428,1,8,0:0:0:0:
256,192,76873,1,8,0:0:0:0:
256,192,77317,1,8,0:0:0:0:
256,192,78206,1,0,0:0:0:0:
256,192,79539,1,8,0:0:0:0:
256,192,79984,1,0,0:0:0:0:
256,192,80428,1,0,0:0:0:0:
256,192,80873,1,0,0:0:0:0:
256,192,81761,1,8,0:0:0:0:
256,192,82206,1,8,0:0:0:0:
256,192,82650,1,8,0:0:0:0:
256,192,83539,1,0,0:0:0:0:
256,192,84428,1,8,0:0:0:0:
256,192,84873,1,0,0:0:0:0:
256,192,85317,1,8,0:0:0:0:
256,192,86650,1,8,0:0:0:0:
256,192,87095,1,0,0:0:0:0:
256,192,87539,1,0,0:0:0:0:
256,192,87984,1,0,0:0:0:0:
256,192,88873,1,8,0:0:0:0:
256,192,89317,1,8,0:0:0:0:
256,192,89761,1,8,0:0:0:0:
256,192,90650,1,0,0:0:0:0:
256,192,91539,1,0,0:0:0:0:
256,192,92428,1,0,0:0:0:0:
256,192,93761,1,8,0:0:0:0:
256,192,94650,1,0,0:0:0:0:
256,192,95095,1,8,0:0:0:0:
256,192,95539,1,0,0:0:0:0:
256,192,96428,1,8,0:0:0:0:
256,192,96873,1,8,0:0:0:0:
256,192,97317,1,0,0:0:0:0:
256,192,98206,1,0,0:0:0:0:
256,192,98650,1,0,0:0:0:0:
256,192,99095,1,8,0:0:0:0:
256,192,99539,1,0,0:0:0:0:
256,192,100873,1,8,0:0:0:0:
256,192,101317,1,0,0:0:0:0:
256,192,102206,1,0,0:0:0:0:
256,192,103095,1,8,0:0:0:0:
256,192,103984,1,8,0:0:0:0:
256,192,104873,1,0,0:0:0:0:
256,192,106206,1,0,0:0:0:0:
256,192,106650,1,8,0:0:0:0:
256,192,107984,1,8,0:0:0:0:
256,192,108428,1,0,0:0:0:0:
256,192,108873,1,0,0:0:0:0:
256,192,109317,1,8,0:0:0:0:
256,192,110206,1,0,0:0:0:0:
256,192,110650,1,8,0:0:0:0:
256,192,111095,1,0,0:0:0:0:
256,192,111984,1,0,0:0:0:0:
256,192,112428,1,0,0:0:0:0:
256,192,112873,1,8,0:0:0:0:
256,192,113761,1,0,0:0:0:0:
256,192,114650,1,0,0:0:0:0:
256,192,115539,1,8,0:0:0:0:
256,192,116428,1,8,0:0:0:0:
256,192,117317,1,8,0:0:0:0:
256,192,118206,1,8,0:0:0:0:
256,192,119095,1,8,0:0:0:0:
256,192,119539,1,8,0:0:0:0:
256,192,119984,1,8,0:0:0:0:
256,192,120873,1,0,0:0:0:0:
256,192,121761,1,0,0:0:0:0:
256,192,122206,1,12,0:0:0:0:
