osu file format v14

[General]
AudioFilename: audio.mp3
AudioLeadIn: 0
PreviewTime: 32087
Countdown: 0
SampleSet: Soft
StackLeniency: 0.7
Mode: 3
LetterboxInBreaks: 0
SpecialStyle: 0
WidescreenStoryboard: 0

[Editor]
DistanceSpacing: 2
BeatDivisor: 8
GridSize: 16
TimelineZoom: 2

[Metadata]
Title:OCCHOCO-REST-LESS
TitleUnicode:OCCHOCO-REST-LESS
Artist:MYUKKE.
ArtistUnicode:MYUKKE.
Creator:Dreamwalker
Version:OSU-MEANING-LESS
Source:Dynamix
Tags:FAMoss Curiossity Turrim Lastopia Unpredictable Syadow- c4cat おっちょこちょい おっちょこ event song Nironta future house gold track submission rhythm mobile games electronic instrumental
BeatmapID:1586968
BeatmapSetID:753803

[Difficulty]
HPDrainRate:9.1
CircleSize:4
OverallDifficulty:8.1
ApproachRate:5
SliderMultiplier:1.4
SliderTickRate:1

[Events]
//Background and Video events
0,0,"lmao.jpg",0,0
//Break Periods
//Storyboard Layer 0 (Background)
//Storyboard Layer 1 (Fail)
//Storyboard Layer 2 (Pass)
//Storyboard Layer 3 (Foreground)
//Storyboard Layer 4 (Overlay)
//Storyboard Sound Samples
Sample,4143,0,"LR_J Hit Whistle.wav",30
Sample,5920,0,"LR_J Hit Whistle.wav",30
Sample,7698,0,"LR_J Hit Whistle.wav",30
Sample,9476,0,"LR_J Hit Whistle.wav",30
Sample,11254,0,"LR_J Hit Whistle.wav",30
Sample,13032,0,"LR_J Hit Whistle.wav",30
Sample,14809,0,"LR_J Hit Whistle.wav",30
Sample,46476,0,"WB1.wav",100

[TimingPoints]
1921,444.444444444444,4,2,1,60,1,0
2809,-200,4,2,1,60,0,0
2865,-76.9230769230769,4,2,1,60,0,0
2920,-200,4,2,1,60,0,0
2976,-76.9230769230769,4,2,1,60,0,0
3032,-250,4,2,1,60,0,0
3106,-52.6315789473684,4,2,1,60,0,0
3143,-250,4,2,1,60,0,0
3217,-52.6315789473684,4,2,1,60,0,0
3254,-250,4,2,1,60,0,0
3328,-52.6315789473684,4,2,1,60,0,0
3365,-200,4,2,1,60,0,0
3421,-76.9230769230769,4,2,1,60,0,0
3476,-333.333333333333,4,2,1,60,0,0
3559,-37.037037037037,4,2,1,60,0,0
3587,-333.333333333333,4,2,1,60,0,0
3670,-37.037037037037,4,2,1,60,0,0
3726,-117.647058823529,4,2,1,60,0,0
17920,-100,4,2,1,60,0,0
25032,-33.3333333333333,4,2,1,60,0,0
25059,-250,4,2,1,60,0,0
25170,-166.666666666667,4,2,1,60,0,0
25198,-100,4,2,1,60,0,0
25226,-55.5555555555556,4,2,1,60,0,0
25254,-33.3333333333333,4,2,1,60,0,0
25281,-250,4,2,1,60,0,0
25392,-166.666666666667,4,2,1,60,0,0
25420,-100,4,2,1,60,0,0
25448,-55.5555555555556,4,2,1,60,0,0
25476,-33.3333333333333,4,2,1,60,0,0
25503,-250,4,2,1,60,0,0
25614,-166.666666666667,4,2,1,60,0,0
25642,-100,4,2,1,60,0,0
25670,-55.5555555555556,4,2,1,60,0,0
25698,-47.6190476190476,4,2,1,60,0,0
25726,-111.111111111111,4,2,1,60,0,0
25754,-200,4,2,1,60,0,0
25809,-47.6190476190476,4,2,1,60,0,0
25837,-111.111111111111,4,2,1,60,0,0
25865,-200,4,2,1,60,0,0
25920,-33.3333333333333,4,2,1,60,0,0
25947,-250,4,2,1,60,0,0
26058,-166.666666666667,4,2,1,60,0,0
26086,-100,4,2,1,60,0,0
26114,-55.5555555555556,4,2,1,60,0,0
26142,-33.3333333333333,4,2,1,60,0,0
26169,-250,4,2,1,60,0,0
26280,-166.666666666667,4,2,1,60,0,0
26308,-100,4,2,1,60,0,0
26336,-55.5555555555556,4,2,1,60,0,0
26364,-33.3333333333333,4,2,1,60,0,0
26391,-250,4,2,1,60,0,0
26502,-166.666666666667,4,2,1,60,0,0
26530,-100,4,2,1,60,0,0
26558,-55.5555555555556,4,2,1,60,0,0
26586,-47.6190476190476,4,2,1,60,0,0
26614,-111.111111111111,4,2,1,60,0,0
26642,-200,4,2,1,60,0,0
26697,-47.6190476190476,4,2,1,60,0,0
26725,-111.111111111111,4,2,1,60,0,0
26753,-200,4,2,1,60,0,0
26809,-33.3333333333333,4,2,1,60,0,0
26836,-250,4,2,1,60,0,0
26947,-166.666666666667,4,2,1,60,0,0
26975,-100,4,2,1,60,0,0
27003,-55.5555555555556,4,2,1,60,0,0
27031,-33.3333333333333,4,2,1,60,0,0
27058,-250,4,2,1,60,0,0
27169,-166.666666666667,4,2,1,60,0,0
27197,-100,4,2,1,60,0,0
27225,-55.5555555555556,4,2,1,60,0,0
27253,-33.3333333333333,4,2,1,60,0,0
27280,-250,4,2,1,60,0,0
27391,-166.666666666667,4,2,1,60,0,0
27419,-100,4,2,1,60,0,0
27447,-55.5555555555556,4,2,1,60,0,0
27475,-47.6190476190476,4,2,1,60,0,0
27503,-111.111111111111,4,2,1,60,0,0
27531,-200,4,2,1,60,0,0
27586,-47.6190476190476,4,2,1,60,0,0
27614,-111.111111111111,4,2,1,60,0,0
27642,-200,4,2,1,60,0,0
27698,-33.3333333333333,4,2,1,60,0,0
27725,-250,4,2,1,60,0,0
27836,-166.666666666667,4,2,1,60,0,0
27864,-100,4,2,1,60,0,0
27892,-55.5555555555556,4,2,1,60,0,0
27920,-33.3333333333333,4,2,1,60,0,0
27947,-250,4,2,1,60,0,0
28058,-166.666666666667,4,2,1,60,0,0
28086,-100,4,2,1,60,0,0
28114,-55.5555555555556,4,2,1,60,0,0
28142,-33.3333333333333,4,2,1,60,0,0
28169,-250,4,2,1,60,0,0
28280,-166.666666666667,4,2,1,60,0,0
28308,-100,4,2,1,60,0,0
28336,-55.5555555555556,4,2,1,60,0,0
28364,-47.6190476190476,4,2,1,60,0,0
28392,-111.111111111111,4,2,1,60,0,0
28420,-200,4,2,1,60,0,0
28475,-47.6190476190476,4,2,1,60,0,0
28503,-111.111111111111,4,2,1,60,0,0
28531,-200,4,2,1,60,0,0
28587,-52.6315789473684,4,2,1,60,0,0
28615,-166.666666666667,4,2,1,60,0,0
28698,-52.6315789473684,4,2,1,60,0,0
28726,-166.666666666667,4,2,1,60,0,0
28809,-52.6315789473684,4,2,1,60,0,0
28837,-166.666666666667,4,2,1,60,0,0
28920,-52.6315789473684,4,2,1,60,0,0
28948,-166.666666666667,4,2,1,60,0,0
29032,-52.6315789473684,4,2,1,60,0,0
29060,-166.666666666667,4,2,1,60,0,0
29143,-52.6315789473684,4,2,1,60,0,0
29171,-166.666666666667,4,2,1,60,0,0
29254,-52.6315789473684,4,2,1,60,0,0
29282,-166.666666666667,4,2,1,60,0,0
29365,-52.6315789473684,4,2,1,60,0,0
29393,-166.666666666667,4,2,1,60,0,0
29476,-105.263157894737,4,2,1,60,0,0
29587,-102.040816326531,4,2,1,60,0,0
29698,-99.009900990099,4,2,1,60,0,0
29809,-96.1538461538461,4,2,1,60,0,0
29920,-92.5925925925926,4,2,1,60,0,0
30031,-89.2857142857143,4,2,1,60,0,0
30143,-86.2068965517241,4,2,1,60,0,0
30254,-81.9672131147541,4,2,1,60,0,0
30365,-33.3333333333333,4,2,1,60,0,0
30393,-303.030303030303,4,2,1,60,0,0
30476,-33.3333333333333,4,2,1,60,0,0
30504,-303.030303030303,4,2,1,60,0,0
30587,-33.3333333333333,4,2,1,60,0,0
30615,-303.030303030303,4,2,1,60,0,0
30782,-33.3333333333333,4,2,1,60,0,0
30810,-303.030303030303,4,2,1,60,0,0
31004,-17.5746924428822,4,2,1,60,0,0
31032,-303.030303030303,4,2,1,60,0,0
31115,-33.3333333333333,4,2,1,60,0,0
31143,-50,4,2,1,60,0,0
31170,-303.030303030303,4,2,1,60,0,0
31254,-200,4,2,1,60,0,0
31309,-83.3333333333333,4,2,1,60,0,0
31337,-35.7142857142857,4,2,1,60,0,0
31365,-50,4,2,1,60,0,0
31392,-303.030303030303,4,2,1,60,0,0
31476,-200,4,2,1,60,0,0
31531,-83.3333333333333,4,2,1,60,0,0
31559,-35.7142857142857,4,2,1,60,0,0
31587,-303.030303030303,4,2,1,60,0,0
31670,-33.3333333333333,4,2,1,60,0,0
31698,-10,4,2,1,60,0,0
31726,-166.666666666667,4,2,1,60,0,0
32143,-33.3333333333333,4,2,1,60,0,0
32170,-66.6666666666667,4,2,1,60,0,0
32198,-111.111111111111,4,2,1,60,0,0
32254,-142.857142857143,4,2,1,60,0,0
32365,-111.111111111111,4,2,1,60,0,0
32476,-1000,4,2,1,60,0,0
32518,-30.3030303030303,4,2,1,60,0,0
32532,-1000,4,2,1,60,0,0
32574,-30.3030303030303,4,2,1,60,0,0
32587,-25,4,2,1,60,0,0
32600,-1000,4,2,1,60,0,0
32643,-111.111111111111,4,2,1,60,0,0
33032,-25,4,2,1,60,0,0
33045,-1000,4,2,1,60,0,0
33088,-111.111111111111,4,2,1,60,0,0
33476,-25,4,2,1,60,0,0
33489,-1000,4,2,1,60,0,0
33532,-111.111111111111,4,2,1,60,0,0
33920,-25,4,2,1,60,0,0
33933,-1000,4,2,1,60,0,0
33976,-111.111111111111,4,2,1,60,0,0
34254,-1000,4,2,1,60,0,0
34296,-30.3030303030303,4,2,1,60,0,0
34310,-1000,4,2,1,60,0,0
34352,-30.3030303030303,4,2,1,60,0,0
34365,-25,4,2,1,60,0,0
34378,-1000,4,2,1,60,0,0
34421,-111.111111111111,4,2,1,60,0,0
34809,-25,4,2,1,60,0,0
34822,-1000,4,2,1,60,0,0
34865,-111.111111111111,4,2,1,60,0,0
35254,-25,4,2,1,60,0,0
35267,-1000,4,2,1,60,0,0
35310,-111.111111111111,4,2,1,60,0,0
35365,-142.857142857143,4,2,1,60,0,0
35559,-58.8235294117647,4,2,1,60,0,0
35587,-111.111111111111,4,2,1,60,0,0
35698,-25,4,2,1,60,0,0
35711,-1000,4,2,1,60,0,0
35754,-111.111111111111,4,2,1,60,0,0
36032,-1000,4,2,1,60,0,0
36074,-30.3030303030303,4,2,1,60,0,0
36088,-1000,4,2,1,60,0,0
36130,-30.3030303030303,4,2,1,60,0,0
36143,-25,4,2,1,60,0,0
36156,-1000,4,2,1,60,0,0
36199,-111.111111111111,4,2,1,60,0,0
36587,-25,4,2,1,60,0,0
36600,-1000,4,2,1,60,0,0
36643,-111.111111111111,4,2,1,60,0,0
36920,-1000,4,2,1,60,0,0
36962,-30.3030303030303,4,2,1,60,0,0
36976,-1000,4,2,1,60,0,0
37018,-30.3030303030303,4,2,1,60,0,0
37032,-25,4,2,1,60,0,0
37045,-1000,4,2,1,60,0,0
37088,-111.111111111111,4,2,1,60,0,0
37476,-25,4,2,1,60,0,0
37489,-1000,4,2,1,60,0,0
37532,-111.111111111111,4,2,1,60,0,0
37809,-1000,4,2,1,60,0,0
37851,-30.3030303030303,4,2,1,60,0,0
37865,-1000,4,2,1,60,0,0
37907,-30.3030303030303,4,2,1,60,0,0
37920,-25,4,2,1,60,0,0
37933,-1000,4,2,1,60,0,0
37976,-111.111111111111,4,2,1,60,0,0
38365,-25,4,2,1,60,0,0
38378,-1000,4,2,1,60,0,0
38421,-111.111111111111,4,2,1,60,0,0
38698,-1000,4,2,1,60,0,0
38740,-30.3030303030303,4,2,1,60,0,0
38754,-1000,4,2,1,60,0,0
38796,-30.3030303030303,4,2,1,60,0,0
38809,-25,4,2,1,60,0,0
38822,-1000,4,2,1,60,0,0
38865,-111.111111111111,4,2,1,60,0,0
39254,-25,4,2,1,60,0,0
39267,-1000,4,2,1,60,0,0
39310,-111.111111111111,4,2,1,60,0,0
39587,-1000,4,2,1,60,0,0
39629,-30.3030303030303,4,2,1,60,0,0
39643,-1000,4,2,1,60,0,0
39685,-30.3030303030303,4,2,1,60,0,0
39698,-25,4,2,1,60,0,0
39711,-1000,4,2,1,60,0,0
39754,-111.111111111111,4,2,1,60,0,0
40143,-25,4,2,1,60,0,0
40156,-1000,4,2,1,60,0,0
40199,-111.111111111111,4,2,1,60,0,0
40587,-25,4,2,1,60,0,0
40600,-1000,4,2,1,60,0,0
40643,-111.111111111111,4,2,1,60,0,0
41032,-25,4,2,1,60,0,0
41045,-1000,4,2,1,60,0,0
41088,-111.111111111111,4,2,1,60,0,0
41365,-1000,4,2,1,60,0,0
41407,-30.3030303030303,4,2,1,60,0,0
41421,-1000,4,2,1,60,0,0
41463,-30.3030303030303,4,2,1,60,0,0
41476,-25,4,2,1,60,0,0
41489,-1000,4,2,1,60,0,0
41532,-111.111111111111,4,2,1,60,0,0
41920,-25,4,2,1,60,0,0
41933,-1000,4,2,1,60,0,0
41976,-111.111111111111,4,2,1,60,0,0
42365,-25,4,2,1,60,0,0
42378,-1000,4,2,1,60,0,0
42421,-111.111111111111,4,2,1,60,0,0
42809,-25,4,2,1,60,0,0
42822,-1000,4,2,1,60,0,0
42865,-111.111111111111,4,2,1,60,0,0
43032,-66.6666666666667,4,2,1,60,0,0
43059,-142.857142857143,4,2,1,60,0,0
43087,-250,4,2,1,60,0,0
43129,-30.3030303030303,4,2,1,60,0,0
43143,-1000,4,2,1,60,0,0
43185,-30.3030303030303,4,2,1,60,0,0
43199,-1000,4,2,1,60,0,0
43241,-30.3030303030303,4,2,1,60,0,0
43254,-117.647058823529,4,2,1,60,0,0
43476,-108.695652173913,4,2,1,60,0,0
43698,-45.4545454545455,4,2,1,60,0,0
43726,-90.9090909090909,4,2,1,60,0,0
43754,-142.857142857143,4,2,1,60,0,0
43809,-200,4,2,1,60,0,0
43920,-166.666666666667,4,2,1,60,0,0
43976,-133.333333333333,4,2,1,60,0,0
44032,-100,4,2,1,60,0,0
44088,-66.6666666666667,4,2,1,60,0,0
44143,-100,4,2,1,60,0,0
44587,-58.8235294117647,4,2,1,60,0,0
44615,-100,4,2,1,60,0,0
44643,-153.846153846154,4,2,1,60,0,0
44726,-125,4,2,1,60,0,0
44754,-90.9090909090909,4,2,1,60,0,0
44782,-68.9655172413793,4,2,1,60,0,0
44809,-100,4,2,1,60,0,0
45032,-58.8235294117647,4,2,1,60,0,0
45060,-100,4,2,1,60,0,0
45088,-153.846153846154,4,2,1,60,0,0
45171,-125,4,2,1,60,0,0
45199,-90.9090909090909,4,2,1,60,0,0
45227,-68.9655172413793,4,2,1,60,0,0
45254,-100,4,2,1,60,0,0
45476,-62.5,4,2,1,60,0,0
45504,-100,4,2,1,60,0,0
45532,-142.857142857143,4,2,1,60,0,0
45615,-117.647058823529,4,2,1,60,0,0
45643,-90.9090909090909,4,2,1,60,0,0
45671,-74.0740740740741,4,2,1,60,0,0
45698,-100,4,2,1,60,0,0
46365,-10,4,2,1,60,0,0
46393,-50,4,2,1,60,0,0
46421,-111.111111111111,4,2,1,60,0,0
46477,-166.666666666667,4,2,1,60,0,0
46588,-10,4,2,1,60,0,0
46615,-50,4,2,1,60,0,0
46643,-111.111111111111,4,2,1,60,0,0
46699,-166.666666666667,4,2,1,60,0,0
46809,-100,4,2,1,60,0,0
60143,-10,4,2,1,60,0,0
60198,-11.1111111111111,4,2,1,60,0,0
60201,-1000,4,2,1,60,0,0
60254,-11.1111111111111,4,2,1,60,0,0
60257,-1000,4,2,1,60,0,0
60309,-11.1111111111111,4,2,1,60,0,0
60312,-1000,4,2,1,60,0,0
60365,-11.1111111111111,4,2,1,60,0,0
60368,-1000,4,2,1,60,0,0
60420,-11.1111111111111,4,2,1,60,0,0
60423,-1000,4,2,1,60,0,0
60476,-11.1111111111111,4,2,1,60,0,0
60479,-1000,4,2,1,60,0,0
60532,-11.1111111111111,4,2,1,60,0,0
60535,-1000,4,2,1,60,0,0
60587,-125,4,2,1,60,0,0
67254,-66.6666666666667,4,2,1,60,0,0
67282,-125,4,2,1,60,0,0
67365,-66.6666666666667,4,2,1,60,0,0
67393,-125,4,2,1,60,0,0
67476,-66.6666666666667,4,2,1,60,0,0
67504,-125,4,2,1,60,0,0
67587,-111.111111111111,4,2,1,60,0,0
67698,-100,4,2,1,60,0,0
73032,-120.481927710843,4,2,1,60,0,0
74809,-113.636363636364,4,2,1,60,0,0
76587,-107.52688172043,4,2,1,60,0,0
78365,-52.6315789473684,4,2,1,60,0,0
78393,-166.666666666667,4,2,1,60,0,0
78476,-52.6315789473684,4,2,1,60,0,0
78504,-166.666666666667,4,2,1,60,0,0
78587,-52.6315789473684,4,2,1,60,0,0
78615,-166.666666666667,4,2,1,60,0,0
78698,-52.6315789473684,4,2,1,60,0,0
78726,-166.666666666667,4,2,1,60,0,0
78810,-52.6315789473684,4,2,1,60,0,0
78838,-166.666666666667,4,2,1,60,0,0
78921,-52.6315789473684,4,2,1,60,0,0
78949,-166.666666666667,4,2,1,60,0,0
79032,-52.6315789473684,4,2,1,60,0,0
79060,-166.666666666667,4,2,1,60,0,0
79143,-52.6315789473684,4,2,1,60,0,0
79171,-166.666666666667,4,2,1,60,0,0
79254,-105.263157894737,4,2,1,60,0,0
79365,-103.092783505155,4,2,1,60,0,0
79476,-101.010101010101,4,2,1,60,0,0
79587,-98.0392156862745,4,2,1,60,0,0
79698,-95.2380952380952,4,2,1,60,0,0
79809,-91.743119266055,4,2,1,60,0,0
79921,-87.719298245614,4,2,1,60,0,0
80032,-83.3333333333333,4,2,1,60,0,0
80143,-29.4117647058824,4,2,1,60,0,0
80171,-166.666666666667,4,2,1,60,0,0
80198,-500,4,2,1,60,0,0
80254,-29.4117647058824,4,2,1,60,0,0
80282,-166.666666666667,4,2,1,60,0,0
80309,-500,4,2,1,60,0,0
80365,-29.4117647058824,4,2,1,60,0,0
80393,-166.666666666667,4,2,1,60,0,0
80420,-500,4,2,1,60,0,0
80476,-29.4117647058824,4,2,1,60,0,0
80504,-166.666666666667,4,2,1,60,0,0
80531,-500,4,2,1,60,0,0
80587,-29.4117647058824,4,2,1,60,0,0
80615,-166.666666666667,4,2,1,60,0,0
80642,-500,4,2,1,60,0,0
80698,-29.4117647058824,4,2,1,60,0,0
80726,-166.666666666667,4,2,1,60,0,0
80753,-500,4,2,1,60,0,0
80809,-29.4117647058824,4,2,1,60,0,0
80837,-166.666666666667,4,2,1,60,0,0
80864,-500,4,2,1,60,0,0
80920,-29.4117647058824,4,2,1,60,0,0
80948,-166.666666666667,4,2,1,60,0,0
80975,-500,4,2,1,60,0,0
81032,-29.4117647058824,4,2,1,60,0,0
81060,-166.666666666667,4,2,1,60,0,0
81087,-500,4,2,1,60,0,0
81143,-29.4117647058824,4,2,1,60,0,0
81171,-166.666666666667,4,2,1,60,0,0
81198,-500,4,2,1,60,0,0
81254,-100,4,2,1,60,0,0
81365,-90.9090909090909,4,2,1,60,0,0
81476,-10,4,2,1,60,0,0
81504,-76.9230769230769,4,2,1,60,0,0
81587,-166.666666666667,4,2,1,60,0,0
81920,-10,4,2,1,60,0,1
81925,-33.3333333333333,4,2,1,60,0,1
81940,-66.6666666666667,4,2,1,60,0,1
81976,-100,4,2,1,60,0,1
92143,-10,4,2,1,60,0,0
92157,-1000,4,2,1,60,0,0
92198,-14.2857142857143,4,2,1,60,0,0
92201,-1000,4,2,1,60,0,0
92254,-14.2857142857143,4,2,1,60,0,0
92257,-1000,4,2,1,60,0,0
92309,-14.2857142857143,4,2,1,60,0,0
92312,-1000,4,2,1,60,0,0
92365,-10,4,2,1,60,0,0
92380,-1000,4,2,1,60,0,0
92420,-14.2857142857143,4,2,1,60,0,0
92423,-1000,4,2,1,60,0,0
92476,-14.2857142857143,4,2,1,60,0,0
92479,-1000,4,2,1,60,0,0
92532,-14.2857142857143,4,2,1,60,0,0
92535,-1000,4,2,1,60,0,0
92587,-20,4,2,1,60,0,0
92600,-1000,4,2,1,60,0,0
92661,-125,4,2,1,60,0,0
93032,-20,4,2,1,60,0,0
93045,-1000,4,2,1,60,0,0
93106,-125,4,2,1,60,0,0
93476,-20,4,2,1,60,0,0
93489,-1000,4,2,1,60,0,0
93550,-125,4,2,1,60,0,0
93920,-20,4,2,1,60,0,0
93933,-1000,4,2,1,60,0,0
93994,-125,4,2,1,60,0,0
94365,-20,4,2,1,60,0,0
94378,-1000,4,2,1,60,0,0
94439,-125,4,2,1,60,0,0
94809,-20,4,2,1,60,0,0
94822,-1000,4,2,1,60,0,0
94883,-125,4,2,1,60,0,0
95254,-20,4,2,1,60,0,0
95267,-1000,4,2,1,60,0,0
95328,-125,4,2,1,60,0,0
95476,-10,4,2,1,60,0,0
95481,-1000,4,2,1,60,0,0
95532,-10,4,2,1,60,0,0
95537,-1000,4,2,1,60,0,0
95587,-10,4,2,1,60,0,0
95592,-1000,4,2,1,60,0,0
95643,-10,4,2,1,60,0,0
95648,-1000,4,2,1,60,0,0
95698,-29.4117647058824,4,2,1,60,0,0
95726,-500,4,2,1,60,0,0
95809,-29.4117647058824,4,2,1,60,0,0
95837,-500,4,2,1,60,0,0
95920,-29.4117647058824,4,2,1,60,0,0
95948,-142.857142857143,4,2,1,60,0,0
96143,-117.647058823529,4,2,1,60,0,0
96180,-114.942528735632,4,2,1,60,0,0
96217,-111.111111111111,4,2,1,60,0,0
96254,-108.695652173913,4,2,1,60,0,0
96291,-105.263157894737,4,2,1,60,0,0
96328,-103.092783505155,4,2,1,60,0,0
96365,-100,4,2,1,60,0,0
96402,-97.0873786407767,4,2,1,60,0,0
96439,-94.3396226415094,4,2,1,60,0,0
96476,-91.743119266055,4,2,1,60,0,0
96513,-89.2857142857143,4,2,1,60,0,0
96550,-86.9565217391304,4,2,1,60,0,0
96587,-100,4,2,1,60,0,1
97920,-14.2857142857143,4,2,1,60,0,1
97927,-1000,4,2,1,60,0,1
97976,-14.2857142857143,4,2,1,60,0,1
97983,-1000,4,2,1,60,0,1
98032,-14.2857142857143,4,2,1,60,0,1
98039,-1000,4,2,1,60,0,1
98087,-100,4,2,1,60,0,1
98143,-14.2857142857143,4,2,1,60,0,1
98150,-1000,4,2,1,60,0,1
98199,-100,4,2,1,60,0,1
98255,-14.2857142857143,4,2,1,60,0,1
98262,-1000,4,2,1,60,0,1
98310,-100,4,2,1,60,0,1
99698,-10,4,2,1,60,0,1
99710,-1000,4,2,1,60,0,1
99754,-21.2765957446809,4,2,1,60,0,1
99766,-1000,4,2,1,60,0,1
99809,-25.6410256410256,4,2,1,60,0,1
99821,-1000,4,2,1,60,0,1
99865,-31.25,4,2,1,60,0,1
99877,-1000,4,2,1,60,0,1
99920,-35.0877192982456,4,2,1,60,0,1
99932,-1000,4,2,1,60,0,1
99976,-40,4,2,1,60,0,1
99988,-1000,4,2,1,60,0,1
100032,-45.4545454545455,4,2,1,60,0,1
100044,-1000,4,2,1,60,0,1
100088,-50,4,2,1,60,0,1
100100,-1000,4,2,1,60,0,1
100143,-100,4,2,1,60,0,1
101032,-55.5555555555556,4,2,1,60,0,1
101059,-100,4,2,1,60,0,1
101087,-166.666666666667,4,2,1,60,0,1
101143,-55.5555555555556,4,2,1,60,0,1
101170,-100,4,2,1,60,0,1
101198,-166.666666666667,4,2,1,60,0,1
101254,-55.5555555555556,4,2,1,60,0,1
101281,-100,4,2,1,60,0,1
101309,-166.666666666667,4,2,1,60,0,1
101365,-55.5555555555556,4,2,1,60,0,1
101392,-100,4,2,1,60,0,1
101420,-166.666666666667,4,2,1,60,0,1
101476,-100,4,2,1,60,0,1
101920,-11.1111111111111,4,2,1,60,0,1
101927,-1000,4,2,1,60,0,1
101976,-16.6666666666667,4,2,1,60,0,1
101983,-1000,4,2,1,60,0,1
102032,-25,4,2,1,60,0,1
102039,-1000,4,2,1,60,0,1
102087,-100,4,2,1,60,0,1
103032,-10,4,2,1,60,0,1
103046,-1000,4,2,1,60,0,1
103087,-14.2857142857143,4,2,1,60,0,1
103090,-1000,4,2,1,60,0,1
103143,-14.2857142857143,4,2,1,60,0,1
103146,-1000,4,2,1,60,0,1
103198,-14.2857142857143,4,2,1,60,0,1
103201,-1000,4,2,1,60,0,1
103254,-100,4,2,1,60,0,1
106365,-25,4,2,1,60,0,0
106393,-66.6666666666667,4,2,1,60,0,0
106420,-166.666666666667,4,2,1,60,0,0
106587,-41.6666666666667,4,2,1,60,0,0
106615,-125,4,2,1,60,0,0
106809,-50,4,2,1,60,0,0
106837,-76.9230769230769,4,2,1,60,0,0
106865,-125,4,2,1,60,0,0
106920,-200,4,2,1,60,0,0
106976,-285.714285714286,4,2,1,60,0,0
107004,-111.111111111111,4,2,1,60,0,0
107018,-41.6666666666667,4,2,1,60,0,0
107032,-100,4,2,1,60,0,0
107143,-50,4,2,1,60,0,0
107171,-76.9230769230769,4,2,1,60,0,0
107199,-125,4,2,1,60,0,0
107254,-200,4,2,1,60,0,0
107310,-285.714285714286,4,2,1,60,0,0
107338,-111.111111111111,4,2,1,60,0,0
107352,-41.6666666666667,4,2,1,60,0,0
107366,-100,4,2,1,60,0,0
107476,-50,4,2,1,60,0,0
107504,-76.9230769230769,4,2,1,60,0,0
107532,-125,4,2,1,60,0,0
107587,-200,4,2,1,60,0,0
107643,-285.714285714286,4,2,1,60,0,0
107671,-111.111111111111,4,2,1,60,0,0
107685,-41.6666666666667,4,2,1,60,0,0
107699,-100,4,2,1,60,0,0
107809,-50,4,2,1,60,0,0
107837,-76.9230769230769,4,2,1,60,0,0
107865,-125,4,2,1,60,0,0
107920,-200,4,2,1,60,0,0
107976,-285.714285714286,4,2,1,60,0,0
108004,-111.111111111111,4,2,1,60,0,0
108018,-41.6666666666667,4,2,1,60,0,0
108032,-100,4,2,1,60,0,0
108143,-50,4,2,1,60,0,0
108171,-76.9230769230769,4,2,1,60,0,0
108199,-125,4,2,1,60,0,0
108254,-200,4,2,1,60,0,0
108310,-285.714285714286,4,2,1,60,0,0
108338,-111.111111111111,4,2,1,60,0,0
108352,-41.6666666666667,4,2,1,60,0,0
108366,-100,4,2,1,60,0,0
108587,-50,4,2,1,60,0,0
108615,-76.9230769230769,4,2,1,60,0,0
108643,-125,4,2,1,60,0,0
108698,-200,4,2,1,60,0,0
108754,-285.714285714286,4,2,1,60,0,0
108782,-111.111111111111,4,2,1,60,0,0
108796,-41.6666666666667,4,2,1,60,0,0
108810,-100,4,2,1,60,0,0
108920,-50,4,2,1,60,0,0
108948,-76.9230769230769,4,2,1,60,0,0
108976,-125,4,2,1,60,0,0
109031,-200,4,2,1,60,0,0
109087,-285.714285714286,4,2,1,60,0,0
109115,-111.111111111111,4,2,1,60,0,0
109129,-41.6666666666667,4,2,1,60,0,0
109143,-100,4,2,1,60,0,0
109254,-50,4,2,1,60,0,0
109282,-76.9230769230769,4,2,1,60,0,0
109310,-125,4,2,1,60,0,0
109365,-200,4,2,1,60,0,0
109421,-285.714285714286,4,2,1,60,0,0
109449,-111.111111111111,4,2,1,60,0,0
109463,-41.6666666666667,4,2,1,60,0,0
109477,-100,4,2,1,60,0,0
109587,-50,4,2,1,60,0,0
109615,-76.9230769230769,4,2,1,60,0,0
109643,-125,4,2,1,60,0,0
109698,-200,4,2,1,60,0,0
109754,-285.714285714286,4,2,1,60,0,0
109782,-111.111111111111,4,2,1,60,0,0
109796,-41.6666666666667,4,2,1,60,0,0
109810,-100,4,2,1,60,0,0
109920,-10,4,2,1,60,0,0
109975,-12.5,4,2,1,60,0,0
109978,-1000,4,2,1,60,0,0
110031,-12.5,4,2,1,60,0,0
110034,-1000,4,2,1,60,0,0
110086,-12.5,4,2,1,60,0,0
110089,-1000,4,2,1,60,0,0
110142,-12.5,4,2,1,60,0,0
110145,-1000,4,2,1,60,0,0
110197,-12.5,4,2,1,60,0,0
110200,-1000,4,2,1,60,0,0
110253,-12.5,4,2,1,60,0,0
110256,-1000,4,2,1,60,0,0
110309,-12.5,4,2,1,60,0,0
110312,-1000,4,2,1,60,0,0
110365,-100,4,2,1,60,0,0
117476,-33.3333333333333,4,2,1,60,0,0
117503,-250,4,2,1,60,0,0
117614,-166.666666666667,4,2,1,60,0,0
117642,-100,4,2,1,60,0,0
117670,-55.5555555555556,4,2,1,60,0,0
117698,-33.3333333333333,4,2,1,60,0,0
117725,-250,4,2,1,60,0,0
117836,-166.666666666667,4,2,1,60,0,0
117864,-100,4,2,1,60,0,0
117892,-55.5555555555556,4,2,1,60,0,0
117920,-33.3333333333333,4,2,1,60,0,0
117947,-250,4,2,1,60,0,0
118058,-166.666666666667,4,2,1,60,0,0
118086,-100,4,2,1,60,0,0
118114,-55.5555555555556,4,2,1,60,0,0
118142,-47.6190476190476,4,2,1,60,0,0
118170,-111.111111111111,4,2,1,60,0,0
118198,-200,4,2,1,60,0,0
118253,-47.6190476190476,4,2,1,60,0,0
118281,-111.111111111111,4,2,1,60,0,0
118309,-200,4,2,1,60,0,0
118364,-33.3333333333333,4,2,1,60,0,0
118391,-250,4,2,1,60,0,0
118502,-166.666666666667,4,2,1,60,0,0
118530,-100,4,2,1,60,0,0
118558,-55.5555555555556,4,2,1,60,0,0
118586,-33.3333333333333,4,2,1,60,0,0
118613,-250,4,2,1,60,0,0
118724,-166.666666666667,4,2,1,60,0,0
118752,-100,4,2,1,60,0,0
118780,-55.5555555555556,4,2,1,60,0,0
118808,-33.3333333333333,4,2,1,60,0,0
118835,-250,4,2,1,60,0,0
118946,-166.666666666667,4,2,1,60,0,0
118974,-100,4,2,1,60,0,0
119002,-55.5555555555556,4,2,1,60,0,0
119030,-47.6190476190476,4,2,1,60,0,0
119058,-111.111111111111,4,2,1,60,0,0
119086,-200,4,2,1,60,0,0
119141,-47.6190476190476,4,2,1,60,0,0
119169,-111.111111111111,4,2,1,60,0,0
119197,-200,4,2,1,60,0,0
119253,-33.3333333333333,4,2,1,60,0,0
119280,-250,4,2,1,60,0,0
119391,-166.666666666667,4,2,1,60,0,0
119419,-100,4,2,1,60,0,0
119447,-55.5555555555556,4,2,1,60,0,0
119475,-33.3333333333333,4,2,1,60,0,0
119502,-250,4,2,1,60,0,0
119613,-166.666666666667,4,2,1,60,0,0
119641,-100,4,2,1,60,0,0
119669,-55.5555555555556,4,2,1,60,0,0
119697,-33.3333333333333,4,2,1,60,0,0
119724,-250,4,2,1,60,0,0
119835,-166.666666666667,4,2,1,60,0,0
119863,-100,4,2,1,60,0,0
119891,-55.5555555555556,4,2,1,60,0,0
119919,-47.6190476190476,4,2,1,60,0,0
119947,-111.111111111111,4,2,1,60,0,0
119975,-200,4,2,1,60,0,0
120030,-47.6190476190476,4,2,1,60,0,0
120058,-111.111111111111,4,2,1,60,0,0
120086,-200,4,2,1,60,0,0
120142,-33.3333333333333,4,2,1,60,0,0
120169,-250,4,2,1,60,0,0
120280,-166.666666666667,4,2,1,60,0,0
120308,-100,4,2,1,60,0,0
120336,-55.5555555555556,4,2,1,60,0,0
120364,-33.3333333333333,4,2,1,60,0,0
120391,-250,4,2,1,60,0,0
120502,-166.666666666667,4,2,1,60,0,0
120530,-100,4,2,1,60,0,0
120558,-55.5555555555556,4,2,1,60,0,0
120586,-33.3333333333333,4,2,1,60,0,0
120613,-250,4,2,1,60,0,0
120724,-166.666666666667,4,2,1,60,0,0
120752,-100,4,2,1,60,0,0
120780,-55.5555555555556,4,2,1,60,0,0
120808,-47.6190476190476,4,2,1,60,0,0
120836,-111.111111111111,4,2,1,60,0,0
120864,-200,4,2,1,60,0,0
120919,-47.6190476190476,4,2,1,60,0,0
120947,-111.111111111111,4,2,1,60,0,0
120975,-200,4,2,1,60,0,0
121031,-52.6315789473684,4,2,1,60,0,0
121059,-166.666666666667,4,2,1,60,0,0
121142,-52.6315789473684,4,2,1,60,0,0
121170,-166.666666666667,4,2,1,60,0,0
121253,-52.6315789473684,4,2,1,60,0,0
121281,-166.666666666667,4,2,1,60,0,0
121364,-52.6315789473684,4,2,1,60,0,0
121392,-166.666666666667,4,2,1,60,0,0
121476,-52.6315789473684,4,2,1,60,0,0
121504,-166.666666666667,4,2,1,60,0,0
121587,-52.6315789473684,4,2,1,60,0,0
121615,-166.666666666667,4,2,1,60,0,0
121698,-52.6315789473684,4,2,1,60,0,0
121726,-166.666666666667,4,2,1,60,0,0
121809,-52.6315789473684,4,2,1,60,0,0
121837,-166.666666666667,4,2,1,60,0,0
121920,-108.695652173913,4,2,1,60,0,0
121976,-104.166666666667,4,2,1,60,0,0
122031,-100,4,2,1,60,0,0
122087,-96.1538461538461,4,2,1,60,0,0
122142,-92.5925925925926,4,2,1,60,0,0
122198,-89.2857142857143,4,2,1,60,0,0
122253,-85.4700854700855,4,2,1,60,0,0
122309,-81.9672131147541,4,2,1,60,0,0
122365,-10,4,2,1,60,0,0
122420,-11.1111111111111,4,2,1,60,0,0
122423,-1000,4,2,1,60,0,0
122476,-11.1111111111111,4,2,1,60,0,0
122479,-1000,4,2,1,60,0,0
122531,-11.1111111111111,4,2,1,60,0,0
122534,-1000,4,2,1,60,0,0
122587,-11.1111111111111,4,2,1,60,0,0
122590,-1000,4,2,1,60,0,0
122642,-11.1111111111111,4,2,1,60,0,0
122645,-1000,4,2,1,60,0,0
122698,-11.1111111111111,4,2,1,60,0,0
122701,-1000,4,2,1,60,0,0
122754,-11.1111111111111,4,2,1,60,0,0
122757,-1000,4,2,1,60,0,0
122809,-121.951219512195,4,2,1,60,0,0
124143,-10,4,2,1,60,0,0
124198,-166.666666666667,4,2,1,60,0,0
124365,-185.185185185185,4,2,1,60,0,0
124587,-204.081632653061,4,2,1,60,0,0
124810,-227.272727272727,4,2,1,60,0,0
125032,-250,4,2,1,60,0,0
125254,-277.777777777778,4,2,1,60,0,0
125476,-303.030303030303,4,2,1,60,0,0
125699,-333.333333333333,4,2,1,60,0,0
125921,-370.37037037037,4,2,1,60,0,0
126143,-400,4,2,1,60,0,0

[HitObjects]
64,192,2809,5,0,0:0:0:50:K.wav
448,192,2809,1,0,0:0:0:0:
64,192,2920,1,0,0:0:0:50:K.wav
320,192,2920,1,0,0:0:0:0:
192,192,3032,1,0,0:0:0:50:S3.wav
448,192,3032,1,0,0:0:0:0:
192,192,3143,1,0,0:0:0:50:S3.wav
448,192,3143,1,0,0:0:0:0:
64,192,3254,1,0,0:0:0:50:S3.wav
320,192,3254,1,0,0:0:0:0:
448,192,3254,1,0,0:0:0:0:
64,192,3365,1,0,0:0:0:50:K.wav
192,192,3365,1,0,0:0:0:0:
192,192,3476,1,0,0:0:0:50:S1.wav
320,192,3476,1,0,0:0:0:0:
448,192,3476,1,0,0:0:0:0:
64,192,3587,1,0,0:0:0:50:S1.wav
320,192,3587,1,0,0:0:0:0:
448,192,3587,1,0,0:0:0:0:
64,192,3698,128,4,3920:0:0:0:0:
320,192,3698,1,0,0:0:0:50:S2.wav
448,192,3698,1,0,0:0:0:0:
192,192,3920,128,0,4143:0:0:0:50:K.wav
448,192,3920,128,0,4143:0:0:0:0:
320,192,4143,128,0,4365:0:0:0:70:clap1.wav
192,192,4365,128,0,4476:0:0:0:50:K.wav
448,192,4365,128,0,4587:0:0:0:0:
64,192,4476,128,0,4587:0:0:0:0:
320,192,4587,128,0,4809:0:0:0:50:S2.wav
192,192,4809,128,0,5032:0:0:0:50:K.wav
64,192,4809,128,0,5032:0:0:0:0:
448,192,4958,128,0,5032:0:0:0:0:
320,192,5032,128,0,5254:0:0:0:70:clap1.wav
64,192,5254,128,0,5476:0:0:0:50:K.wav
448,192,5254,128,0,5476:0:0:0:0:
192,192,5476,128,0,5698:0:0:0:50:S2.wav
64,192,5698,128,0,5920:0:0:0:50:K.wav
320,192,5698,128,0,5920:0:0:0:0:
192,192,5920,128,0,6143:0:0:0:70:clap1.wav
64,192,6143,128,0,6365:0:0:0:50:K.wav
448,192,6143,128,0,6254:0:0:0:0:
192,192,6254,128,0,6365:0:0:0:0:
320,192,6365,128,0,6587:0:0:0:50:S2.wav
192,192,6587,128,0,6809:0:0:0:50:K.wav
448,192,6587,128,0,6809:0:0:0:0:
64,192,6735,128,0,6809:0:0:0:0:
320,192,6809,128,0,7032:0:0:0:70:clap1.wav
192,192,7032,128,0,7254:0:0:0:50:K.wav
448,192,7032,128,0,7254:0:0:0:0:
64,192,7254,128,0,7476:0:0:0:50:S2.wav
192,192,7476,128,0,7698:0:0:0:50:K.wav
448,192,7476,128,0,7698:0:0:0:0:
320,192,7698,128,0,7920:0:0:0:70:clap1.wav
192,192,7920,128,0,8032:0:0:0:50:K.wav
448,192,7920,128,0,8143:0:0:0:0:
64,192,8032,128,0,8143:0:0:0:0:
320,192,8143,128,0,8365:0:0:0:50:S2.wav
64,192,8365,128,0,8587:0:0:0:50:K.wav
192,192,8365,128,0,8587:0:0:0:0:
448,192,8513,128,0,8587:0:0:0:0:
320,192,8587,128,0,8809:0:0:0:70:clap1.wav
64,192,8809,128,0,9032:0:0:0:50:K.wav
448,192,8809,128,0,9032:0:0:0:0:
320,192,9032,1,0,0:0:0:50:S2.wav
320,192,9143,1,0,0:0:0:0:
64,192,9254,128,0,9476:0:0:0:50:K.wav
320,192,9254,128,0,9476:0:0:0:0:
192,192,9476,128,0,9698:0:0:0:70:clap1.wav
64,192,9698,128,0,9920:0:0:0:50:K.wav
448,192,9698,128,0,9809:0:0:0:0:
320,192,9809,128,0,9920:0:0:0:0:
192,192,9920,128,0,10143:0:0:0:50:S2.wav
320,192,10069,128,0,10143:0:0:0:0:
64,192,10143,128,0,10365:0:0:0:50:K.wav
448,192,10143,128,0,10365:0:0:0:0:
192,192,10365,128,0,10587:0:0:0:70:clap1.wav
64,192,10587,128,0,10809:0:0:0:50:K.wav
320,192,10587,128,0,10809:0:0:0:0:
448,192,10809,128,0,11032:0:0:0:50:S2.wav
64,192,11032,128,0,11254:0:0:0:50:K.wav
320,192,11032,128,0,11254:0:0:0:0:
192,192,11254,128,0,11476:0:0:0:70:clap1.wav
64,192,11476,128,0,11698:0:0:0:50:K.wav
320,192,11476,128,0,11587:0:0:0:0:
448,192,11587,128,0,11698:0:0:0:0:
192,192,11698,128,0,11920:0:0:0:50:S2.wav
320,192,11920,128,0,12143:0:0:0:50:K.wav
448,192,11920,128,0,12143:0:0:0:0:
64,192,12069,128,0,12143:0:0:0:0:
192,192,12143,128,0,12365:0:0:0:70:clap1.wav
64,192,12365,128,0,12587:0:0:0:50:K.wav
448,192,12365,128,0,12587:0:0:0:0:
320,192,12587,128,0,12809:0:0:0:50:S2.wav
192,192,12809,128,0,13032:0:0:0:50:K.wav
448,192,12809,128,0,13032:0:0:0:0:
320,192,13032,128,0,13254:0:0:0:70:clap1.wav
64,192,13254,128,0,13365:0:0:0:50:K.wav
448,192,13254,128,0,13476:0:0:0:0:
320,192,13365,128,0,13476:0:0:0:0:
192,192,13476,128,0,13698:0:0:0:50:S2.wav
64,192,13698,128,0,13920:0:0:0:50:K.wav
320,192,13698,128,0,13920:0:0:0:0:
448,192,13846,128,0,13920:0:0:0:0:
192,192,13920,128,0,14143:0:0:0:70:clap1.wav
64,192,14143,128,0,14365:0:0:0:50:K.wav
320,192,14143,128,0,14365:0:0:0:0:
448,192,14365,128,0,14587:0:0:0:50:S2.wav
64,192,14587,128,0,14809:0:0:0:50:K.wav
320,192,14587,128,0,14809:0:0:0:0:
192,192,14809,128,0,15032:0:0:0:70:clap1.wav
64,192,15032,128,0,15254:0:0:0:50:K.wav
320,192,15032,128,0,15143:0:0:0:0:
448,192,15143,128,0,15254:0:0:0:0:
192,192,15254,128,0,15476:0:0:0:50:S2.wav
320,192,15476,128,0,15698:0:0:0:50:K.wav
448,192,15476,128,0,15698:0:0:0:0:
64,192,15624,128,0,15698:0:0:0:0:
192,192,15698,128,0,15920:0:0:0:70:clap1.wav
64,192,15920,128,0,16143:0:0:0:50:K.wav
448,192,15920,128,0,16143:0:0:0:0:
192,192,16143,1,0,0:0:0:50:S2.wav
192,192,16254,1,0,0:0:0:0:
192,192,16365,128,0,16587:0:0:0:50:K.wav
448,192,16365,128,0,16587:0:0:0:0:
320,192,16587,128,0,16809:0:0:0:70:clap1.wav
64,192,16809,128,0,16920:0:0:0:50:K.wav
448,192,16809,128,0,17032:0:0:0:0:
192,192,16920,128,0,17032:0:0:0:0:
64,192,17032,128,0,17254:0:0:0:50:S2.wav
320,192,17180,128,0,17254:0:0:0:0:
192,192,17254,128,0,17476:0:0:0:50:K.wav
448,192,17254,128,0,17476:0:0:0:0:
64,192,17476,1,0,0:0:0:70:clap1.wav
320,192,17476,128,0,17698:0:0:0:0:
64,192,17698,128,0,17920:0:0:0:50:K.wav
192,192,17920,1,2,0:0:0:0:
320,192,17920,1,4,0:0:0:0:
448,192,17920,128,0,18143:0:0:0:0:
64,192,18143,128,0,18365:0:0:0:0:
320,192,18143,1,0,0:0:0:0:
192,192,18365,128,2,18587:0:0:0:0:
320,192,18365,1,0,0:0:0:30:LR_J Hit Whistle.wav
448,192,18365,1,0,0:0:0:0:
320,192,18587,1,0,0:0:0:0:
320,192,18698,1,0,0:0:0:0:
64,192,18809,1,2,0:0:0:0:
192,192,18809,1,0,0:0:0:0:
448,192,18809,128,0,19032:0:0:0:0:
192,192,18920,1,0,0:0:0:0:
64,192,19032,128,0,19254:0:0:0:0:
320,192,19032,1,0,0:0:0:0:
448,192,19180,128,0,19254:0:0:0:0:
192,192,19254,128,2,19476:0:0:0:0:
320,192,19254,1,0,0:0:0:0:
320,192,19365,1,0,0:0:0:0:
64,192,19476,1,0,0:0:0:0:
320,192,19476,128,0,19698:0:0:0:0:
64,192,19698,128,2,19920:0:0:0:0:
192,192,19698,1,0,0:0:0:0:
448,192,19698,1,0,0:0:0:0:
192,192,19920,1,0,0:0:0:0:
320,192,19920,128,0,20143:0:0:0:0:
64,192,20143,1,2,0:0:0:0:
192,192,20143,128,0,20365:0:0:0:30:LR_J Hit Whistle.wav
448,192,20143,1,0,0:0:0:0:
320,192,20365,1,0,0:0:0:0:
320,192,20476,1,0,0:0:0:0:
64,192,20587,1,2,0:0:0:0:
192,192,20587,1,0,0:0:0:0:
448,192,20587,128,0,20809:0:0:0:0:
192,192,20698,1,0,0:0:0:0:
64,192,20809,128,0,21032:0:0:0:0:
320,192,20809,1,0,0:0:0:0:
320,192,20958,128,0,21032:0:0:0:0:
192,192,21032,128,2,21254:0:0:0:0:
448,192,21032,1,0,0:0:0:0:
448,192,21143,1,0,0:0:0:0:
64,192,21254,1,0,0:0:0:0:
320,192,21254,128,0,21476:0:0:0:0:
64,192,21476,128,2,21698:0:0:0:0:
192,192,21476,1,0,0:0:0:0:
448,192,21476,1,0,0:0:0:0:
320,192,21698,128,0,21920:0:0:0:0:
448,192,21698,1,0,0:0:0:0:
64,192,21920,1,2,0:0:0:0:
192,192,21920,128,0,22143:0:0:0:30:LR_J Hit Whistle.wav
448,192,21920,1,0,0:0:0:0:
320,192,22143,1,0,0:0:0:0:
320,192,22254,1,0,0:0:0:0:
64,192,22365,128,2,22587:0:0:0:0:
192,192,22365,1,0,0:0:0:0:
448,192,22365,1,0,0:0:0:0:
448,192,22476,1,0,0:0:0:0:
192,192,22587,1,0,0:0:0:0:
320,192,22587,128,0,22809:0:0:0:0:
64,192,22735,128,0,22809:0:0:0:0:
192,192,22809,1,2,0:0:0:0:
448,192,22809,128,0,23032:0:0:0:0:
192,192,22920,1,0,0:0:0:0:
192,192,23032,128,0,23254:0:0:0:0:
320,192,23032,1,0,0:0:0:0:
64,192,23254,1,2,0:0:0:0:
320,192,23254,1,0,0:0:0:0:
448,192,23254,128,0,23476:0:0:0:0:
64,192,23365,1,0,0:0:0:0:
192,192,23476,128,0,23698:0:0:0:0:
320,192,23476,1,0,0:0:0:0:
64,192,23698,1,2,0:0:0:0:
320,192,23698,128,0,23920:0:0:0:30:LR_J Hit Whistle.wav
448,192,23698,1,0,0:0:0:0:
192,192,23920,1,0,0:0:0:0:
192,192,24032,1,0,0:0:0:0:
64,192,24143,128,2,24365:0:0:0:0:
320,192,24143,1,0,0:0:0:0:
448,192,24143,1,0,0:0:0:0:
320,192,24291,128,0,24365:0:0:0:0:
192,192,24365,1,0,0:0:0:0:
448,192,24365,128,0,24587:0:0:0:0:
64,192,24587,1,2,0:0:0:0:
192,192,24587,1,0,0:0:0:0:
320,192,24587,128,0,24809:0:0:0:0:
192,192,24809,128,0,25032:0:0:0:0:
448,192,24809,1,0,0:0:0:0:
64,192,25032,1,0,0:0:0:50:S2.wav
320,192,25032,1,0,0:0:0:0:
448,192,25032,1,0,0:0:0:0:
64,192,25254,1,0,0:0:0:50:S2.wav
320,192,25254,1,0,0:0:0:0:
448,192,25254,1,0,0:0:0:0:
64,192,25476,1,0,0:0:0:50:S4.wav
320,192,25476,1,0,0:0:0:30:LR_J Hit Whistle.wav
448,192,25476,1,0,0:0:0:0:
64,192,25698,1,0,0:0:0:50:S2.wav
320,192,25698,1,0,0:0:0:0:
448,192,25698,1,0,0:0:0:0:
64,192,25809,1,0,0:0:0:50:S2.wav
320,192,25809,1,0,0:0:0:0:
448,192,25809,1,0,0:0:0:0:
64,192,25920,1,0,0:0:0:50:S2.wav
192,192,25920,1,0,0:0:0:0:
448,192,25920,1,0,0:0:0:0:
64,192,26143,1,0,0:0:0:50:S2.wav
192,192,26143,1,0,0:0:0:0:
448,192,26143,1,0,0:0:0:0:
64,192,26365,1,0,0:0:0:50:S4.wav
192,192,26365,1,0,0:0:0:30:LR_J Hit Whistle.wav
448,192,26365,1,0,0:0:0:0:
64,192,26587,1,0,0:0:0:50:S2.wav
192,192,26587,1,0,0:0:0:0:
448,192,26587,1,0,0:0:0:0:
64,192,26698,1,0,0:0:0:50:S2.wav
192,192,26698,1,0,0:0:0:0:
448,192,26698,1,0,0:0:0:0:
192,192,26809,1,0,0:0:0:50:S2.wav
320,192,26809,1,0,0:0:0:0:
448,192,26809,1,0,0:0:0:0:
192,192,27032,1,0,0:0:0:50:S2.wav
320,192,27032,1,0,0:0:0:0:
448,192,27032,1,0,0:0:0:0:
192,192,27254,1,0,0:0:0:50:S4.wav
320,192,27254,1,0,0:0:0:30:LR_J Hit Whistle.wav
448,192,27254,1,0,0:0:0:0:
192,192,27476,1,0,0:0:0:50:S2.wav
320,192,27476,1,0,0:0:0:0:
448,192,27476,1,0,0:0:0:0:
192,192,27587,1,0,0:0:0:50:S2.wav
320,192,27587,1,0,0:0:0:0:
448,192,27587,1,0,0:0:0:0:
64,192,27698,1,0,0:0:0:50:S2.wav
192,192,27698,1,0,0:0:0:0:
320,192,27698,1,0,0:0:0:0:
64,192,27920,1,0,0:0:0:50:S2.wav
192,192,27920,1,0,0:0:0:0:
320,192,27920,1,0,0:0:0:0:
64,192,28143,1,0,0:0:0:50:S4.wav
192,192,28143,1,0,0:0:0:30:LR_J Hit Whistle.wav
320,192,28143,1,0,0:0:0:0:
64,192,28365,1,0,0:0:0:50:S2.wav
192,192,28365,1,0,0:0:0:0:
320,192,28365,1,0,0:0:0:0:
64,192,28476,1,0,0:0:0:50:S2.wav
192,192,28476,1,0,0:0:0:0:
320,192,28476,1,0,0:0:0:0:
64,192,28587,128,0,28698:0:0:0:50:S4.wav
320,192,28587,1,0,0:0:0:30:LR_J Hit Whistle.wav
448,192,28587,1,0,0:0:0:0:
192,192,28698,1,0,0:0:0:50:S2.wav
448,192,28698,1,0,0:0:0:0:
192,192,28809,1,0,0:0:0:50:S2.wav
320,192,28809,1,0,0:0:0:0:
192,192,28920,1,0,0:0:0:50:S2.wav
320,192,28920,1,0,0:0:0:0:
64,192,29032,1,0,0:0:0:50:S4.wav
192,192,29032,1,0,0:0:0:30:LR_J Hit Whistle.wav
448,192,29032,128,0,29143:0:0:0:0:
64,192,29143,1,0,0:0:0:50:S2.wav
320,192,29143,1,0,0:0:0:0:
192,192,29254,1,0,0:0:0:50:S2.wav
320,192,29254,1,0,0:0:0:0:
192,192,29365,1,0,0:0:0:50:S2.wav
320,192,29365,1,0,0:0:0:0:
192,192,29476,1,0,0:0:0:50:S4.wav
448,192,29476,1,0,0:0:0:30:LR_J Hit Whistle.wav
64,192,29532,1,0,0:0:0:40:S2.wav
320,192,29587,1,0,0:0:0:40:S2.wav
192,192,29643,1,0,0:0:0:40:S2.wav
64,192,29698,1,0,0:0:0:40:S2.wav
448,192,29698,1,0,0:0:0:0:
320,192,29754,1,0,0:0:0:40:S2.wav
192,192,29809,1,0,0:0:0:40:S2.wav
448,192,29865,1,0,0:0:0:40:S2.wav
64,192,29920,1,0,0:0:0:50:S4.wav
192,192,29920,1,0,0:0:0:0:
448,192,29976,1,0,0:0:0:30:S2.wav
192,192,30032,1,0,0:0:0:30:S2.wav
320,192,30087,1,0,0:0:0:30:S2.wav
64,192,30143,1,0,0:0:0:30:S2.wav
448,192,30143,1,0,0:0:0:0:
320,192,30198,1,0,0:0:0:30:S2.wav
64,192,30254,1,0,0:0:0:30:S2.wav
320,192,30309,1,0,0:0:0:30:S2.wav
64,192,30365,1,0,0:0:0:50:S3.wav
192,192,30365,1,0,0:0:0:0:
448,192,30365,1,0,0:0:0:0:
64,192,30476,1,0,0:0:0:50:S3.wav
192,192,30476,1,0,0:0:0:0:
448,192,30476,1,0,0:0:0:0:
192,192,30587,1,0,0:0:0:50:S1.wav
320,192,30587,1,0,0:0:0:0:
64,192,30809,1,0,0:0:0:50:S_.wav
192,192,30809,1,0,0:0:0:0:
448,192,30809,1,0,0:0:0:0:
64,192,31032,1,0,0:0:0:50:S3.wav
320,192,31032,1,0,0:0:0:0:
448,192,31032,1,0,0:0:0:0:
192,192,31143,1,0,0:0:0:50:S3.wav
320,192,31143,1,0,0:0:0:0:
192,192,31365,1,0,0:0:0:50:S3.wav
320,192,31365,1,0,0:0:0:0:
192,192,31587,1,0,0:0:0:50:S3.wav
320,192,31587,1,0,0:0:0:0:
64,192,31698,128,0,32032:0:0:0:70:S_.wav
192,192,31698,128,0,32032:0:0:0:0:
320,192,31698,128,0,32032:0:0:0:0:
448,192,31698,128,0,32032:0:0:0:0:
64,192,32143,1,2,0:0:0:0:
192,192,32143,1,4,0:0:0:0:
320,192,32143,1,0,0:0:0:0:
448,192,32143,1,0,0:0:0:0:
320,192,32476,1,0,0:0:0:0:
320,192,32532,1,0,0:0:0:0:
64,192,32587,1,2,0:0:0:0:
192,192,32587,1,0,0:0:0:0:
448,192,32587,1,0,0:0:0:0:
192,192,32809,1,0,0:0:0:0:
320,192,32809,1,0,0:0:0:0:
320,192,32920,1,0,0:0:0:0:
448,192,32920,1,0,0:0:0:0:
64,192,33032,1,2,0:0:0:0:
192,192,33032,1,0,0:0:0:0:
320,192,33143,1,0,0:0:0:0:
448,192,33143,1,0,0:0:0:0:
320,192,33254,1,0,0:0:0:0:
448,192,33254,1,0,0:0:0:0:
64,192,33476,1,2,0:0:0:0:
192,192,33476,1,0,0:0:0:0:
320,192,33476,1,0,0:0:0:0:
448,192,33476,1,0,0:0:0:0:
64,192,33698,1,0,0:0:0:0:
448,192,33698,1,0,0:0:0:0:
64,192,33920,1,2,0:0:0:0:
192,192,33920,1,0,0:0:0:0:
320,192,33920,1,0,0:0:0:0:
448,192,33920,1,0,0:0:0:0:
448,192,34254,1,0,0:0:0:0:
448,192,34309,1,0,0:0:0:0:
64,192,34365,1,2,0:0:0:0:
192,192,34365,1,0,0:0:0:0:
320,192,34365,1,0,0:0:0:0:
320,192,34587,1,0,0:0:0:0:
448,192,34587,1,0,0:0:0:0:
320,192,34698,1,0,0:0:0:0:
448,192,34698,1,0,0:0:0:0:
64,192,34809,1,2,0:0:0:0:
192,192,34809,1,0,0:0:0:0:
320,192,34920,1,0,0:0:0:0:
448,192,34920,1,0,0:0:0:0:
320,192,35032,1,0,0:0:0:0:
448,192,35032,1,0,0:0:0:0:
64,192,35143,1,0,0:0:0:0:
192,192,35143,1,0,0:0:0:0:
64,192,35254,1,2,0:0:0:0:
192,192,35254,1,0,0:0:0:0:
320,192,35254,1,0,0:0:0:0:
448,192,35254,1,0,0:0:0:0:
192,192,35365,1,0,0:0:0:0:
320,192,35365,1,0,0:0:0:0:
192,192,35587,1,0,0:0:0:0:
320,192,35587,1,0,0:0:0:0:
64,192,35698,1,2,0:0:0:0:
192,192,35698,1,0,0:0:0:0:
320,192,35698,1,0,0:0:0:0:
448,192,35698,1,0,0:0:0:0:
320,192,36032,1,0,0:0:0:0:
320,192,36087,1,0,0:0:0:0:
64,192,36143,1,2,0:0:0:0:
192,192,36143,1,0,0:0:0:0:
448,192,36143,1,0,0:0:0:0:
192,192,36365,1,0,0:0:0:0:
320,192,36365,1,0,0:0:0:0:
320,192,36476,1,0,0:0:0:0:
448,192,36476,1,0,0:0:0:0:
64,192,36587,1,2,0:0:0:0:
192,192,36587,1,0,0:0:0:0:
320,192,36698,1,0,0:0:0:0:
448,192,36698,1,0,0:0:0:0:
64,192,36809,1,0,0:0:0:0:
320,192,36809,1,0,0:0:0:0:
64,192,36920,1,0,0:0:0:0:
64,192,36976,1,0,0:0:0:0:
192,192,37032,1,2,0:0:0:0:
320,192,37032,1,0,0:0:0:0:
448,192,37032,1,0,0:0:0:0:
192,192,37254,1,0,0:0:0:0:
320,192,37254,1,0,0:0:0:0:
64,192,37365,1,0,0:0:0:0:
320,192,37365,1,0,0:0:0:0:
64,192,37476,1,2,0:0:0:0:
192,192,37476,1,0,0:0:0:0:
320,192,37476,1,0,0:0:0:0:
448,192,37476,1,0,0:0:0:0:
320,192,37809,1,0,0:0:0:0:
320,192,37865,1,0,0:0:0:0:
64,192,37920,1,2,0:0:0:0:
192,192,37920,1,0,0:0:0:0:
448,192,37920,1,0,0:0:0:0:
192,192,38143,1,0,0:0:0:0:
320,192,38143,1,0,0:0:0:0:
320,192,38254,1,0,0:0:0:0:
448,192,38254,1,0,0:0:0:0:
64,192,38365,1,2,0:0:0:0:
192,192,38365,1,0,0:0:0:0:
320,192,38476,1,0,0:0:0:0:
448,192,38476,1,0,0:0:0:0:
320,192,38587,1,0,0:0:0:0:
448,192,38587,1,0,0:0:0:0:
320,192,38698,1,0,0:0:0:0:
320,192,38754,1,0,0:0:0:0:
64,192,38809,1,2,0:0:0:0:
192,192,38809,1,0,0:0:0:0:
448,192,38809,1,0,0:0:0:0:
192,192,39032,1,0,0:0:0:0:
320,192,39032,1,0,0:0:0:0:
320,192,39143,1,0,0:0:0:0:
448,192,39143,1,0,0:0:0:0:
64,192,39254,128,2,39309:0:0:0:0:
192,192,39254,128,0,39309:0:0:0:0:
320,192,39254,128,0,39309:0:0:0:0:
448,192,39254,128,0,39309:0:0:0:0:
192,192,39587,1,0,0:0:0:0:
192,192,39643,1,0,0:0:0:0:
64,192,39698,1,2,0:0:0:0:
320,192,39698,1,0,0:0:0:0:
448,192,39698,1,0,0:0:0:0:
192,192,39920,1,0,0:0:0:0:
320,192,39920,1,0,0:0:0:0:
64,192,40032,1,0,0:0:0:0:
192,192,40032,1,0,0:0:0:0:
320,192,40143,1,2,0:0:0:0:
448,192,40143,1,0,0:0:0:0:
64,192,40254,1,0,0:0:0:0:
192,192,40254,1,0,0:0:0:0:
64,192,40365,1,0,0:0:0:0:
192,192,40365,1,0,0:0:0:0:
64,192,40587,1,2,0:0:0:0:
192,192,40587,1,0,0:0:0:0:
320,192,40587,1,0,0:0:0:0:
448,192,40587,1,0,0:0:0:0:
64,192,40809,1,0,0:0:0:0:
448,192,40809,1,0,0:0:0:0:
64,192,41032,1,2,0:0:0:0:
192,192,41032,1,0,0:0:0:0:
320,192,41032,1,0,0:0:0:0:
448,192,41032,1,0,0:0:0:0:
64,192,41365,1,0,0:0:0:0:
64,192,41420,1,0,0:0:0:0:
192,192,41476,1,2,0:0:0:0:
320,192,41476,1,0,0:0:0:0:
448,192,41476,1,0,0:0:0:0:
64,192,41698,1,0,0:0:0:0:
192,192,41698,1,0,0:0:0:0:
64,192,41809,1,0,0:0:0:0:
192,192,41809,1,0,0:0:0:0:
320,192,41920,1,2,0:0:0:0:
448,192,41920,1,0,0:0:0:0:
64,192,42032,1,0,0:0:0:0:
192,192,42032,1,0,0:0:0:0:
64,192,42143,1,0,0:0:0:0:
192,192,42143,1,0,0:0:0:0:
320,192,42254,1,0,0:0:0:0:
448,192,42254,1,0,0:0:0:0:
64,192,42365,1,2,0:0:0:0:
192,192,42365,1,0,0:0:0:0:
320,192,42365,1,0,0:0:0:0:
448,192,42365,1,0,0:0:0:0:
192,192,42476,1,0,0:0:0:0:
320,192,42476,1,0,0:0:0:0:
192,192,42698,1,0,0:0:0:0:
320,192,42698,1,0,0:0:0:0:
64,192,42809,1,2,0:0:0:0:
192,192,42809,1,0,0:0:0:70:clap1.wav
320,192,42809,1,0,0:0:0:0:
448,192,42809,1,0,0:0:0:0:
64,192,43032,128,0,43143:0:0:0:70:clap2.wav
448,192,43032,128,0,43143:0:0:0:0:
192,192,43143,1,0,0:0:0:0:
192,192,43198,1,0,0:0:0:0:
64,192,43254,1,0,0:0:0:70:clap1.wav
320,192,43254,1,0,0:0:0:0:
448,192,43254,1,0,0:0:0:0:
64,192,43476,1,0,0:0:0:70:clap1.wav
192,192,43476,1,0,0:0:0:0:
192,192,43587,1,0,0:0:0:0:
320,192,43587,1,0,0:0:0:0:
64,192,43698,128,0,44087:0:0:0:40:WB.wav
320,192,43698,1,0,0:0:0:0:
448,192,43698,128,0,43920:0:0:0:0:
192,192,43920,128,0,44087:0:0:0:0:
64,192,44143,1,0,0:0:0:70:S_.wav
192,192,44143,1,0,0:0:0:0:
448,192,44143,128,0,44254:0:0:0:0:
320,192,44198,128,0,44309:0:0:0:0:
192,192,44254,128,0,44365:0:0:0:0:
64,192,44309,128,0,44420:0:0:0:0:
320,192,44365,1,0,0:0:0:70:S_.wav
448,192,44365,1,0,0:0:0:0:
192,192,44420,128,0,44476:0:0:0:0:
320,192,44476,1,0,0:0:0:70:S_.wav
448,192,44476,1,0,0:0:0:0:
192,192,44532,128,0,44587:0:0:0:0:
64,192,44587,128,0,44698:0:0:0:40:WB.wav
320,192,44587,1,0,0:0:0:0:
448,192,44587,1,0,0:0:0:0:
320,192,44698,128,0,44809:0:0:0:0:
448,192,44698,128,0,44809:0:0:0:0:
64,192,44809,128,0,44920:0:0:0:0:
192,192,44809,128,0,44920:0:0:0:0:
320,192,44920,1,0,0:0:0:0:
448,192,44920,1,0,0:0:0:0:
64,192,45032,1,0,0:0:0:40:WB.wav
192,192,45032,1,0,0:0:0:0:
448,192,45032,128,0,45143:0:0:0:0:
64,192,45143,128,0,45254:0:0:0:0:
192,192,45143,128,0,45254:0:0:0:0:
320,192,45254,128,0,45365:0:0:0:0:
448,192,45254,128,0,45365:0:0:0:0:
64,192,45365,1,0,0:0:0:0:
192,192,45365,1,0,0:0:0:0:
64,192,45476,1,0,0:0:0:40:WB.wav
320,192,45476,1,0,0:0:0:0:
448,192,45476,1,0,0:0:0:0:
192,192,45587,1,0,0:0:0:0:
448,192,45587,1,0,0:0:0:0:
192,192,45698,1,0,0:0:0:0:
320,192,45698,1,0,0:0:0:0:
64,192,45809,1,0,0:0:0:0:
320,192,45809,1,0,0:0:0:0:
64,192,45920,128,0,46254:0:0:0:40:WB.wav
192,192,45920,128,0,46032:0:0:0:0:
320,192,45976,128,0,46087:0:0:0:0:
192,192,46087,128,0,46254:0:0:0:0:
320,192,46143,128,0,46254:0:0:0:0:
448,192,46143,128,0,46254:0:0:0:0:
64,192,46365,1,0,0:0:0:50:K.wav
192,192,46365,1,0,0:0:0:0:
320,192,46587,1,0,0:0:0:0:
448,192,46587,1,0,0:0:0:0:
64,192,46809,1,4,0:0:0:0:
192,192,46809,1,2,0:0:0:0:
320,192,46809,1,0,0:0:0:0:
448,192,46809,1,0,0:0:0:0:
64,192,47032,128,0,47254:0:0:0:0:
448,192,47032,1,0,0:0:0:0:
192,192,47143,1,0,0:0:0:0:
320,192,47143,1,0,0:0:0:0:
192,192,47254,1,2,0:0:0:0:
448,192,47254,1,0,0:0:0:0:
320,192,47365,1,0,0:0:0:0:
448,192,47365,1,0,0:0:0:0:
64,192,47476,128,0,47698:0:0:0:0:
320,192,47476,1,0,0:0:0:0:
448,192,47476,1,0,0:0:0:0:
192,192,47698,1,2,0:0:0:0:
320,192,47698,1,0,0:0:0:0:
448,192,47698,1,0,0:0:0:0:
64,192,47920,128,0,48143:0:0:0:0:
192,192,47920,1,0,0:0:0:0:
448,192,47920,1,0,0:0:0:0:
192,192,48143,1,2,0:0:0:0:
320,192,48143,1,0,0:0:0:0:
448,192,48143,1,0,0:0:0:0:
64,192,48365,128,0,48587:0:0:0:0:
448,192,48476,1,0,0:0:0:0:
448,192,48532,1,0,0:0:0:0:
192,192,48587,1,2,0:0:0:0:
320,192,48587,1,0,0:0:0:0:
64,192,48809,128,0,49032:0:0:0:0:
320,192,48809,1,0,0:0:0:0:
448,192,48809,1,0,0:0:0:0:
320,192,48920,1,0,0:0:0:0:
448,192,48920,1,0,0:0:0:0:
192,192,49032,1,2,0:0:0:0:
320,192,49143,1,0,0:0:0:0:
448,192,49143,1,0,0:0:0:0:
64,192,49254,128,0,49476:0:0:0:0:
320,192,49254,1,0,0:0:0:0:
448,192,49254,1,0,0:0:0:0:
192,192,49365,1,0,0:0:0:0:
320,192,49365,1,0,0:0:0:0:
192,192,49476,1,2,0:0:0:0:
320,192,49476,1,0,0:0:0:0:
448,192,49476,1,0,0:0:0:0:
64,192,49587,1,0,0:0:0:0:
448,192,49587,1,0,0:0:0:0:
64,192,49809,1,0,0:0:0:0:
448,192,49809,1,0,0:0:0:0:
64,192,49920,1,2,0:0:0:0:
192,192,49920,1,0,0:0:0:0:
320,192,49920,1,0,0:0:0:0:
448,192,49920,1,0,0:0:0:0:
320,192,50143,128,0,50365:0:0:0:0:
192,192,50254,1,0,0:0:0:0:
192,192,50309,1,0,0:0:0:0:
64,192,50365,1,2,0:0:0:0:
448,192,50365,1,0,0:0:0:0:
192,192,50587,1,0,0:0:0:0:
320,192,50587,128,0,50809:0:0:0:0:
64,192,50698,1,0,0:0:0:0:
192,192,50698,1,0,0:0:0:0:
448,192,50809,1,2,0:0:0:0:
64,192,50920,1,0,0:0:0:0:
192,192,50920,1,0,0:0:0:0:
64,192,51032,1,0,0:0:0:0:
320,192,51032,128,0,51254:0:0:0:0:
448,192,51032,1,0,0:0:0:0:
64,192,51143,1,0,0:0:0:0:
64,192,51198,1,0,0:0:0:0:
192,192,51254,1,2,0:0:0:0:
448,192,51254,1,0,0:0:0:0:
320,192,51476,128,0,51698:0:0:0:0:
448,192,51476,1,0,0:0:0:0:
64,192,51587,1,0,0:0:0:0:
192,192,51587,1,0,0:0:0:0:
64,192,51698,1,2,0:0:0:0:
192,192,51698,1,0,0:0:0:0:
448,192,51698,1,0,0:0:0:0:
320,192,51920,128,0,52143:0:0:0:0:
192,192,52032,1,0,0:0:0:0:
192,192,52087,1,0,0:0:0:0:
64,192,52143,1,2,0:0:0:0:
448,192,52143,1,0,0:0:0:0:
192,192,52365,1,0,0:0:0:0:
320,192,52365,128,0,52587:0:0:0:0:
64,192,52476,1,0,0:0:0:0:
192,192,52476,1,0,0:0:0:0:
448,192,52587,1,2,0:0:0:0:
64,192,52698,1,0,0:0:0:0:
192,192,52698,1,0,0:0:0:0:
64,192,52809,1,0,0:0:0:0:
192,192,52809,1,0,0:0:0:0:
320,192,52809,128,0,53032:0:0:0:0:
192,192,52920,1,0,0:0:0:0:
192,192,52976,1,0,0:0:0:0:
64,192,53032,1,2,0:0:0:0:
448,192,53032,1,0,0:0:0:0:
192,192,53254,1,0,0:0:0:0:
320,192,53254,1,0,0:0:0:0:
320,192,53365,1,0,0:0:0:0:
448,192,53365,1,0,0:0:0:0:
64,192,53476,128,2,53532:0:0:0:0:
192,192,53476,128,0,53532:0:0:0:0:
320,192,53476,128,0,53532:0:0:0:0:
448,192,53476,128,0,53532:0:0:0:0:
448,192,53698,128,0,53920:0:0:0:0:
192,192,53809,1,0,0:0:0:0:
192,192,53865,1,0,0:0:0:0:
64,192,53920,1,2,0:0:0:0:
320,192,53920,1,0,0:0:0:0:
64,192,54143,1,0,0:0:0:0:
448,192,54143,128,0,54365:0:0:0:0:
192,192,54254,1,0,0:0:0:0:
320,192,54254,1,0,0:0:0:0:
64,192,54365,1,2,0:0:0:0:
320,192,54365,1,0,0:0:0:0:
64,192,54476,1,0,0:0:0:0:
192,192,54476,1,0,0:0:0:0:
64,192,54587,1,0,0:0:0:0:
192,192,54587,1,0,0:0:0:0:
448,192,54587,128,0,54809:0:0:0:0:
64,192,54809,1,2,0:0:0:0:
192,192,54809,1,0,0:0:0:0:
320,192,54809,1,0,0:0:0:0:
64,192,55032,1,0,0:0:0:0:
320,192,55032,1,0,0:0:0:0:
448,192,55032,128,0,55254:0:0:0:0:
64,192,55254,1,2,0:0:0:0:
192,192,55254,1,0,0:0:0:0:
320,192,55254,1,0,0:0:0:0:
448,192,55476,128,0,55698:0:0:0:0:
64,192,55587,1,0,0:0:0:0:
64,192,55643,1,0,0:0:0:0:
192,192,55698,1,2,0:0:0:0:
320,192,55698,1,0,0:0:0:0:
64,192,55920,1,0,0:0:0:0:
192,192,55920,1,0,0:0:0:0:
448,192,55920,128,0,56143:0:0:0:0:
64,192,56032,1,0,0:0:0:0:
192,192,56032,1,0,0:0:0:0:
320,192,56143,1,2,0:0:0:0:
64,192,56254,1,0,0:0:0:0:
192,192,56254,1,0,0:0:0:0:
64,192,56365,1,0,0:0:0:0:
192,192,56365,1,0,0:0:0:0:
448,192,56365,128,0,56587:0:0:0:0:
192,192,56476,1,0,0:0:0:0:
320,192,56476,1,0,0:0:0:0:
64,192,56587,1,2,0:0:0:0:
192,192,56587,1,0,0:0:0:0:
320,192,56587,1,0,0:0:0:0:
64,192,56698,1,0,0:0:0:0:
448,192,56698,1,0,0:0:0:0:
64,192,56920,1,0,0:0:0:0:
448,192,56920,1,0,0:0:0:0:
64,192,57032,1,2,0:0:0:0:
192,192,57032,1,0,0:0:0:0:
320,192,57032,1,0,0:0:0:0:
448,192,57032,1,0,0:0:0:0:
192,192,57254,128,0,57476:0:0:0:0:
320,192,57365,1,0,0:0:0:0:
320,192,57420,1,0,0:0:0:0:
64,192,57476,1,2,0:0:0:0:
448,192,57476,1,0,0:0:0:0:
192,192,57698,128,0,57920:0:0:0:0:
320,192,57698,1,0,0:0:0:0:
320,192,57809,1,0,0:0:0:0:
448,192,57809,1,0,0:0:0:0:
64,192,57920,1,2,0:0:0:0:
320,192,58032,1,0,0:0:0:0:
448,192,58032,1,0,0:0:0:0:
64,192,58143,1,0,0:0:0:0:
192,192,58143,128,0,58365:0:0:0:0:
448,192,58143,1,0,0:0:0:0:
448,192,58254,1,0,0:0:0:0:
448,192,58309,1,0,0:0:0:0:
64,192,58365,1,2,0:0:0:0:
320,192,58365,1,0,0:0:0:0:
64,192,58587,1,0,0:0:0:0:
192,192,58587,128,0,58809:0:0:0:0:
320,192,58698,1,0,0:0:0:0:
448,192,58698,1,0,0:0:0:0:
64,192,58809,1,2,0:0:0:0:
320,192,58809,1,0,0:0:0:0:
448,192,58809,1,0,0:0:0:0:
192,192,59032,128,0,59254:0:0:0:0:
320,192,59143,1,0,0:0:0:0:
320,192,59198,1,0,0:0:0:0:
64,192,59254,1,2,0:0:0:0:
448,192,59254,1,0,0:0:0:0:
192,192,59476,128,0,59698:0:0:0:0:
320,192,59476,1,0,0:0:0:0:
320,192,59587,1,0,0:0:0:0:
448,192,59587,1,0,0:0:0:0:
64,192,59698,1,2,0:0:0:0:
192,192,59809,1,0,0:0:0:0:
448,192,59809,1,0,0:0:0:0:
192,192,59920,1,0,0:0:0:0:
448,192,59920,1,0,0:0:0:0:
192,192,60032,1,0,0:0:0:0:
448,192,60032,1,0,0:0:0:0:
64,192,60143,1,0,0:0:0:70:S_.wav
192,192,60143,1,0,0:0:0:0:
320,192,60143,1,0,0:0:0:0:
448,192,60143,1,0,0:0:0:0:
192,192,60587,128,4,60809:0:0:0:0:
448,192,60587,128,0,60698:0:0:0:0:
64,192,60809,128,0,60920:0:0:0:0:
320,192,60809,128,0,61920:0:0:0:0:
448,192,60920,128,0,61032:0:0:0:0:
192,192,61032,128,0,61143:0:0:0:70:clap1.wav
448,192,61254,128,0,61365:0:0:0:0:
64,192,61365,128,0,61476:0:0:0:0:
192,192,61476,128,0,61587:0:0:0:0:
64,192,61698,128,0,61809:0:0:0:0:
448,192,61809,128,0,61920:0:0:0:0:
64,192,61920,128,0,62143:0:0:0:70:clap1.wav
192,192,61920,128,0,62032:0:0:0:0:
192,192,62143,128,0,62365:0:0:0:0:
448,192,62143,128,0,62254:0:0:0:0:
64,192,62254,128,0,62365:0:0:0:0:
320,192,62365,128,0,62476:0:0:0:0:
448,192,62365,128,0,63032:0:0:0:0:
192,192,62587,128,0,62698:0:0:0:0:
320,192,62698,128,0,62809:0:0:0:0:
64,192,62809,128,0,62920:0:0:0:70:clap1.wav
192,192,63032,128,0,63143:0:0:0:0:
320,192,63032,128,0,63698:0:0:0:0:
448,192,63143,128,0,63254:0:0:0:0:
64,192,63254,128,0,63365:0:0:0:0:
64,192,63476,128,0,63587:0:0:0:0:
448,192,63587,128,0,63698:0:0:0:0:
64,192,63698,128,0,64143:0:0:0:70:clap1.wav
192,192,63698,128,0,63809:0:0:0:0:
192,192,63920,128,0,64032:0:0:0:0:
192,192,64143,128,0,64254:0:0:0:0:
448,192,64143,128,0,64587:0:0:0:0:
64,192,64365,128,0,64476:0:0:0:0:
320,192,64476,128,0,64587:0:0:0:0:
64,192,64587,128,0,64809:0:0:0:70:clap1.wav
192,192,64587,128,0,64698:0:0:0:0:
320,192,64809,128,0,65254:0:0:0:0:
448,192,64809,128,0,64920:0:0:0:0:
64,192,64920,128,0,65032:0:0:0:0:
192,192,65032,128,0,65143:0:0:0:0:
64,192,65254,128,0,65365:0:0:0:0:
192,192,65254,128,0,65476:0:0:0:0:
448,192,65365,128,0,65476:0:0:0:0:
64,192,65476,128,0,65698:0:0:0:70:clap1.wav
320,192,65476,128,0,65587:0:0:0:0:
192,192,65698,128,0,65809:0:0:0:0:
320,192,65698,128,0,66365:0:0:0:0:
448,192,65809,128,0,65920:0:0:0:0:
64,192,65920,128,0,66032:0:0:0:0:
448,192,66143,128,0,66254:0:0:0:0:
64,192,66254,128,0,66365:0:0:0:0:
192,192,66365,128,0,66476:0:0:0:70:clap1.wav
448,192,66365,128,0,66587:0:0:0:0:
64,192,66587,128,0,67032:0:0:0:0:
320,192,66587,128,0,66698:0:0:0:0:
192,192,66698,128,0,66809:0:0:0:0:
448,192,66809,128,0,66920:0:0:0:0:
320,192,67032,128,0,67143:0:0:0:0:
448,192,67032,128,0,67254:0:0:0:0:
192,192,67143,128,0,67254:0:0:0:0:
64,192,67254,1,0,0:0:0:50:S3.wav
320,192,67254,128,0,67476:0:0:0:70:clap1.wav
64,192,67365,1,0,0:0:0:50:S3.wav
192,192,67365,1,0,0:0:0:0:
64,192,67476,1,0,0:0:0:50:S3.wav
192,192,67476,128,0,67698:0:0:0:0:
320,192,67587,1,0,0:0:0:50:S3.wav
64,192,67698,128,2,67809:0:0:0:0:
320,192,67698,1,0,0:0:0:0:
448,192,67698,1,0,0:0:0:0:
192,192,67809,128,0,67920:0:0:0:0:
448,192,67809,1,0,0:0:0:0:
64,192,67920,128,0,68032:0:0:0:0:
448,192,67920,1,0,0:0:0:0:
192,192,68032,128,0,68143:0:0:0:0:
448,192,68032,1,0,0:0:0:0:
64,192,68143,1,2,0:0:0:0:
320,192,68143,128,0,68254:0:0:0:70:clap1.wav
448,192,68143,1,0,0:0:0:0:
64,192,68254,128,0,68365:0:0:0:0:
192,192,68365,1,0,0:0:0:0:
448,192,68365,128,0,68476:0:0:0:0:
192,192,68476,128,0,68587:0:0:0:0:
64,192,68587,1,2,0:0:0:0:
320,192,68587,128,0,68698:0:0:0:0:
448,192,68587,1,0,0:0:0:0:
64,192,68698,128,0,68809:0:0:0:0:
192,192,68698,1,0,0:0:0:0:
192,192,68809,1,0,0:0:0:0:
448,192,68809,128,0,68920:0:0:0:0:
320,192,68920,128,0,69032:0:0:0:0:
64,192,69032,1,2,0:0:0:0:
192,192,69032,1,0,0:0:0:70:clap1.wav
448,192,69032,128,0,69143:0:0:0:0:
64,192,69143,1,0,0:0:0:0:
320,192,69143,128,0,69254:0:0:0:0:
64,192,69254,1,0,0:0:0:0:
192,192,69254,128,0,69365:0:0:0:0:
448,192,69365,128,0,69476:0:0:0:0:
64,192,69476,128,2,70143:0:0:0:0:
192,192,69476,1,0,0:0:0:0:
320,192,69476,1,0,0:0:0:0:
320,192,69587,1,0,0:0:0:0:
320,192,69698,1,0,0:0:0:0:
320,192,69809,1,0,0:0:0:0:
192,192,69920,1,2,0:0:0:0:
320,192,69920,1,0,0:0:0:70:clap1.wav
448,192,69920,1,0,0:0:0:0:
192,192,70143,1,0,0:0:0:0:
448,192,70143,128,0,70809:0:0:0:0:
192,192,70254,1,0,0:0:0:0:
64,192,70365,1,2,0:0:0:0:
192,192,70365,1,0,0:0:0:0:
320,192,70365,1,0,0:0:0:0:
64,192,70476,1,0,0:0:0:0:
64,192,70587,1,0,0:0:0:0:
64,192,70809,1,2,0:0:0:0:
192,192,70809,1,0,0:0:0:70:clap1.wav
320,192,70809,128,0,71254:0:0:0:0:
192,192,70920,1,0,0:0:0:0:
192,192,71032,1,0,0:0:0:0:
64,192,71254,1,2,0:0:0:0:
448,192,71254,128,0,71365:0:0:0:0:
64,192,71365,1,0,0:0:0:0:
320,192,71365,128,0,71476:0:0:0:0:
64,192,71476,1,0,0:0:0:0:
448,192,71476,128,0,71587:0:0:0:0:
64,192,71587,1,0,0:0:0:0:
320,192,71587,128,0,71698:0:0:0:0:
64,192,71698,1,2,0:0:0:0:
192,192,71698,128,0,71809:0:0:0:70:clap1.wav
448,192,71698,1,0,0:0:0:0:
448,192,71809,128,0,71920:0:0:0:0:
192,192,71920,128,0,72032:0:0:0:0:
320,192,71920,1,0,0:0:0:0:
320,192,72032,128,0,72143:0:0:0:0:
64,192,72143,128,2,72254:0:0:0:0:
192,192,72143,1,0,0:0:0:0:
448,192,72143,1,0,0:0:0:0:
192,192,72254,128,0,72365:0:0:0:0:
320,192,72254,1,0,0:0:0:0:
320,192,72365,1,0,0:0:0:0:
448,192,72365,128,0,72476:0:0:0:0:
64,192,72476,128,0,72587:0:0:0:0:
192,192,72587,128,2,72698:0:0:0:0:
320,192,72587,1,0,0:0:0:70:clap1.wav
448,192,72587,1,0,0:0:0:0:
64,192,72698,128,0,72809:0:0:0:0:
448,192,72698,1,0,0:0:0:0:
320,192,72809,128,0,72920:0:0:0:0:
448,192,72809,1,0,0:0:0:0:
64,192,72920,128,0,73032:0:0:0:0:
192,192,73032,1,0,0:0:0:0:
448,192,73032,128,0,73698:0:0:0:0:
192,192,73143,1,0,0:0:0:0:
192,192,73254,1,0,0:0:0:0:
192,192,73365,1,0,0:0:0:0:
192,192,73476,1,0,0:0:0:70:clap1.wav
64,192,73698,128,0,74809:0:0:0:0:
320,192,73698,1,0,0:0:0:0:
320,192,73809,1,0,0:0:0:0:
320,192,73920,1,0,0:0:0:0:
448,192,73920,1,0,0:0:0:0:
448,192,74032,1,0,0:0:0:0:
448,192,74143,1,0,0:0:0:0:
320,192,74365,1,0,0:0:0:70:clap1.wav
448,192,74365,1,0,0:0:0:0:
320,192,74476,1,0,0:0:0:0:
320,192,74587,1,0,0:0:0:0:
192,192,74809,128,4,76587:0:0:0:0:
320,192,74809,1,0,0:0:0:50:S3.wav
448,192,74809,128,0,75032:0:0:0:0:
64,192,75032,128,0,75254:0:0:0:0:
320,192,75254,128,0,75476:0:0:0:50:S3.wav
448,192,75254,1,0,0:0:0:0:
448,192,75476,1,0,0:0:0:0:
320,192,75587,1,0,0:0:0:0:
64,192,75698,128,0,75920:0:0:0:50:S3.wav
320,192,75698,1,0,0:0:0:0:
448,192,75698,1,0,0:0:0:0:
448,192,75920,128,0,76143:0:0:0:0:
64,192,76143,1,0,0:0:0:50:S3.wav
320,192,76143,128,0,76365:0:0:0:0:
64,192,76365,1,0,0:0:0:0:
320,192,76476,1,0,0:0:0:0:
64,192,76587,128,0,76809:0:0:0:50:S3.wav
320,192,76587,1,0,0:0:0:0:
448,192,76587,128,0,78365:0:0:0:0:
320,192,76809,128,0,77032:0:0:0:0:
64,192,77032,1,0,0:0:0:50:S3.wav
192,192,77032,128,0,77254:0:0:0:0:
64,192,77254,1,0,0:0:0:0:
320,192,77365,1,0,0:0:0:0:
64,192,77476,1,0,0:0:0:50:S3.wav
192,192,77476,128,0,77698:0:0:0:0:
320,192,77476,1,0,0:0:0:0:
320,192,77698,128,0,77920:0:0:0:0:
64,192,77920,128,0,78143:0:0:0:50:S3.wav
192,192,77920,1,0,0:0:0:0:
320,192,78143,1,0,0:0:0:0:
192,192,78254,1,0,0:0:0:0:
64,192,78365,128,4,78476:0:0:0:0:
192,192,78365,1,0,0:0:0:50:S3.wav
320,192,78365,1,0,0:0:0:0:
320,192,78476,1,0,0:0:0:50:S3.wav
448,192,78476,1,0,0:0:0:0:
64,192,78587,1,0,0:0:0:50:S3.wav
192,192,78587,1,0,0:0:0:0:
64,192,78698,1,0,0:0:0:50:S3.wav
192,192,78698,1,0,0:0:0:0:
192,192,78809,1,0,0:0:0:50:S3.wav
320,192,78809,1,0,0:0:0:0:
448,192,78809,128,0,78920:0:0:0:0:
64,192,78920,1,0,0:0:0:50:S3.wav
192,192,78920,1,0,0:0:0:0:
320,192,79032,1,0,0:0:0:50:S3.wav
448,192,79032,1,0,0:0:0:0:
320,192,79143,1,0,0:0:0:50:S3.wav
448,192,79143,1,0,0:0:0:0:
192,192,79254,1,0,0:0:0:50:S3.wav
448,192,79254,1,0,0:0:0:0:
64,192,79309,1,0,0:0:0:0:
320,192,79365,1,0,0:0:0:0:
192,192,79420,1,0,0:0:0:0:
64,192,79476,1,0,0:0:0:0:
448,192,79476,1,0,0:0:0:0:
320,192,79532,1,0,0:0:0:0:
192,192,79587,1,0,0:0:0:0:
448,192,79643,1,0,0:0:0:0:
64,192,79698,1,0,0:0:0:0:
320,192,79698,1,0,0:0:0:0:
192,192,79809,1,0,0:0:0:0:
320,192,79809,1,0,0:0:0:0:
64,192,79920,1,0,0:0:0:0:
320,192,79920,1,0,0:0:0:0:
192,192,80032,1,0,0:0:0:0:
320,192,80032,1,0,0:0:0:0:
64,192,80143,1,0,0:0:0:50:S1.wav
448,192,80143,1,0,0:0:0:0:
64,192,80254,1,0,0:0:0:50:S1.wav
448,192,80254,1,0,0:0:0:0:
64,192,80365,1,0,0:0:0:50:S1.wav
448,192,80365,1,0,0:0:0:0:
64,192,80476,1,0,0:0:0:50:S1.wav
448,192,80476,1,0,0:0:0:0:
64,192,80587,1,0,0:0:0:50:S1.wav
448,192,80587,1,0,0:0:0:0:
192,192,80698,1,0,0:0:0:50:S3.wav
320,192,80698,1,0,0:0:0:0:
192,192,80809,1,0,0:0:0:50:S3.wav
320,192,80809,1,0,0:0:0:0:
192,192,80920,1,0,0:0:0:50:S3.wav
320,192,80920,1,0,0:0:0:0:
64,192,81032,1,0,0:0:0:50:S1.wav
448,192,81032,1,0,0:0:0:0:
192,192,81143,128,0,81254:0:0:0:50:S3.wav
320,192,81143,128,0,81254:0:0:0:0:
64,192,81254,128,0,81328:0:0:0:50:S2.wav
448,192,81254,128,0,81328:0:0:0:0:
64,192,81402,128,0,81476:0:0:0:0:
448,192,81402,128,0,81476:0:0:0:0:
192,192,81476,1,0,0:0:0:70:S_.wav
320,192,81476,1,0,0:0:0:0:
64,192,81920,128,2,82032:0:0:0:0:
192,192,81920,128,4,82032:0:0:0:0:
320,192,81920,128,0,82087:0:0:0:0:
448,192,81920,128,0,82032:0:0:0:0:
320,192,82254,1,0,0:0:0:0:
320,192,82309,1,0,0:0:0:0:
64,192,82365,128,2,82532:0:0:0:0:
192,192,82365,1,0,0:0:0:0:
448,192,82365,1,0,0:0:0:0:
192,192,82587,128,0,82643:0:0:0:0:
320,192,82587,1,0,0:0:0:0:
320,192,82698,128,0,82754:0:0:0:0:
448,192,82698,1,0,0:0:0:0:
64,192,82809,1,2,0:0:0:0:
192,192,82809,1,0,0:0:0:0:
320,192,82920,128,0,82976:0:0:0:0:
448,192,82920,1,0,0:0:0:0:
320,192,83032,128,0,83198:0:0:0:0:
448,192,83032,1,0,0:0:0:0:
64,192,83254,1,2,0:0:0:0:
192,192,83254,1,0,0:0:0:0:
320,192,83254,128,0,83420:0:0:0:0:
448,192,83254,1,0,0:0:0:0:
64,192,83476,1,0,0:0:0:0:
448,192,83476,128,0,83643:0:0:0:0:
64,192,83698,128,2,83865:0:0:0:0:
192,192,83698,1,0,0:0:0:0:
320,192,83698,1,0,0:0:0:0:
448,192,83698,1,0,0:0:0:0:
448,192,84032,1,0,0:0:0:0:
448,192,84087,1,0,0:0:0:0:
64,192,84143,128,2,84309:0:0:0:0:
192,192,84143,1,0,0:0:0:0:
320,192,84143,1,0,0:0:0:0:
320,192,84365,1,0,0:0:0:0:
448,192,84365,128,0,84420:0:0:0:0:
320,192,84476,1,0,0:0:0:0:
448,192,84476,128,0,84532:0:0:0:0:
64,192,84587,1,2,0:0:0:0:
192,192,84587,1,0,0:0:0:0:
320,192,84698,1,0,0:0:0:0:
448,192,84698,128,0,84754:0:0:0:0:
320,192,84809,1,0,0:0:0:0:
448,192,84809,128,0,84865:0:0:0:0:
64,192,84920,1,0,0:0:0:0:
192,192,84920,128,0,84976:0:0:0:0:
64,192,85032,128,2,85087:0:0:0:0:
192,192,85032,1,0,0:0:0:0:
320,192,85032,1,0,0:0:0:0:
448,192,85032,1,0,0:0:0:0:
192,192,85143,1,0,0:0:0:0:
320,192,85143,128,0,85198:0:0:0:0:
192,192,85365,1,0,0:0:0:0:
320,192,85365,128,0,85420:0:0:0:0:
64,192,85476,1,2,0:0:0:0:
192,192,85476,128,0,85643:0:0:0:0:
320,192,85476,1,0,0:0:0:0:
448,192,85476,1,0,0:0:0:0:
192,192,85809,1,0,0:0:0:0:
192,192,85865,1,0,0:0:0:0:
64,192,85920,1,2,0:0:0:0:
320,192,85920,1,0,0:0:0:0:
448,192,85920,128,0,86087:0:0:0:0:
192,192,86143,1,0,0:0:0:0:
320,192,86143,128,0,86198:0:0:0:0:
64,192,86254,1,0,0:0:0:0:
192,192,86254,128,0,86309:0:0:0:0:
320,192,86365,1,2,0:0:0:0:
448,192,86365,1,0,0:0:0:0:
64,192,86476,1,0,0:0:0:0:
192,192,86476,128,0,86532:0:0:0:0:
64,192,86587,128,0,86643:0:0:0:0:
320,192,86587,1,0,0:0:0:0:
320,192,86698,1,0,0:0:0:0:
320,192,86754,1,0,0:0:0:0:
64,192,86809,1,2,0:0:0:0:
192,192,86809,1,0,0:0:0:0:
448,192,86809,128,0,86976:0:0:0:0:
192,192,87032,128,0,87087:0:0:0:0:
320,192,87032,1,0,0:0:0:0:
192,192,87143,1,0,0:0:0:0:
448,192,87143,128,0,87198:0:0:0:0:
64,192,87254,128,2,87420:0:0:0:0:
192,192,87254,1,0,0:0:0:0:
320,192,87254,1,0,0:0:0:0:
448,192,87254,1,0,0:0:0:0:
192,192,87587,1,0,0:0:0:0:
192,192,87643,1,0,0:0:0:0:
64,192,87698,128,2,87865:0:0:0:0:
320,192,87698,1,0,0:0:0:0:
448,192,87698,1,0,0:0:0:0:
192,192,87920,128,0,87976:0:0:0:0:
320,192,87920,1,0,0:0:0:0:
64,192,88032,128,0,88087:0:0:0:0:
192,192,88032,1,0,0:0:0:0:
320,192,88143,1,2,0:0:0:0:
448,192,88143,1,0,0:0:0:0:
64,192,88254,128,0,88309:0:0:0:0:
192,192,88254,1,0,0:0:0:0:
64,192,88365,128,0,88420:0:0:0:0:
192,192,88365,1,0,0:0:0:0:
192,192,88476,1,0,0:0:0:0:
192,192,88532,1,0,0:0:0:0:
64,192,88587,1,2,0:0:0:0:
320,192,88587,1,0,0:0:0:0:
448,192,88587,128,0,88643:0:0:0:0:
192,192,88809,128,0,88865:0:0:0:0:
320,192,88809,1,0,0:0:0:0:
320,192,88920,128,0,88976:0:0:0:0:
448,192,88920,1,0,0:0:0:0:
64,192,89032,128,2,89143:0:0:0:0:
192,192,89032,128,4,89143:0:0:0:0:
320,192,89032,128,0,89198:0:0:0:0:
448,192,89032,128,0,89143:0:0:0:0:
320,192,89365,1,0,0:0:0:0:
320,192,89420,1,0,0:0:0:0:
64,192,89476,128,2,89643:0:0:0:0:
192,192,89476,1,0,0:0:0:0:
448,192,89476,1,0,0:0:0:0:
192,192,89698,128,0,89754:0:0:0:0:
320,192,89698,1,0,0:0:0:0:
320,192,89809,128,0,89865:0:0:0:0:
448,192,89809,1,0,0:0:0:0:
64,192,89920,1,2,0:0:0:0:
192,192,89920,1,0,0:0:0:0:
320,192,90032,128,0,90087:0:0:0:0:
448,192,90032,1,0,0:0:0:0:
320,192,90143,128,0,90309:0:0:0:0:
448,192,90143,1,0,0:0:0:0:
64,192,90365,1,2,0:0:0:0:
192,192,90365,1,0,0:0:0:0:
320,192,90365,128,0,90532:0:0:0:0:
448,192,90365,1,0,0:0:0:0:
64,192,90587,1,0,0:0:0:0:
448,192,90587,128,0,90754:0:0:0:0:
64,192,90809,128,2,90976:0:0:0:0:
192,192,90809,1,0,0:0:0:0:
320,192,90809,1,0,0:0:0:0:
448,192,90809,1,0,0:0:0:0:
448,192,91143,1,0,0:0:0:0:
448,192,91198,1,0,0:0:0:0:
64,192,91254,128,2,91420:0:0:0:0:
192,192,91254,1,0,0:0:0:0:
320,192,91254,1,0,0:0:0:0:
320,192,91476,1,0,0:0:0:0:
448,192,91476,128,0,91532:0:0:0:0:
320,192,91587,1,0,0:0:0:0:
448,192,91587,128,0,91643:0:0:0:0:
64,192,91698,1,2,0:0:0:0:
192,192,91698,1,0,0:0:0:0:
320,192,91809,1,0,0:0:0:0:
448,192,91809,128,0,91865:0:0:0:0:
320,192,91920,1,0,0:0:0:0:
448,192,91920,128,0,91976:0:0:0:0:
64,192,92032,1,0,0:0:0:0:
192,192,92032,128,0,92087:0:0:0:0:
64,192,92143,1,0,0:0:0:70:S_.wav
192,192,92143,1,0,0:0:0:0:
320,192,92143,1,0,0:0:0:0:
448,192,92143,1,0,0:0:0:0:
64,192,92365,1,0,0:0:0:70:S_.wav
192,192,92365,1,0,0:0:0:0:
320,192,92365,1,0,0:0:0:0:
448,192,92365,1,0,0:0:0:0:
320,192,92587,1,2,0:0:0:0:
448,192,92587,1,0,0:0:0:0:
320,192,92809,1,0,0:0:0:0:
448,192,92809,1,0,0:0:0:0:
192,192,92920,1,0,0:0:0:0:
448,192,92920,1,0,0:0:0:0:
192,192,93143,1,0,0:0:0:0:
448,192,93143,1,0,0:0:0:0:
192,192,93254,1,0,0:0:0:0:
320,192,93254,1,0,0:0:0:0:
192,192,93476,1,2,0:0:0:0:
320,192,93476,1,0,0:0:0:0:
64,192,93587,1,0,0:0:0:0:
320,192,93587,1,0,0:0:0:0:
64,192,93809,1,0,0:0:0:0:
320,192,93809,1,0,0:0:0:0:
64,192,93920,1,2,0:0:0:0:
192,192,93920,1,0,0:0:0:0:
64,192,94143,1,0,0:0:0:0:
192,192,94143,1,0,0:0:0:0:
64,192,94254,1,0,0:0:0:0:
320,192,94254,1,0,0:0:0:0:
64,192,94365,1,2,0:0:0:0:
320,192,94365,1,0,0:0:0:0:
64,192,94587,1,0,0:0:0:0:
320,192,94587,1,0,0:0:0:0:
192,192,94698,1,0,0:0:0:0:
448,192,94698,1,0,0:0:0:0:
192,192,94920,1,0,0:0:0:0:
448,192,94920,1,0,0:0:0:0:
320,192,95032,1,0,0:0:0:0:
448,192,95032,1,0,0:0:0:0:
320,192,95143,1,0,0:0:0:0:
448,192,95143,1,0,0:0:0:0:
320,192,95254,1,2,0:0:0:0:
448,192,95254,1,0,0:0:0:0:
64,192,95476,128,0,95643:0:0:0:50:LR3_GrowlFFGBF.wav
448,192,95476,128,0,95643:0:0:0:0:
64,192,95698,1,0,0:0:0:70:S_.wav
192,192,95698,1,0,0:0:0:0:
320,192,95698,1,0,0:0:0:0:
448,192,95698,1,0,0:0:0:0:
64,192,95809,1,0,0:0:0:70:S_.wav
192,192,95809,1,0,0:0:0:0:
320,192,95809,1,0,0:0:0:0:
448,192,95809,1,0,0:0:0:0:
64,192,95920,1,0,0:0:0:70:S_.wav
192,192,95920,1,0,0:0:0:0:
320,192,95920,1,0,0:0:0:0:
448,192,95920,1,0,0:0:0:0:
64,192,96143,1,0,0:0:0:0:
192,192,96143,128,0,96254:0:0:0:0:
448,192,96143,1,0,0:0:0:0:
320,192,96198,128,0,96309:0:0:0:0:
64,192,96254,128,0,96365:0:0:0:100:WB1.wav
192,192,96309,128,0,96420:0:0:0:0:
320,192,96365,1,0,0:0:0:0:
448,192,96365,1,0,0:0:0:0:
64,192,96420,128,0,96476:0:0:0:0:
320,192,96476,1,0,0:0:0:0:
448,192,96476,1,0,0:0:0:0:
64,192,96532,128,0,96587:0:0:0:0:
192,192,96587,128,4,96698:0:0:0:0:
320,192,96587,128,2,96754:0:0:0:0:
448,192,96587,128,0,96698:0:0:0:0:
192,192,96809,128,0,96865:0:0:0:0:
320,192,96809,1,0,0:0:0:0:
320,192,96920,128,0,96976:0:0:0:0:
448,192,96920,1,0,0:0:0:0:
64,192,97032,1,2,0:0:0:0:
192,192,97032,1,0,0:0:0:0:
320,192,97143,128,0,97198:0:0:0:0:
448,192,97143,1,0,0:0:0:0:
320,192,97254,128,0,97420:0:0:0:0:
448,192,97254,1,0,0:0:0:0:
64,192,97476,1,2,0:0:0:0:
192,192,97476,1,0,0:0:0:0:
320,192,97476,128,0,97643:0:0:0:0:
448,192,97476,1,0,0:0:0:0:
64,192,97698,1,0,0:0:0:0:
448,192,97698,128,0,97865:0:0:0:0:
64,192,97920,128,2,98087:0:0:0:0:
192,192,97920,1,0,0:0:0:50:LR3_GrowlBRHL.wav
320,192,97920,128,0,98087:0:0:0:0:
448,192,97920,1,0,0:0:0:0:
64,192,98143,128,0,98198:0:0:0:70:LR3_GrowlKickBR.wav
320,192,98143,128,0,98198:0:0:0:0:
64,192,98254,128,0,98309:0:0:0:70:LR3_GrowlKickBR.wav
320,192,98254,128,0,98309:0:0:0:0:
64,192,98365,1,2,0:0:0:0:
192,192,98365,1,0,0:0:0:0:
448,192,98365,128,0,98532:0:0:0:0:
320,192,98587,1,0,0:0:0:0:
448,192,98587,128,0,98643:0:0:0:0:
320,192,98698,1,0,0:0:0:0:
448,192,98698,128,0,98754:0:0:0:0:
64,192,98809,1,2,0:0:0:0:
192,192,98809,1,0,0:0:0:0:
320,192,98920,1,0,0:0:0:0:
448,192,98920,128,0,98976:0:0:0:0:
320,192,99032,1,0,0:0:0:0:
448,192,99032,128,0,99087:0:0:0:0:
64,192,99143,1,0,0:0:0:0:
192,192,99143,128,0,99198:0:0:0:0:
64,192,99254,128,2,99309:0:0:0:0:
192,192,99254,1,0,0:0:0:0:
320,192,99254,1,0,0:0:0:0:
448,192,99254,1,0,0:0:0:0:
192,192,99365,1,0,0:0:0:0:
320,192,99365,128,0,99420:0:0:0:0:
192,192,99587,1,0,0:0:0:0:
320,192,99587,128,0,99643:0:0:0:0:
64,192,99698,1,2,0:0:0:0:
192,192,99698,128,0,100143:0:0:0:50:LR3_GrowlRSRSG.wav
320,192,99698,1,0,0:0:0:0:
448,192,99698,1,0,0:0:0:0:
64,192,100143,1,2,0:0:0:0:
320,192,100143,1,0,0:0:0:0:
448,192,100143,128,0,100309:0:0:0:0:
192,192,100365,1,0,0:0:0:0:
320,192,100365,128,0,100420:0:0:0:0:
64,192,100476,1,0,0:0:0:0:
192,192,100476,128,0,100532:0:0:0:0:
320,192,100587,1,2,0:0:0:0:
448,192,100587,1,0,0:0:0:0:
64,192,100698,1,0,0:0:0:0:
192,192,100698,128,0,100754:0:0:0:0:
64,192,100809,128,0,100865:0:0:0:0:
320,192,100809,1,0,0:0:0:0:
320,192,100920,1,0,0:0:0:0:
320,192,100976,1,0,0:0:0:0:
64,192,101032,1,0,0:0:0:70:S_.wav
192,192,101032,1,0,0:0:0:0:
448,192,101032,128,0,101254:0:0:0:0:
64,192,101143,1,0,0:0:0:70:S_.wav
192,192,101143,1,0,0:0:0:0:
64,192,101254,128,0,101476:0:0:0:50:K.wav
320,192,101254,1,0,0:0:0:0:
320,192,101365,1,0,0:0:0:50:K.wav
448,192,101365,1,0,0:0:0:0:
192,192,101476,128,2,101532:0:0:0:0:
320,192,101476,1,0,0:0:0:0:
448,192,101476,128,0,101643:0:0:0:0:
64,192,101587,1,0,0:0:0:0:
192,192,101587,128,0,101643:0:0:0:0:
64,192,101698,1,0,0:0:0:0:
192,192,101698,128,0,101754:0:0:0:0:
64,192,101809,1,0,0:0:0:0:
192,192,101809,128,0,101865:0:0:0:0:
64,192,101920,128,2,102087:0:0:0:0:
320,192,101920,1,0,0:0:0:50:LR3_GrowlFFGBF.wav
448,192,101920,1,0,0:0:0:0:
192,192,102143,128,0,102198:0:0:0:0:
320,192,102143,1,0,0:0:0:0:
64,192,102254,128,0,102309:0:0:0:0:
192,192,102254,1,0,0:0:0:0:
320,192,102365,1,2,0:0:0:0:
448,192,102365,1,0,0:0:0:0:
64,192,102476,128,0,102532:0:0:0:0:
192,192,102476,1,0,0:0:0:0:
64,192,102587,128,0,102643:0:0:0:0:
192,192,102587,1,0,0:0:0:0:
192,192,102698,1,0,0:0:0:0:
192,192,102754,1,0,0:0:0:0:
64,192,102809,1,2,0:0:0:0:
320,192,102809,1,0,0:0:0:0:
448,192,102809,128,0,102865:0:0:0:0:
64,192,103032,128,0,103254:0:0:0:70:S_.wav
192,192,103032,1,0,0:0:0:0:
192,192,103254,1,2,0:0:0:0:
320,192,103254,1,0,0:0:0:0:
448,192,103254,128,0,103309:0:0:0:0:
192,192,103365,1,0,0:0:0:0:
448,192,103365,128,0,103420:0:0:0:0:
192,192,103476,1,0,0:0:0:0:
448,192,103476,128,0,103532:0:0:0:0:
192,192,103587,1,0,0:0:0:0:
448,192,103587,128,0,103643:0:0:0:0:
64,192,103698,128,2,103865:0:0:0:0:
192,192,103698,1,0,0:0:0:0:
448,192,103698,1,0,0:0:0:0:
192,192,103920,128,0,103976:0:0:0:0:
320,192,103920,1,0,0:0:0:0:
320,192,104032,128,0,104087:0:0:0:0:
448,192,104032,1,0,0:0:0:0:
64,192,104143,1,2,0:0:0:0:
192,192,104143,1,4,0:0:0:0:
448,192,104143,1,0,0:0:0:0:
192,192,104254,1,0,0:0:0:0:
320,192,104254,128,0,104309:0:0:0:0:
192,192,104365,1,0,0:0:0:0:
320,192,104365,128,0,104532:0:0:0:0:
64,192,104587,1,2,0:0:0:0:
192,192,104587,1,0,0:0:0:0:
320,192,104587,128,0,104754:0:0:0:0:
448,192,104587,1,0,0:0:0:0:
64,192,104809,1,0,0:0:0:0:
448,192,104809,128,0,104976:0:0:0:0:
64,192,105032,128,2,105198:0:0:0:0:
192,192,105032,1,0,0:0:0:0:
320,192,105032,1,0,0:0:0:0:
448,192,105032,1,0,0:0:0:0:
448,192,105365,1,0,0:0:0:0:
448,192,105420,1,0,0:0:0:0:
64,192,105476,128,2,105643:0:0:0:0:
192,192,105476,1,0,0:0:0:0:
320,192,105476,1,0,0:0:0:0:
192,192,105698,1,0,0:0:0:0:
320,192,105698,128,0,105754:0:0:0:0:
192,192,105809,1,0,0:0:0:0:
320,192,105809,128,0,105865:0:0:0:0:
64,192,105920,1,2,0:0:0:0:
192,192,105920,1,4,0:0:0:0:
448,192,105920,1,0,0:0:0:0:
320,192,106032,128,0,106087:0:0:0:0:
448,192,106032,1,0,0:0:0:0:
320,192,106143,128,0,106198:0:0:0:0:
448,192,106143,1,0,0:0:0:0:
64,192,106254,128,0,106309:0:0:0:0:
192,192,106254,1,0,0:0:0:0:
64,192,106365,1,0,0:0:0:50:LR3_FX PDLR_edit.wav
192,192,106365,1,0,0:0:0:0:
320,192,106365,128,0,106587:0:0:0:0:
448,192,106365,1,0,0:0:0:0:
448,192,106587,1,0,0:0:0:0:
64,192,106809,1,2,0:0:0:0:
192,192,106809,128,0,106976:0:0:0:0:
448,192,106809,128,0,106976:0:0:0:0:
192,192,107032,1,0,0:0:0:0:
448,192,107032,1,0,0:0:0:0:
64,192,107143,1,2,0:0:0:0:
192,192,107143,128,0,107309:0:0:0:0:
448,192,107143,128,0,107309:0:0:0:0:
192,192,107365,1,0,0:0:0:0:
448,192,107365,1,0,0:0:0:0:
64,192,107476,128,2,107643:0:0:0:0:
320,192,107476,128,0,107643:0:0:0:0:
448,192,107476,1,0,0:0:0:0:
64,192,107698,1,0,0:0:0:0:
320,192,107698,1,0,0:0:0:0:
64,192,107809,1,2,0:0:0:0:
192,192,107809,128,0,107976:0:0:0:0:
448,192,107809,128,0,107976:0:0:0:0:
320,192,108032,1,0,0:0:0:0:
192,192,108087,1,0,0:0:0:0:
64,192,108143,128,2,108365:0:0:0:0:
320,192,108143,1,0,0:0:0:0:
448,192,108143,128,0,108309:0:0:0:0:
192,192,108365,1,2,0:0:0:0:
320,192,108365,128,0,108476:0:0:0:0:
448,192,108365,128,0,108476:0:0:0:0:
64,192,108476,128,0,108587:0:0:0:0:
192,192,108587,128,2,108754:0:0:0:0:
320,192,108587,1,0,0:0:0:0:
448,192,108587,128,0,108754:0:0:0:0:
192,192,108809,1,0,0:0:0:0:
448,192,108809,1,0,0:0:0:0:
192,192,108920,128,2,109087:0:0:0:0:
320,192,108920,1,0,0:0:0:0:
448,192,108920,128,0,109087:0:0:0:0:
192,192,109143,1,0,0:0:0:0:
448,192,109143,1,0,0:0:0:0:
64,192,109254,128,2,109420:0:0:0:0:
192,192,109254,1,0,0:0:0:0:
320,192,109254,128,0,109420:0:0:0:0:
64,192,109476,1,0,0:0:0:0:
320,192,109476,1,0,0:0:0:0:
192,192,109587,128,2,109754:0:0:0:0:
320,192,109587,1,0,0:0:0:0:
448,192,109587,128,0,109754:0:0:0:0:
192,192,109809,128,2,109865:0:0:0:0:
320,192,109809,1,0,0:0:0:0:
448,192,109809,128,0,109865:0:0:0:0:
64,192,109920,1,0,0:0:0:70:S_.wav
192,192,109920,1,0,0:0:0:0:
320,192,109920,1,0,0:0:0:0:
448,192,109920,1,0,0:0:0:0:
64,192,110365,1,4,0:0:0:0:
192,192,110365,1,2,0:0:0:0:
320,192,110365,1,0,0:0:0:0:
448,192,110365,128,0,110587:0:0:0:0:
64,192,110587,128,0,110809:0:0:0:0:
320,192,110587,1,0,0:0:0:0:
192,192,110809,128,2,111032:0:0:0:0:
320,192,110809,1,0,0:0:0:70:clap1.wav
448,192,110809,1,0,0:0:0:30:LR_J Hit Whistle.wav
320,192,111032,1,0,0:0:0:0:
320,192,111143,1,0,0:0:0:0:
64,192,111254,1,2,0:0:0:0:
192,192,111254,1,0,0:0:0:0:
448,192,111254,128,0,111476:0:0:0:0:
192,192,111365,1,0,0:0:0:0:
192,192,111476,128,0,111698:0:0:0:0:
320,192,111476,1,0,0:0:0:0:
448,192,111624,128,0,111698:0:0:0:0:
64,192,111698,128,2,111920:0:0:0:0:
320,192,111698,1,0,0:0:0:70:clap1.wav
320,192,111809,1,0,0:0:0:0:
192,192,111920,1,0,0:0:0:0:
320,192,111920,128,0,112143:0:0:0:0:
64,192,112143,128,2,112365:0:0:0:0:
192,192,112143,1,0,0:0:0:0:
448,192,112143,1,0,0:0:0:0:
192,192,112365,1,0,0:0:0:0:
320,192,112365,128,0,112587:0:0:0:0:
64,192,112587,1,2,0:0:0:0:
192,192,112587,128,0,112809:0:0:0:70:clap1.wav
448,192,112587,1,0,0:0:0:30:LR_J Hit Whistle.wav
320,192,112809,1,0,0:0:0:0:
320,192,112920,1,0,0:0:0:0:
192,192,113032,1,2,0:0:0:0:
64,192,113032,1,0,0:0:0:0:
448,192,113032,128,0,113254:0:0:0:0:
64,192,113143,1,0,0:0:0:0:
64,192,113254,128,0,113476:0:0:0:0:
320,192,113254,1,0,0:0:0:0:
320,192,113402,128,0,113476:0:0:0:0:
192,192,113476,128,2,113698:0:0:0:0:
448,192,113476,1,0,0:0:0:70:clap1.wav
448,192,113587,1,0,0:0:0:0:
64,192,113698,1,0,0:0:0:0:
320,192,113698,128,0,113920:0:0:0:0:
64,192,113920,128,2,114143:0:0:0:0:
192,192,113920,1,0,0:0:0:0:
448,192,113920,1,0,0:0:0:0:
448,192,114143,128,0,114365:0:0:0:0:
192,192,114143,1,0,0:0:0:0:
64,192,114365,1,2,0:0:0:0:
320,192,114365,128,0,114587:0:0:0:70:clap1.wav
192,192,114365,1,0,0:0:0:30:LR_J Hit Whistle.wav
192,192,114587,1,0,0:0:0:0:
192,192,114698,1,0,0:0:0:0:
64,192,114809,128,2,115032:0:0:0:0:
320,192,114809,1,0,0:0:0:0:
448,192,114809,1,0,0:0:0:0:
320,192,114920,1,0,0:0:0:0:
192,192,115032,1,0,0:0:0:0:
320,192,115032,128,0,115254:0:0:0:0:
64,192,115180,128,0,115254:0:0:0:0:
192,192,115254,1,2,0:0:0:0:
448,192,115254,128,0,115476:0:0:0:70:clap1.wav
192,192,115365,1,0,0:0:0:0:
192,192,115476,128,0,115698:0:0:0:0:
320,192,115476,1,0,0:0:0:0:
64,192,115698,1,2,0:0:0:0:
320,192,115698,1,0,0:0:0:0:
448,192,115698,128,0,115920:0:0:0:0:
64,192,115809,1,0,0:0:0:0:
192,192,115920,128,0,116143:0:0:0:0:
320,192,115920,1,0,0:0:0:0:
64,192,116143,1,2,0:0:0:0:
320,192,116143,128,0,116365:0:0:0:70:clap1.wav
448,192,116143,1,0,0:0:0:30:LR_J Hit Whistle.wav
192,192,116365,1,0,0:0:0:0:
192,192,116476,1,0,0:0:0:0:
64,192,116587,128,2,116809:0:0:0:0:
320,192,116587,1,0,0:0:0:0:
448,192,116587,1,0,0:0:0:0:
320,192,116735,128,0,116809:0:0:0:0:
192,192,116809,1,0,0:0:0:0:
448,192,116809,128,0,117032:0:0:0:0:
64,192,117032,1,2,0:0:0:0:
192,192,117032,1,0,0:0:0:70:clap1.wav
320,192,117032,128,0,117254:0:0:0:0:
64,192,117143,1,0,0:0:0:0:
192,192,117254,128,0,117476:0:0:0:0:
448,192,117254,1,0,0:0:0:0:
64,192,117476,1,0,0:0:0:50:S2.wav
320,192,117476,1,0,0:0:0:0:
448,192,117476,1,0,0:0:0:0:
64,192,117698,1,0,0:0:0:50:S2.wav
320,192,117698,1,0,0:0:0:0:
448,192,117698,1,0,0:0:0:0:
64,192,117920,1,0,0:0:0:50:S4.wav
320,192,117920,1,0,0:0:0:30:LR_J Hit Whistle.wav
448,192,117920,1,0,0:0:0:0:
64,192,118143,1,0,0:0:0:50:S2.wav
320,192,118143,1,0,0:0:0:0:
448,192,118143,1,0,0:0:0:0:
64,192,118254,1,0,0:0:0:50:S2.wav
320,192,118254,1,0,0:0:0:0:
448,192,118254,1,0,0:0:0:0:
64,192,118365,1,0,0:0:0:50:S2.wav
192,192,118365,1,0,0:0:0:0:
448,192,118365,1,0,0:0:0:0:
64,192,118587,1,0,0:0:0:50:S2.wav
192,192,118587,1,0,0:0:0:0:
448,192,118587,1,0,0:0:0:0:
64,192,118809,1,0,0:0:0:50:S4.wav
192,192,118809,1,0,0:0:0:30:LR_J Hit Whistle.wav
448,192,118809,1,0,0:0:0:0:
64,192,119032,1,0,0:0:0:50:S2.wav
192,192,119032,1,0,0:0:0:0:
448,192,119032,1,0,0:0:0:0:
64,192,119143,1,0,0:0:0:50:S2.wav
192,192,119143,1,0,0:0:0:0:
448,192,119143,1,0,0:0:0:0:
192,192,119254,1,0,0:0:0:50:S2.wav
320,192,119254,1,0,0:0:0:0:
448,192,119254,1,0,0:0:0:0:
192,192,119476,1,0,0:0:0:50:S2.wav
320,192,119476,1,0,0:0:0:0:
448,192,119476,1,0,0:0:0:0:
192,192,119698,1,0,0:0:0:50:S4.wav
320,192,119698,1,0,0:0:0:30:LR_J Hit Whistle.wav
448,192,119698,1,0,0:0:0:0:
192,192,119920,1,0,0:0:0:50:S2.wav
320,192,119920,1,0,0:0:0:0:
448,192,119920,1,0,0:0:0:0:
192,192,120032,1,0,0:0:0:50:S2.wav
320,192,120032,1,0,0:0:0:0:
448,192,120032,1,0,0:0:0:0:
64,192,120143,1,0,0:0:0:50:S2.wav
192,192,120143,1,0,0:0:0:0:
320,192,120143,1,0,0:0:0:0:
64,192,120365,1,0,0:0:0:50:S2.wav
192,192,120365,1,0,0:0:0:0:
320,192,120365,1,0,0:0:0:0:
64,192,120587,1,0,0:0:0:50:S4.wav
192,192,120587,1,0,0:0:0:30:LR_J Hit Whistle.wav
320,192,120587,1,0,0:0:0:0:
64,192,120809,1,0,0:0:0:50:S2.wav
192,192,120809,1,0,0:0:0:0:
320,192,120809,1,0,0:0:0:0:
64,192,120920,1,0,0:0:0:50:S2.wav
192,192,120920,1,0,0:0:0:0:
320,192,120920,1,0,0:0:0:0:
64,192,121032,128,0,121143:0:0:0:50:S4.wav
320,192,121032,1,0,0:0:0:30:LR_J Hit Whistle.wav
448,192,121032,1,0,0:0:0:0:
192,192,121143,1,0,0:0:0:50:S2.wav
448,192,121143,1,0,0:0:0:0:
192,192,121254,1,0,0:0:0:50:S2.wav
320,192,121254,1,0,0:0:0:0:
192,192,121365,1,0,0:0:0:50:S2.wav
320,192,121365,1,0,0:0:0:0:
64,192,121476,1,0,0:0:0:50:S4.wav
192,192,121476,1,0,0:0:0:30:LR_J Hit Whistle.wav
448,192,121476,128,0,121587:0:0:0:0:
64,192,121587,1,0,0:0:0:50:S2.wav
320,192,121587,1,0,0:0:0:0:
192,192,121698,1,0,0:0:0:50:S2.wav
320,192,121698,1,0,0:0:0:0:
192,192,121809,1,0,0:0:0:50:S2.wav
320,192,121809,1,0,0:0:0:0:
192,192,121920,1,0,0:0:0:50:S4.wav
448,192,121920,1,0,0:0:0:0:
64,192,121976,1,0,0:0:0:40:S2.wav
320,192,122032,1,0,0:0:0:40:S2.wav
192,192,122087,1,0,0:0:0:40:S2.wav
64,192,122143,1,0,0:0:0:40:S2.wav
448,192,122143,1,0,0:0:0:0:
320,192,122198,1,0,0:0:0:40:S2.wav
192,192,122254,1,0,0:0:0:40:S2.wav
320,192,122309,1,0,0:0:0:40:S2.wav
64,192,122365,1,0,0:0:0:70:S_.wav
192,192,122365,1,0,0:0:0:0:
448,192,122365,1,0,0:0:0:0:
320,192,122809,128,0,122865:0:0:0:0:
320,192,122920,128,0,123032:0:0:0:0:
64,192,123032,128,0,123087:0:0:0:0:
448,192,123032,128,0,123087:0:0:0:0:
192,192,123087,128,0,123198:0:0:0:0:
192,192,123254,128,0,123476:0:0:0:0:
64,192,123476,128,0,123532:0:0:0:0:
448,192,123476,128,0,123532:0:0:0:0:
192,192,123587,128,0,123698:0:0:0:0:
320,192,123698,128,0,123920:0:0:0:0:
192,192,123846,128,0,123920:0:0:0:0:
448,192,123920,128,0,123976:0:0:0:0:
64,192,123920,128,0,123976:0:0:0:0:
320,192,123976,128,0,124143:0:0:0:0:
64,192,124143,128,0,126365:0:0:0:70:push_scratch.wav
192,192,124143,128,0,124809:0:0:0:0:
448,192,124143,128,0,124587:0:0:0:0:
