osu file format v14

[General]
AudioFilename: audio.mp3
AudioLeadIn: 0
PreviewTime: 32087
Countdown: 0
SampleSet: Soft
StackLeniency: 0.7
Mode: 3
LetterboxInBreaks: 0
SpecialStyle: 0
WidescreenStoryboard: 0

[Editor]
DistanceSpacing: 2
BeatDivisor: 6
GridSize: 16
TimelineZoom: 2.1

[Metadata]
Title:OCCHOCO-REST-LESS
TitleUnicode:OCCHOCO-REST-LESS
Artist:MYUKKE.
ArtistUnicode:MYUKKE.
Creator:Dreamwalker
Version:CURIOSSITY-SANE-LESS
Source:Dynamix
Tags:FAMoss Curiossity Turrim Lastopia Unpredictable Syadow- c4cat おっちょこちょい おっちょこ event song Nironta future house gold track submission rhythm mobile games electronic instrumental
BeatmapID:1799454
BeatmapSetID:753803

[Difficulty]
HPDrainRate:8.7
CircleSize:4
OverallDifficulty:8.3
ApproachRate:5
SliderMultiplier:1.4
SliderTickRate:1

[Events]
//Background and Video events
0,0,"lmao.jpg",0,0
//Break Periods
//Storyboard Layer 0 (Background)
//Storyboard Layer 1 (Fail)
//Storyboard Layer 2 (Pass)
//Storyboard Layer 3 (Foreground)
//Storyboard Layer 4 (Overlay)
//Storyboard Sound Samples
Sample,4143,0,"LR_J Hit Whistle.wav",30
Sample,5920,0,"LR_J Hit Whistle.wav",30
Sample,7698,0,"LR_J Hit Whistle.wav",30
Sample,9476,0,"LR_J Hit Whistle.wav",30
Sample,11254,0,"LR_J Hit Whistle.wav",30
Sample,13032,0,"LR_J Hit Whistle.wav",30
Sample,14809,0,"LR_J Hit Whistle.wav",30
Sample,101920,0,"LR3_GrowlFFGBF.wav",50
Sample,110809,0,"LR_J Hit Whistle.wav",30
Sample,112587,0,"LR_J Hit Whistle.wav",30
Sample,114365,0,"LR_J Hit Whistle.wav",30
Sample,116143,0,"LR_J Hit Whistle.wav",30

[TimingPoints]
1921,444.444444444444,4,2,1,60,1,0
81920,-100,4,2,1,60,0,1
92143,-100,4,2,1,60,0,0
96587,-100,4,2,1,60,0,1
106365,-100,4,2,1,60,0,0

[HitObjects]
448,192,2809,5,0,0:0:0:50:K.wav
64,192,2920,1,0,0:0:0:50:K.wav
320,192,3032,1,0,0:0:0:50:S3.wav
320,192,3143,1,0,0:0:0:50:S3.wav
64,192,3254,1,0,0:0:0:50:S3.wav
192,192,3254,1,0,0:0:0:0:
448,192,3365,1,0,0:0:0:50:K.wav
192,192,3476,1,0,0:0:0:50:S1.wav
320,192,3476,1,0,0:0:0:0:
192,192,3587,1,0,0:0:0:50:S1.wav
320,192,3587,1,0,0:0:0:0:
64,192,3698,128,4,3920:0:0:0:0:
448,192,3698,1,0,0:0:0:50:S2.wav
320,192,3920,1,0,0:0:0:50:K.wav
448,192,3920,128,0,4143:0:0:0:0:
192,192,4032,1,0,0:0:0:0:
320,192,4143,128,0,4365:0:0:0:70:clap1.wav
192,192,4365,1,0,0:0:0:50:K.wav
192,192,4476,1,0,0:0:0:0:
320,192,4587,1,0,0:0:0:50:S2.wav
448,192,4587,128,0,4809:0:0:0:0:
64,192,4698,1,0,0:0:0:0:
192,192,4809,1,0,0:0:0:50:K.wav
320,192,4809,128,0,5032:0:0:0:0:
64,192,5032,1,0,0:0:0:70:clap1.wav
192,192,5032,128,0,5254:0:0:0:0:
448,192,5143,1,0,0:0:0:0:
64,192,5254,128,0,5476:0:0:0:50:K.wav
320,192,5254,1,0,0:0:0:0:
448,192,5476,128,0,5698:0:0:0:50:S2.wav
192,192,5698,128,0,5920:0:0:0:50:K.wav
320,192,5920,128,0,6143:0:0:0:70:clap1.wav
64,192,6143,1,0,0:0:0:50:K.wav
64,192,6254,1,0,0:0:0:0:
192,192,6365,1,0,0:0:0:50:S2.wav
320,192,6365,128,0,6587:0:0:0:0:
64,192,6476,1,0,0:0:0:0:
192,192,6587,128,0,6809:0:0:0:50:K.wav
448,192,6587,1,0,0:0:0:0:
64,192,6809,1,0,0:0:0:70:clap1.wav
448,192,6809,128,0,7032:0:0:0:0:
320,192,6920,1,0,0:0:0:0:
64,192,7032,128,0,7254:0:0:0:50:K.wav
192,192,7032,1,0,0:0:0:0:
448,192,7254,128,0,7476:0:0:0:50:S2.wav
192,192,7476,128,0,7698:0:0:0:50:K.wav
320,192,7698,128,0,7920:0:0:0:70:clap1.wav
448,192,7920,1,0,0:0:0:50:K.wav
448,192,8032,1,0,0:0:0:0:
64,192,8143,128,0,8365:0:0:0:50:S2.wav
320,192,8143,1,0,0:0:0:0:
192,192,8254,1,0,0:0:0:0:
320,192,8365,128,0,8587:0:0:0:50:K.wav
448,192,8365,1,0,0:0:0:0:
192,192,8587,1,0,0:0:0:70:clap1.wav
448,192,8587,128,0,8809:0:0:0:0:
64,192,8698,1,0,0:0:0:0:
192,192,8809,128,0,9032:0:0:0:50:K.wav
320,192,8809,1,0,0:0:0:0:
320,192,9032,1,0,0:0:0:50:S2.wav
320,192,9143,1,0,0:0:0:0:
64,192,9254,128,0,9476:0:0:0:50:K.wav
448,192,9476,128,0,9698:0:0:0:70:clap1.wav
192,192,9698,1,0,0:0:0:50:K.wav
192,192,9809,1,0,0:0:0:0:
320,192,9920,128,0,10143:0:0:0:50:S2.wav
448,192,9920,1,0,0:0:0:0:
64,192,10032,1,0,0:0:0:0:
192,192,10143,1,0,0:0:0:50:K.wav
448,192,10143,128,0,10365:0:0:0:0:
64,192,10365,1,0,0:0:0:70:clap1.wav
192,192,10365,128,0,10587:0:0:0:0:
320,192,10476,1,0,0:0:0:0:
64,192,10587,128,0,10809:0:0:0:50:K.wav
448,192,10587,1,0,0:0:0:0:
320,192,10809,128,0,11032:0:0:0:50:S2.wav
64,192,11032,128,0,11254:0:0:0:50:K.wav
192,192,11254,128,0,11476:0:0:0:70:clap1.wav
320,192,11476,1,0,0:0:0:50:K.wav
320,192,11587,1,0,0:0:0:0:
64,192,11698,128,0,11920:0:0:0:50:S2.wav
192,192,11698,1,0,0:0:0:0:
448,192,11809,1,0,0:0:0:0:
192,192,11920,128,0,12143:0:0:0:50:K.wav
320,192,11920,1,0,0:0:0:0:
320,192,12143,128,0,12365:0:0:0:70:clap1.wav
448,192,12143,1,0,0:0:0:0:
64,192,12254,1,0,0:0:0:0:
192,192,12365,1,0,0:0:0:50:K.wav
448,192,12365,128,0,12587:0:0:0:0:
64,192,12587,128,0,12809:0:0:0:50:S2.wav
320,192,12809,128,0,13032:0:0:0:50:K.wav
192,192,13032,128,0,13254:0:0:0:70:clap1.wav
448,192,13254,1,0,0:0:0:50:K.wav
448,192,13365,1,0,0:0:0:0:
64,192,13476,1,0,0:0:0:50:S2.wav
320,192,13476,128,0,13698:0:0:0:0:
192,192,13587,1,0,0:0:0:0:
64,192,13698,1,0,0:0:0:50:K.wav
448,192,13698,128,0,13920:0:0:0:0:
64,192,13920,128,0,14143:0:0:0:70:clap1.wav
192,192,13920,1,0,0:0:0:0:
320,192,14032,1,0,0:0:0:0:
192,192,14143,128,0,14365:0:0:0:50:K.wav
448,192,14143,1,0,0:0:0:0:
448,192,14365,128,0,14587:0:0:0:50:S2.wav
192,192,14587,128,0,14809:0:0:0:50:K.wav
320,192,14809,128,0,15032:0:0:0:70:clap1.wav
64,192,15032,1,0,0:0:0:50:K.wav
64,192,15143,1,0,0:0:0:0:
192,192,15254,128,0,15476:0:0:0:50:S2.wav
320,192,15254,1,0,0:0:0:0:
448,192,15365,1,0,0:0:0:0:
64,192,15476,1,0,0:0:0:50:K.wav
320,192,15476,128,0,15698:0:0:0:0:
192,192,15698,1,0,0:0:0:70:clap1.wav
448,192,15698,128,0,15920:0:0:0:0:
64,192,15809,1,0,0:0:0:0:
192,192,15920,128,0,16143:0:0:0:50:K.wav
320,192,15920,1,0,0:0:0:0:
320,192,16143,1,0,0:0:0:50:S2.wav
320,192,16254,1,0,0:0:0:0:
448,192,16365,128,0,16587:0:0:0:50:K.wav
64,192,16587,128,0,16809:0:0:0:70:clap1.wav
192,192,16809,1,0,0:0:0:50:K.wav
192,192,16920,1,0,0:0:0:0:
320,192,17032,128,0,17254:0:0:0:50:S2.wav
448,192,17032,1,0,0:0:0:0:
64,192,17143,1,0,0:0:0:0:
192,192,17254,1,0,0:0:0:50:K.wav
448,192,17254,128,0,17476:0:0:0:0:
64,192,17476,1,0,0:0:0:70:clap1.wav
192,192,17476,128,0,17698:0:0:0:0:
320,192,17587,1,0,0:0:0:0:
64,192,17698,128,0,17920:0:0:0:50:K.wav
448,192,17698,1,0,0:0:0:0:
320,192,17920,128,2,18143:0:0:0:0:
448,192,17920,1,4,0:0:0:0:
192,192,18143,128,0,18365:0:0:0:0:
64,192,18365,1,2,0:0:0:0:
448,192,18365,128,0,18587:0:0:0:30:LR_J Hit Whistle.wav
64,192,18587,1,0,0:0:0:0:
320,192,18587,1,0,0:0:0:0:
192,192,18698,1,0,0:0:0:0:
320,192,18698,1,0,0:0:0:0:
64,192,18809,128,2,19032:0:0:0:0:
448,192,18809,1,0,0:0:0:0:
320,192,18920,1,0,0:0:0:0:
192,192,19032,128,0,19254:0:0:0:0:
448,192,19032,1,0,0:0:0:0:
320,192,19254,128,2,19476:0:0:0:0:
448,192,19254,1,0,0:0:0:0:
64,192,19365,1,0,0:0:0:0:
192,192,19476,1,0,0:0:0:0:
448,192,19476,128,0,19698:0:0:0:0:
64,192,19698,1,2,0:0:0:0:
192,192,19698,128,0,19920:0:0:0:0:
64,192,19920,128,0,20143:0:0:0:0:
320,192,20143,128,2,20365:0:0:0:0:
448,192,20143,1,0,0:0:0:30:LR_J Hit Whistle.wav
192,192,20365,1,0,0:0:0:0:
448,192,20365,1,0,0:0:0:0:
64,192,20476,1,0,0:0:0:0:
192,192,20476,1,0,0:0:0:0:
320,192,20587,1,2,0:0:0:0:
448,192,20587,128,0,20809:0:0:0:0:
192,192,20698,1,0,0:0:0:0:
64,192,20809,1,0,0:0:0:0:
320,192,20809,128,0,21032:0:0:0:0:
64,192,21032,128,2,21254:0:0:0:0:
192,192,21032,1,0,0:0:0:0:
320,192,21143,1,0,0:0:0:0:
192,192,21254,128,0,21476:0:0:0:0:
448,192,21254,1,0,0:0:0:0:
320,192,21476,1,2,0:0:0:0:
448,192,21476,128,0,21698:0:0:0:0:
192,192,21698,128,0,21920:0:0:0:0:
64,192,21920,1,2,0:0:0:0:
320,192,21920,128,0,22143:0:0:0:30:LR_J Hit Whistle.wav
64,192,22143,1,0,0:0:0:0:
448,192,22143,1,0,0:0:0:0:
320,192,22254,1,0,0:0:0:0:
448,192,22254,1,0,0:0:0:0:
64,192,22365,128,2,22587:0:0:0:0:
192,192,22365,1,0,0:0:0:0:
320,192,22476,1,0,0:0:0:0:
192,192,22587,128,0,22809:0:0:0:0:
448,192,22587,1,0,0:0:0:0:
320,192,22809,128,2,23032:0:0:0:0:
448,192,22809,1,0,0:0:0:0:
192,192,22920,1,0,0:0:0:0:
64,192,23032,1,0,0:0:0:0:
448,192,23032,128,0,23254:0:0:0:0:
64,192,23254,1,2,0:0:0:0:
192,192,23254,1,0,0:0:0:0:
192,192,23365,1,0,0:0:0:0:
320,192,23476,128,0,23698:0:0:0:0:
64,192,23698,128,2,23920:0:0:0:0:
448,192,23698,1,0,0:0:0:30:LR_J Hit Whistle.wav
320,192,23920,1,0,0:0:0:0:
448,192,23920,1,0,0:0:0:0:
192,192,24032,1,0,0:0:0:0:
320,192,24032,1,0,0:0:0:0:
64,192,24143,1,2,0:0:0:0:
448,192,24143,128,0,24365:0:0:0:0:
320,192,24254,1,0,0:0:0:0:
64,192,24365,1,0,0:0:0:0:
192,192,24365,128,0,24587:0:0:0:0:
64,192,24587,128,2,24809:0:0:0:0:
448,192,24587,1,0,0:0:0:0:
320,192,24698,1,0,0:0:0:0:
192,192,24809,1,0,0:0:0:0:
448,192,24809,128,0,25032:0:0:0:0:
64,192,25032,1,0,0:0:0:50:S2.wav
192,192,25032,1,0,0:0:0:0:
320,192,25032,128,0,25143:0:0:0:0:
64,192,25254,1,0,0:0:0:50:S2.wav
192,192,25254,1,0,0:0:0:0:
448,192,25254,1,0,0:0:0:0:
64,192,25476,1,0,0:0:0:50:S4.wav
192,192,25476,1,0,0:0:0:30:LR_J Hit Whistle.wav
64,192,25698,1,0,0:0:0:50:S2.wav
192,192,25698,1,0,0:0:0:0:
320,192,25698,1,0,0:0:0:0:
64,192,25809,1,0,0:0:0:50:S2.wav
192,192,25809,1,0,0:0:0:0:
448,192,25809,1,0,0:0:0:0:
64,192,25920,1,0,0:0:0:50:S2.wav
192,192,25920,1,0,0:0:0:0:
448,192,26032,1,0,0:0:0:0:
64,192,26143,1,0,0:0:0:50:S2.wav
192,192,26143,1,0,0:0:0:0:
320,192,26143,1,0,0:0:0:0:
64,192,26365,1,0,0:0:0:50:S4.wav
192,192,26365,1,0,0:0:0:30:LR_J Hit Whistle.wav
448,192,26476,1,0,0:0:0:0:
64,192,26587,1,0,0:0:0:50:S2.wav
192,192,26587,1,0,0:0:0:0:
320,192,26587,1,0,0:0:0:0:
64,192,26698,1,0,0:0:0:50:S2.wav
192,192,26698,1,0,0:0:0:0:
448,192,26698,1,0,0:0:0:0:
192,192,26809,128,0,26920:0:0:0:50:S2.wav
320,192,26809,1,0,0:0:0:0:
448,192,26809,1,0,0:0:0:0:
64,192,27032,1,0,0:0:0:50:S2.wav
320,192,27032,1,0,0:0:0:0:
448,192,27032,1,0,0:0:0:0:
320,192,27254,1,0,0:0:0:50:S4.wav
448,192,27254,1,0,0:0:0:30:LR_J Hit Whistle.wav
192,192,27476,1,0,0:0:0:50:S2.wav
320,192,27476,1,0,0:0:0:0:
448,192,27476,1,0,0:0:0:0:
64,192,27587,1,0,0:0:0:50:S2.wav
320,192,27587,1,0,0:0:0:0:
448,192,27587,1,0,0:0:0:0:
320,192,27698,1,0,0:0:0:50:S2.wav
448,192,27698,1,0,0:0:0:0:
64,192,27809,1,0,0:0:0:0:
192,192,27920,1,0,0:0:0:50:S2.wav
320,192,27920,1,0,0:0:0:0:
448,192,27920,1,0,0:0:0:0:
320,192,28143,1,0,0:0:0:50:S4.wav
448,192,28143,1,0,0:0:0:30:LR_J Hit Whistle.wav
64,192,28254,1,0,0:0:0:0:
192,192,28365,1,0,0:0:0:50:S2.wav
320,192,28365,1,0,0:0:0:0:
448,192,28365,1,0,0:0:0:0:
64,192,28476,1,0,0:0:0:50:S2.wav
320,192,28476,1,0,0:0:0:0:
448,192,28476,1,0,0:0:0:0:
320,192,28587,1,0,0:0:0:50:S4.wav
448,192,28587,1,0,0:0:0:30:LR_J Hit Whistle.wav
64,192,28698,1,0,0:0:0:50:S2.wav
192,192,28698,1,0,0:0:0:0:
320,192,28809,1,0,0:0:0:50:S2.wav
448,192,28809,1,0,0:0:0:0:
320,192,28920,1,0,0:0:0:50:S2.wav
448,192,28920,1,0,0:0:0:0:
64,192,29032,1,0,0:0:0:50:S4.wav
192,192,29032,1,0,0:0:0:30:LR_J Hit Whistle.wav
320,192,29143,1,0,0:0:0:50:S2.wav
448,192,29143,1,0,0:0:0:0:
64,192,29254,1,0,0:0:0:50:S2.wav
192,192,29254,1,0,0:0:0:0:
64,192,29365,1,0,0:0:0:50:S2.wav
192,192,29365,1,0,0:0:0:0:
320,192,29476,1,0,0:0:0:50:S4.wav
448,192,29476,1,0,0:0:0:30:LR_J Hit Whistle.wav
192,192,29532,1,0,0:0:0:40:S2.wav
64,192,29587,1,0,0:0:0:40:S2.wav
320,192,29643,1,0,0:0:0:40:S2.wav
192,192,29698,1,0,0:0:0:40:S2.wav
448,192,29754,1,0,0:0:0:40:S2.wav
320,192,29809,1,0,0:0:0:40:S2.wav
64,192,29865,1,0,0:0:0:40:S2.wav
192,192,29920,1,0,0:0:0:50:S4.wav
320,192,29976,1,0,0:0:0:30:S2.wav
64,192,30032,1,0,0:0:0:30:S2.wav
192,192,30087,1,0,0:0:0:30:S2.wav
448,192,30143,1,0,0:0:0:30:S2.wav
320,192,30198,1,0,0:0:0:30:S2.wav
192,192,30254,1,0,0:0:0:30:S2.wav
448,192,30309,1,0,0:0:0:30:S2.wav
64,192,30365,1,0,0:0:0:50:S3.wav
320,192,30365,1,0,0:0:0:0:
320,192,30476,1,0,0:0:0:50:S3.wav
192,192,30587,1,0,0:0:0:50:S1.wav
64,192,30809,1,0,0:0:0:50:S_.wav
448,192,30809,1,0,0:0:0:0:
320,192,31032,1,0,0:0:0:50:S3.wav
64,192,31143,1,0,0:0:0:50:S3.wav
192,192,31143,1,0,0:0:0:0:
192,192,31365,1,0,0:0:0:50:S3.wav
320,192,31365,1,0,0:0:0:0:
320,192,31587,1,0,0:0:0:50:S3.wav
448,192,31587,1,0,0:0:0:0:
64,192,31698,128,0,32032:0:0:0:70:S_.wav
192,192,31698,1,0,0:0:0:0:
320,192,31698,1,0,0:0:0:0:
448,192,31698,128,0,32032:0:0:0:0:
64,192,32143,128,2,32198:0:0:0:0:
192,192,32143,128,4,32198:0:0:0:0:
448,192,32143,128,0,32198:0:0:0:0:
192,192,32476,1,0,0:0:0:0:
320,192,32532,1,0,0:0:0:0:
64,192,32587,1,2,0:0:0:0:
192,192,32587,1,0,0:0:0:0:
448,192,32587,1,0,0:0:0:0:
192,192,32809,1,0,0:0:0:0:
448,192,32809,1,0,0:0:0:0:
64,192,32920,1,0,0:0:0:0:
320,192,32920,1,0,0:0:0:0:
64,192,33032,1,2,0:0:0:0:
192,192,33032,1,0,0:0:0:0:
448,192,33032,1,0,0:0:0:0:
320,192,33143,1,0,0:0:0:0:
448,192,33143,1,0,0:0:0:0:
64,192,33254,1,0,0:0:0:0:
192,192,33254,1,0,0:0:0:0:
64,192,33476,1,2,0:0:0:0:
192,192,33476,1,0,0:0:0:0:
448,192,33476,1,0,0:0:0:0:
64,192,33698,1,0,0:0:0:0:
320,192,33698,1,0,0:0:0:0:
192,192,33920,1,2,0:0:0:0:
320,192,33920,1,0,0:0:0:0:
448,192,33920,1,0,0:0:0:0:
64,192,34254,1,0,0:0:0:0:
192,192,34309,1,0,0:0:0:0:
64,192,34365,1,2,0:0:0:0:
320,192,34365,1,0,0:0:0:0:
448,192,34365,1,0,0:0:0:0:
64,192,34587,1,0,0:0:0:0:
192,192,34587,1,0,0:0:0:0:
320,192,34698,1,0,0:0:0:0:
448,192,34698,1,0,0:0:0:0:
64,192,34809,1,2,0:0:0:0:
192,192,34809,1,0,0:0:0:0:
448,192,34809,1,0,0:0:0:0:
64,192,34920,1,0,0:0:0:0:
320,192,34920,1,0,0:0:0:0:
192,192,35032,1,0,0:0:0:0:
448,192,35032,1,0,0:0:0:0:
320,192,35143,1,0,0:0:0:0:
448,192,35143,1,0,0:0:0:0:
64,192,35254,1,2,0:0:0:0:
192,192,35254,1,0,0:0:0:0:
320,192,35254,1,0,0:0:0:0:
64,192,35365,1,0,0:0:0:0:
192,192,35365,1,0,0:0:0:0:
192,192,35587,1,0,0:0:0:0:
448,192,35587,1,0,0:0:0:0:
64,192,35698,1,2,0:0:0:0:
192,192,35698,1,0,0:0:0:0:
320,192,35698,1,0,0:0:0:0:
448,192,36032,1,0,0:0:0:0:
320,192,36087,1,0,0:0:0:0:
64,192,36143,1,2,0:0:0:0:
192,192,36143,1,0,0:0:0:0:
448,192,36143,1,0,0:0:0:0:
64,192,36365,1,0,0:0:0:0:
448,192,36365,1,0,0:0:0:0:
192,192,36476,1,0,0:0:0:0:
320,192,36476,1,0,0:0:0:0:
64,192,36587,1,2,0:0:0:0:
192,192,36587,1,0,0:0:0:0:
448,192,36587,1,0,0:0:0:0:
320,192,36698,1,0,0:0:0:0:
448,192,36698,1,0,0:0:0:0:
64,192,36809,1,0,0:0:0:0:
192,192,36809,1,0,0:0:0:0:
320,192,36920,1,0,0:0:0:0:
192,192,36976,1,0,0:0:0:0:
64,192,37032,1,2,0:0:0:0:
320,192,37032,1,0,0:0:0:0:
448,192,37032,1,0,0:0:0:0:
64,192,37254,1,0,0:0:0:0:
192,192,37254,1,0,0:0:0:0:
320,192,37365,1,0,0:0:0:0:
448,192,37365,1,0,0:0:0:0:
64,192,37476,1,2,0:0:0:0:
192,192,37476,1,0,0:0:0:0:
448,192,37476,1,0,0:0:0:0:
448,192,37809,1,0,0:0:0:0:
192,192,37865,1,0,0:0:0:0:
64,192,37920,1,2,0:0:0:0:
320,192,37920,1,0,0:0:0:0:
448,192,37920,1,0,0:0:0:0:
64,192,38143,1,0,0:0:0:0:
448,192,38143,1,0,0:0:0:0:
192,192,38254,1,0,0:0:0:0:
320,192,38254,1,0,0:0:0:0:
64,192,38365,1,2,0:0:0:0:
320,192,38365,1,0,0:0:0:0:
448,192,38365,1,0,0:0:0:0:
64,192,38476,1,0,0:0:0:0:
192,192,38476,1,0,0:0:0:0:
320,192,38587,1,0,0:0:0:0:
448,192,38587,1,0,0:0:0:0:
64,192,38698,1,0,0:0:0:0:
320,192,38754,1,0,0:0:0:0:
64,192,38809,1,2,0:0:0:0:
192,192,38809,1,0,0:0:0:0:
448,192,38809,1,0,0:0:0:0:
320,192,39032,1,0,0:0:0:0:
448,192,39032,1,0,0:0:0:0:
64,192,39143,1,0,0:0:0:0:
192,192,39143,1,0,0:0:0:0:
64,192,39254,128,2,39309:0:0:0:0:
192,192,39254,128,0,39309:0:0:0:0:
448,192,39254,128,0,39309:0:0:0:0:
320,192,39587,1,0,0:0:0:0:
64,192,39643,1,0,0:0:0:0:
192,192,39698,1,2,0:0:0:0:
320,192,39698,1,0,0:0:0:0:
448,192,39698,1,0,0:0:0:0:
64,192,39920,1,0,0:0:0:0:
192,192,39920,1,0,0:0:0:0:
320,192,40032,1,0,0:0:0:0:
448,192,40032,1,0,0:0:0:0:
64,192,40143,1,2,0:0:0:0:
192,192,40143,1,0,0:0:0:0:
448,192,40143,1,0,0:0:0:0:
192,192,40254,1,0,0:0:0:0:
320,192,40254,1,0,0:0:0:0:
64,192,40365,1,0,0:0:0:0:
448,192,40365,1,0,0:0:0:0:
64,192,40587,1,2,0:0:0:0:
192,192,40587,1,0,0:0:0:0:
320,192,40587,1,0,0:0:0:0:
192,192,40809,1,0,0:0:0:0:
448,192,40809,1,0,0:0:0:0:
64,192,41032,1,2,0:0:0:0:
320,192,41032,1,0,0:0:0:0:
448,192,41032,1,0,0:0:0:0:
192,192,41365,1,0,0:0:0:0:
448,192,41420,1,0,0:0:0:0:
64,192,41476,1,2,0:0:0:0:
192,192,41476,1,0,0:0:0:0:
320,192,41476,1,0,0:0:0:0:
64,192,41698,1,0,0:0:0:0:
192,192,41698,1,0,0:0:0:0:
320,192,41809,1,0,0:0:0:0:
448,192,41809,1,0,0:0:0:0:
64,192,41920,1,2,0:0:0:0:
192,192,41920,1,0,0:0:0:0:
448,192,41920,1,0,0:0:0:0:
192,192,42032,1,0,0:0:0:0:
320,192,42032,1,0,0:0:0:0:
64,192,42143,1,0,0:0:0:0:
448,192,42143,1,0,0:0:0:0:
64,192,42254,1,0,0:0:0:0:
192,192,42254,1,0,0:0:0:0:
192,192,42365,1,2,0:0:0:0:
320,192,42365,1,0,0:0:0:0:
448,192,42365,1,0,0:0:0:0:
320,192,42476,1,0,0:0:0:0:
448,192,42476,1,0,0:0:0:0:
192,192,42698,1,0,0:0:0:0:
448,192,42698,1,0,0:0:0:0:
64,192,42809,1,2,0:0:0:0:
320,192,42809,1,0,0:0:0:70:clap1.wav
448,192,42809,1,0,0:0:0:0:
64,192,43032,1,0,0:0:0:70:clap2.wav
192,192,43032,1,0,0:0:0:0:
320,192,43143,1,0,0:0:0:0:
192,192,43198,1,0,0:0:0:0:
64,192,43254,1,0,0:0:0:70:clap1.wav
320,192,43254,1,0,0:0:0:0:
448,192,43254,1,0,0:0:0:0:
64,192,43476,1,0,0:0:0:70:clap1.wav
192,192,43476,1,0,0:0:0:0:
320,192,43587,1,0,0:0:0:0:
448,192,43587,1,0,0:0:0:0:
64,192,43698,1,0,0:0:0:40:WB.wav
192,192,43698,1,0,0:0:0:0:
448,192,43698,1,0,0:0:0:0:
320,192,43809,1,0,0:0:0:0:
64,192,43920,1,0,0:0:0:0:
192,192,43920,1,0,0:0:0:0:
64,192,44032,1,0,0:0:0:0:
192,192,44032,1,0,0:0:0:0:
320,192,44143,1,0,0:0:0:70:S_.wav
448,192,44143,1,0,0:0:0:0:
64,192,44198,1,0,0:0:0:0:
192,192,44254,1,0,0:0:0:0:
320,192,44309,1,0,0:0:0:0:
64,192,44365,1,0,0:0:0:70:S_.wav
448,192,44365,1,0,0:0:0:0:
192,192,44420,1,0,0:0:0:0:
320,192,44476,1,0,0:0:0:70:S_.wav
448,192,44476,1,0,0:0:0:0:
64,192,44532,1,0,0:0:0:0:
192,192,44587,128,0,44643:0:0:0:40:WB.wav
320,192,44587,1,0,0:0:0:0:
448,192,44587,1,0,0:0:0:0:
64,192,44698,128,0,44754:0:0:0:0:
320,192,44809,128,0,44865:0:0:0:0:
448,192,44809,1,0,0:0:0:0:
192,192,44920,128,0,44976:0:0:0:0:
64,192,45032,128,0,45087:0:0:0:40:WB.wav
320,192,45032,1,0,0:0:0:0:
192,192,45143,128,0,45198:0:0:0:0:
448,192,45143,1,0,0:0:0:0:
64,192,45254,1,0,0:0:0:0:
320,192,45254,128,0,45309:0:0:0:0:
448,192,45365,128,0,45420:0:0:0:0:
64,192,45476,128,0,45532:0:0:0:40:WB.wav
192,192,45476,1,0,0:0:0:0:
192,192,45587,128,0,45643:0:0:0:0:
320,192,45587,1,0,0:0:0:0:
320,192,45698,128,0,45754:0:0:0:0:
448,192,45698,1,0,0:0:0:0:
64,192,45809,1,0,0:0:0:0:
448,192,45809,128,0,45865:0:0:0:0:
64,192,45920,128,0,45976:0:0:0:40:WB.wav
192,192,45920,1,0,0:0:0:0:
320,192,46032,128,0,46087:0:0:0:0:
448,192,46032,1,0,0:0:0:0:
64,192,46143,1,0,0:0:0:0:
192,192,46143,128,0,46198:0:0:0:0:
320,192,46254,128,0,46309:0:0:0:0:
64,192,46365,1,0,0:0:0:50:K.wav
448,192,46365,1,0,0:0:0:0:
448,192,46476,1,0,0:0:0:100:WB1.wav
64,192,46587,1,0,0:0:0:0:
192,192,46624,1,0,0:0:0:0:
448,192,46661,1,0,0:0:0:0:
320,192,46698,1,0,0:0:0:0:
64,192,46809,1,4,0:0:0:0:
192,192,46809,1,2,0:0:0:0:
448,192,46809,1,0,0:0:0:0:
64,192,47032,1,0,0:0:0:0:
320,192,47032,1,0,0:0:0:0:
192,192,47143,1,0,0:0:0:0:
448,192,47143,1,0,0:0:0:0:
64,192,47254,1,2,0:0:0:0:
320,192,47254,1,0,0:0:0:0:
448,192,47254,1,0,0:0:0:0:
64,192,47365,1,0,0:0:0:0:
192,192,47365,1,0,0:0:0:0:
320,192,47476,1,0,0:0:0:0:
448,192,47476,1,0,0:0:0:0:
64,192,47698,1,2,0:0:0:0:
320,192,47698,1,0,0:0:0:0:
448,192,47698,1,0,0:0:0:0:
192,192,47920,1,0,0:0:0:0:
320,192,47920,1,0,0:0:0:0:
64,192,48143,1,2,0:0:0:0:
192,192,48143,1,0,0:0:0:0:
448,192,48143,1,0,0:0:0:0:
320,192,48365,1,0,0:0:0:0:
448,192,48365,1,0,0:0:0:0:
192,192,48476,1,0,0:0:0:0:
320,192,48532,1,0,0:0:0:0:
64,192,48587,1,2,0:0:0:0:
192,192,48587,1,0,0:0:0:0:
448,192,48587,1,0,0:0:0:0:
64,192,48809,1,0,0:0:0:0:
192,192,48809,1,0,0:0:0:0:
320,192,48920,1,0,0:0:0:0:
448,192,48920,1,0,0:0:0:0:
64,192,49032,1,2,0:0:0:0:
192,192,49032,1,0,0:0:0:0:
448,192,49032,1,0,0:0:0:0:
64,192,49143,1,0,0:0:0:0:
320,192,49143,1,0,0:0:0:0:
192,192,49254,1,0,0:0:0:0:
448,192,49254,1,0,0:0:0:0:
64,192,49365,1,0,0:0:0:0:
192,192,49365,1,0,0:0:0:0:
64,192,49476,1,2,0:0:0:0:
320,192,49476,1,0,0:0:0:0:
448,192,49476,1,0,0:0:0:0:
320,192,49587,1,0,0:0:0:0:
448,192,49587,1,0,0:0:0:0:
64,192,49698,1,0,0:0:0:0:
192,192,49698,1,0,0:0:0:0:
192,192,49809,1,0,0:0:0:0:
448,192,49809,1,0,0:0:0:0:
64,192,49920,1,2,0:0:0:0:
320,192,49920,1,0,0:0:0:0:
448,192,49920,1,0,0:0:0:0:
64,192,50143,1,0,0:0:0:0:
192,192,50143,1,0,0:0:0:0:
320,192,50254,1,0,0:0:0:0:
192,192,50309,1,0,0:0:0:0:
64,192,50365,1,2,0:0:0:0:
320,192,50365,1,0,0:0:0:0:
448,192,50365,1,0,0:0:0:0:
192,192,50587,1,0,0:0:0:0:
448,192,50587,1,0,0:0:0:0:
64,192,50698,1,0,0:0:0:0:
320,192,50698,1,0,0:0:0:0:
64,192,50809,1,2,0:0:0:0:
192,192,50809,1,0,0:0:0:0:
448,192,50809,1,0,0:0:0:0:
192,192,50920,1,0,0:0:0:0:
320,192,50920,1,0,0:0:0:0:
64,192,51032,1,0,0:0:0:0:
448,192,51032,1,0,0:0:0:0:
320,192,51143,1,0,0:0:0:0:
64,192,51198,1,0,0:0:0:0:
192,192,51254,1,2,0:0:0:0:
320,192,51254,1,0,0:0:0:0:
448,192,51254,1,0,0:0:0:0:
64,192,51476,1,0,0:0:0:0:
192,192,51476,1,0,0:0:0:0:
320,192,51587,1,0,0:0:0:0:
448,192,51587,1,0,0:0:0:0:
64,192,51698,1,2,0:0:0:0:
192,192,51698,1,0,0:0:0:0:
448,192,51698,1,0,0:0:0:0:
320,192,51920,1,0,0:0:0:0:
448,192,51920,1,0,0:0:0:0:
192,192,52032,1,0,0:0:0:0:
448,192,52087,1,0,0:0:0:0:
64,192,52143,1,2,0:0:0:0:
192,192,52143,1,0,0:0:0:0:
320,192,52143,1,0,0:0:0:0:
192,192,52365,1,0,0:0:0:0:
448,192,52365,1,0,0:0:0:0:
64,192,52476,1,0,0:0:0:0:
320,192,52476,1,0,0:0:0:0:
64,192,52587,1,2,0:0:0:0:
192,192,52587,1,0,0:0:0:0:
448,192,52587,1,0,0:0:0:0:
320,192,52698,1,0,0:0:0:0:
448,192,52698,1,0,0:0:0:0:
64,192,52809,1,0,0:0:0:0:
192,192,52809,1,0,0:0:0:0:
320,192,52920,1,0,0:0:0:0:
64,192,52976,1,0,0:0:0:0:
192,192,53032,1,2,0:0:0:0:
320,192,53032,1,0,0:0:0:0:
448,192,53032,1,0,0:0:0:0:
64,192,53254,1,0,0:0:0:0:
192,192,53254,1,0,0:0:0:0:
320,192,53365,1,0,0:0:0:0:
448,192,53365,1,0,0:0:0:0:
64,192,53476,128,2,53532:0:0:0:0:
320,192,53476,128,0,53532:0:0:0:0:
448,192,53476,128,0,53532:0:0:0:0:
64,192,53698,1,0,0:0:0:0:
448,192,53698,1,0,0:0:0:0:
192,192,53809,1,0,0:0:0:0:
320,192,53865,1,0,0:0:0:0:
64,192,53920,1,2,0:0:0:0:
192,192,53920,1,0,0:0:0:0:
448,192,53920,1,0,0:0:0:0:
192,192,54143,1,0,0:0:0:0:
448,192,54143,1,0,0:0:0:0:
64,192,54254,1,0,0:0:0:0:
320,192,54254,1,0,0:0:0:0:
64,192,54365,1,2,0:0:0:0:
192,192,54365,1,0,0:0:0:0:
448,192,54365,1,0,0:0:0:0:
320,192,54476,1,0,0:0:0:0:
448,192,54476,1,0,0:0:0:0:
64,192,54587,1,0,0:0:0:0:
192,192,54587,1,0,0:0:0:0:
64,192,54809,1,2,0:0:0:0:
320,192,54809,1,0,0:0:0:0:
448,192,54809,1,0,0:0:0:0:
192,192,55032,1,0,0:0:0:0:
448,192,55032,1,0,0:0:0:0:
64,192,55254,1,2,0:0:0:0:
192,192,55254,1,0,0:0:0:0:
320,192,55254,1,0,0:0:0:0:
64,192,55476,1,0,0:0:0:0:
448,192,55476,1,0,0:0:0:0:
320,192,55587,1,0,0:0:0:0:
192,192,55643,1,0,0:0:0:0:
64,192,55698,1,2,0:0:0:0:
320,192,55698,1,0,0:0:0:0:
448,192,55698,1,0,0:0:0:0:
64,192,55920,1,0,0:0:0:0:
192,192,55920,1,0,0:0:0:0:
320,192,56032,1,0,0:0:0:0:
448,192,56032,1,0,0:0:0:0:
64,192,56143,1,2,0:0:0:0:
192,192,56143,1,0,0:0:0:0:
448,192,56143,1,0,0:0:0:0:
192,192,56254,1,0,0:0:0:0:
320,192,56254,1,0,0:0:0:0:
64,192,56365,1,0,0:0:0:0:
448,192,56365,1,0,0:0:0:0:
64,192,56476,1,0,0:0:0:0:
192,192,56476,1,0,0:0:0:0:
192,192,56587,1,2,0:0:0:0:
320,192,56587,1,0,0:0:0:0:
448,192,56587,1,0,0:0:0:0:
320,192,56698,1,0,0:0:0:0:
448,192,56698,1,0,0:0:0:0:
64,192,56809,1,0,0:0:0:0:
192,192,56809,1,0,0:0:0:0:
192,192,56920,1,0,0:0:0:0:
448,192,56920,1,0,0:0:0:0:
64,192,57032,1,2,0:0:0:0:
320,192,57032,1,0,0:0:0:0:
448,192,57032,1,0,0:0:0:0:
64,192,57254,1,0,0:0:0:0:
448,192,57254,1,0,0:0:0:0:
192,192,57365,1,0,0:0:0:0:
448,192,57420,1,0,0:0:0:0:
64,192,57476,1,2,0:0:0:0:
192,192,57476,1,0,0:0:0:0:
320,192,57476,1,0,0:0:0:0:
320,192,57698,1,0,0:0:0:0:
448,192,57698,1,0,0:0:0:0:
64,192,57809,1,0,0:0:0:0:
192,192,57809,1,0,0:0:0:0:
64,192,57920,1,2,0:0:0:0:
320,192,57920,1,0,0:0:0:0:
448,192,57920,1,0,0:0:0:0:
192,192,58032,1,0,0:0:0:0:
320,192,58032,1,0,0:0:0:0:
64,192,58143,1,0,0:0:0:0:
448,192,58143,1,0,0:0:0:0:
192,192,58254,1,0,0:0:0:0:
320,192,58309,1,0,0:0:0:0:
64,192,58365,1,2,0:0:0:0:
192,192,58365,1,0,0:0:0:0:
448,192,58365,1,0,0:0:0:0:
64,192,58587,1,0,0:0:0:0:
320,192,58587,1,0,0:0:0:0:
192,192,58698,1,0,0:0:0:0:
448,192,58698,1,0,0:0:0:0:
64,192,58809,1,2,0:0:0:0:
320,192,58809,1,0,0:0:0:0:
448,192,58809,1,0,0:0:0:0:
64,192,59032,1,0,0:0:0:0:
448,192,59032,1,0,0:0:0:0:
320,192,59143,1,0,0:0:0:0:
64,192,59198,1,0,0:0:0:0:
192,192,59254,1,2,0:0:0:0:
320,192,59254,1,0,0:0:0:0:
448,192,59254,1,0,0:0:0:0:
64,192,59476,1,0,0:0:0:0:
448,192,59476,1,0,0:0:0:0:
192,192,59587,1,0,0:0:0:0:
320,192,59587,1,0,0:0:0:0:
64,192,59698,1,2,0:0:0:0:
192,192,59698,1,0,0:0:0:0:
448,192,59698,1,0,0:0:0:0:
320,192,59809,1,0,0:0:0:0:
448,192,59809,1,0,0:0:0:0:
64,192,59920,1,0,0:0:0:0:
192,192,59920,1,0,0:0:0:0:
320,192,60032,1,0,0:0:0:0:
192,192,60087,1,0,0:0:0:0:
64,192,60143,128,0,60476:0:0:0:70:S_.wav
320,192,60143,1,0,0:0:0:0:
448,192,60143,128,0,60476:0:0:0:0:
64,192,60587,1,4,0:0:0:0:
192,192,60587,128,0,60809:0:0:0:0:
320,192,60809,128,0,61920:0:0:0:0:
448,192,60809,128,0,60920:0:0:0:0:
64,192,60920,1,0,0:0:0:0:
192,192,61032,1,0,0:0:0:70:clap1.wav
448,192,61254,128,0,61365:0:0:0:0:
64,192,61365,1,0,0:0:0:0:
64,192,61698,128,0,61809:0:0:0:0:
448,192,61809,1,0,0:0:0:0:
64,192,61920,1,0,0:0:0:70:clap1.wav
192,192,61920,128,0,62143:0:0:0:0:
64,192,62143,128,0,62254:0:0:0:0:
320,192,62143,128,0,62365:0:0:0:0:
192,192,62254,1,0,0:0:0:0:
448,192,62365,128,0,63032:0:0:0:0:
192,192,62587,128,0,62698:0:0:0:0:
320,192,62698,1,0,0:0:0:0:
64,192,62809,1,0,0:0:0:70:clap1.wav
192,192,63032,128,0,63143:0:0:0:0:
320,192,63032,128,0,63698:0:0:0:0:
64,192,63143,1,0,0:0:0:0:
64,192,63476,128,0,63587:0:0:0:0:
448,192,63587,1,0,0:0:0:0:
64,192,63698,1,0,0:0:0:70:clap1.wav
192,192,63698,128,0,64143:0:0:0:0:
448,192,63920,128,0,64032:0:0:0:0:
64,192,64143,128,0,64587:0:0:0:0:
448,192,64365,128,0,64476:0:0:0:0:
320,192,64476,1,0,0:0:0:0:
192,192,64587,1,0,0:0:0:70:clap1.wav
448,192,64587,128,0,64809:0:0:0:0:
64,192,64809,128,0,64920:0:0:0:0:
320,192,64809,128,0,65254:0:0:0:0:
192,192,64920,1,0,0:0:0:0:
64,192,65254,128,0,65365:0:0:0:0:
192,192,65254,128,0,65476:0:0:0:0:
448,192,65365,1,0,0:0:0:0:
64,192,65476,128,0,65698:0:0:0:70:clap1.wav
320,192,65476,1,0,0:0:0:0:
192,192,65698,128,0,66365:0:0:0:0:
448,192,65698,128,0,65809:0:0:0:0:
320,192,65809,1,0,0:0:0:0:
64,192,66143,128,0,66254:0:0:0:0:
448,192,66254,1,0,0:0:0:0:
64,192,66365,1,0,0:0:0:70:clap1.wav
320,192,66365,128,0,66587:0:0:0:0:
192,192,66587,128,0,66698:0:0:0:0:
448,192,66587,128,0,67032:0:0:0:0:
64,192,66698,1,0,0:0:0:0:
64,192,67032,128,0,67143:0:0:0:0:
320,192,67032,128,0,67254:0:0:0:0:
448,192,67143,1,0,0:0:0:0:
64,192,67254,1,0,0:0:0:50:S3.wav
192,192,67254,128,0,67476:0:0:0:70:clap1.wav
448,192,67365,1,0,0:0:0:50:S3.wav
64,192,67476,128,0,67698:0:0:0:50:S3.wav
320,192,67476,1,0,0:0:0:0:
448,192,67587,1,0,0:0:0:50:S3.wav
192,192,67698,1,2,0:0:0:0:
320,192,67698,1,0,0:0:0:0:
64,192,67809,1,0,0:0:0:0:
448,192,67809,1,0,0:0:0:0:
320,192,67865,1,0,0:0:0:0:
192,192,67920,1,0,0:0:0:0:
192,192,68032,1,0,0:0:0:0:
320,192,68032,1,0,0:0:0:0:
64,192,68143,1,2,0:0:0:0:
448,192,68143,1,0,0:0:0:70:clap1.wav
320,192,68254,1,0,0:0:0:0:
192,192,68365,1,0,0:0:0:0:
448,192,68365,1,0,0:0:0:0:
64,192,68476,1,0,0:0:0:0:
448,192,68476,1,0,0:0:0:0:
64,192,68587,1,2,0:0:0:0:
320,192,68587,1,0,0:0:0:0:
192,192,68698,1,0,0:0:0:0:
448,192,68698,1,0,0:0:0:0:
64,192,68809,1,0,0:0:0:0:
448,192,68809,1,0,0:0:0:0:
192,192,68920,1,0,0:0:0:0:
320,192,69032,1,2,0:0:0:0:
448,192,69032,1,0,0:0:0:70:clap1.wav
64,192,69143,1,0,0:0:0:0:
192,192,69143,1,0,0:0:0:0:
64,192,69254,1,0,0:0:0:0:
320,192,69254,1,0,0:0:0:0:
448,192,69365,1,0,0:0:0:0:
64,192,69476,1,2,0:0:0:0:
320,192,69476,1,0,0:0:0:0:
192,192,69587,1,0,0:0:0:0:
320,192,69698,1,0,0:0:0:0:
320,192,69809,1,0,0:0:0:0:
64,192,69920,1,2,0:0:0:0:
448,192,69920,1,0,0:0:0:70:clap1.wav
192,192,70143,1,0,0:0:0:0:
320,192,70143,1,0,0:0:0:0:
192,192,70254,1,0,0:0:0:0:
320,192,70365,1,2,0:0:0:0:
448,192,70365,1,0,0:0:0:0:
64,192,70476,1,0,0:0:0:0:
64,192,70587,1,0,0:0:0:0:
64,192,70809,1,2,0:0:0:0:
192,192,70809,1,0,0:0:0:70:clap1.wav
448,192,70920,1,0,0:0:0:0:
448,192,71032,1,0,0:0:0:0:
64,192,71254,1,2,0:0:0:0:
320,192,71254,1,0,0:0:0:0:
320,192,71365,1,0,0:0:0:0:
448,192,71365,1,0,0:0:0:0:
192,192,71420,1,0,0:0:0:0:
64,192,71476,1,0,0:0:0:0:
64,192,71587,1,0,0:0:0:0:
320,192,71587,1,0,0:0:0:0:
192,192,71698,1,2,0:0:0:0:
448,192,71698,1,0,0:0:0:70:clap1.wav
320,192,71809,1,0,0:0:0:0:
64,192,71920,1,0,0:0:0:0:
192,192,71920,1,0,0:0:0:0:
64,192,72032,1,0,0:0:0:0:
320,192,72032,1,0,0:0:0:0:
192,192,72143,1,2,0:0:0:0:
448,192,72143,1,0,0:0:0:0:
64,192,72254,1,0,0:0:0:0:
448,192,72254,1,0,0:0:0:0:
64,192,72365,1,0,0:0:0:0:
320,192,72365,1,0,0:0:0:0:
192,192,72476,1,0,0:0:0:0:
64,192,72587,1,2,0:0:0:0:
320,192,72587,1,0,0:0:0:70:clap1.wav
192,192,72698,1,0,0:0:0:0:
448,192,72698,1,0,0:0:0:0:
320,192,72809,1,0,0:0:0:0:
448,192,72809,1,0,0:0:0:0:
192,192,72920,1,0,0:0:0:0:
64,192,73032,1,0,0:0:0:0:
448,192,73032,1,0,0:0:0:0:
320,192,73143,1,0,0:0:0:0:
192,192,73254,1,0,0:0:0:0:
448,192,73254,128,0,73365:0:0:0:0:
192,192,73365,1,0,0:0:0:0:
192,192,73476,1,0,0:0:0:70:clap1.wav
64,192,73698,1,0,0:0:0:0:
192,192,73698,1,0,0:0:0:0:
448,192,73698,128,0,73809:0:0:0:0:
192,192,73809,1,0,0:0:0:0:
320,192,73920,1,0,0:0:0:0:
320,192,74032,1,0,0:0:0:0:
320,192,74143,1,0,0:0:0:0:
448,192,74143,128,0,74254:0:0:0:0:
192,192,74365,1,0,0:0:0:70:clap1.wav
192,192,74476,1,0,0:0:0:0:
64,192,74587,128,0,74698:0:0:0:0:
192,192,74587,1,0,0:0:0:0:
64,192,74809,1,4,0:0:0:0:
320,192,74809,1,0,0:0:0:50:S3.wav
448,192,74809,1,0,0:0:0:0:
320,192,74920,1,0,0:0:0:0:
192,192,75032,1,0,0:0:0:0:
192,192,75143,1,0,0:0:0:0:
64,192,75254,1,0,0:0:0:50:S3.wav
320,192,75254,1,0,0:0:0:0:
448,192,75254,1,0,0:0:0:0:
192,192,75476,1,0,0:0:0:0:
192,192,75587,1,0,0:0:0:0:
64,192,75698,1,0,0:0:0:50:S3.wav
320,192,75698,1,0,0:0:0:0:
448,192,75698,1,0,0:0:0:0:
320,192,75809,1,0,0:0:0:0:
192,192,75920,1,0,0:0:0:0:
64,192,76143,1,0,0:0:0:50:S3.wav
320,192,76143,1,0,0:0:0:0:
448,192,76143,1,0,0:0:0:0:
320,192,76254,1,0,0:0:0:0:
192,192,76365,1,0,0:0:0:0:
64,192,76587,1,0,0:0:0:50:S3.wav
320,192,76587,1,0,0:0:0:0:
448,192,76587,1,0,0:0:0:0:
448,192,76698,1,0,0:0:0:0:
64,192,76809,1,0,0:0:0:0:
64,192,76920,1,0,0:0:0:0:
192,192,77032,1,0,0:0:0:50:S3.wav
320,192,77032,1,0,0:0:0:0:
448,192,77032,1,0,0:0:0:0:
64,192,77254,1,0,0:0:0:0:
64,192,77365,1,0,0:0:0:0:
192,192,77476,1,0,0:0:0:50:S3.wav
320,192,77476,1,0,0:0:0:0:
448,192,77476,1,0,0:0:0:0:
448,192,77587,1,0,0:0:0:0:
64,192,77698,1,0,0:0:0:0:
192,192,77920,1,0,0:0:0:50:S3.wav
320,192,77920,1,0,0:0:0:0:
448,192,77920,1,0,0:0:0:0:
448,192,78032,1,0,0:0:0:0:
64,192,78143,1,0,0:0:0:0:
320,192,78365,1,4,0:0:0:0:
448,192,78365,1,0,0:0:0:50:S3.wav
64,192,78476,1,0,0:0:0:50:S3.wav
192,192,78476,1,0,0:0:0:0:
320,192,78587,1,0,0:0:0:50:S3.wav
448,192,78587,1,0,0:0:0:0:
320,192,78698,1,0,0:0:0:50:S3.wav
448,192,78698,1,0,0:0:0:0:
64,192,78809,1,0,0:0:0:50:S3.wav
192,192,78809,1,0,0:0:0:0:
320,192,78920,1,0,0:0:0:50:S3.wav
448,192,78920,1,0,0:0:0:0:
64,192,79032,1,0,0:0:0:50:S3.wav
192,192,79032,1,0,0:0:0:0:
64,192,79143,1,0,0:0:0:50:S3.wav
192,192,79143,1,0,0:0:0:0:
320,192,79254,1,0,0:0:0:50:S3.wav
448,192,79254,1,0,0:0:0:0:
192,192,79309,1,0,0:0:0:0:
64,192,79365,1,0,0:0:0:0:
320,192,79420,1,0,0:0:0:0:
192,192,79476,1,0,0:0:0:0:
448,192,79532,1,0,0:0:0:0:
320,192,79587,1,0,0:0:0:0:
64,192,79643,1,0,0:0:0:0:
192,192,79698,1,0,0:0:0:0:
192,192,79809,1,0,0:0:0:0:
320,192,79920,1,0,0:0:0:0:
320,192,80032,1,0,0:0:0:0:
64,192,80143,1,0,0:0:0:50:S1.wav
192,192,80143,1,0,0:0:0:0:
64,192,80254,1,0,0:0:0:50:S1.wav
320,192,80365,1,0,0:0:0:50:S1.wav
448,192,80365,1,0,0:0:0:0:
320,192,80476,1,0,0:0:0:50:S1.wav
64,192,80587,1,0,0:0:0:50:S1.wav
448,192,80698,1,0,0:0:0:50:S3.wav
192,192,80809,1,0,0:0:0:50:S3.wav
448,192,80809,1,0,0:0:0:0:
448,192,80920,1,0,0:0:0:50:S3.wav
64,192,81032,1,0,0:0:0:50:S1.wav
192,192,81143,1,0,0:0:0:50:S3.wav
192,192,81254,1,0,0:0:0:50:S2.wav
320,192,81254,1,0,0:0:0:0:
320,192,81402,1,0,0:0:0:0:
64,192,81476,1,0,0:0:0:70:S_.wav
448,192,81476,1,0,0:0:0:0:
64,192,81920,128,2,81976:0:0:0:0:
192,192,81920,128,4,81976:0:0:0:0:
448,192,81920,128,0,81976:0:0:0:0:
320,192,82143,1,0,0:0:0:0:
192,192,82254,1,0,0:0:0:0:
320,192,82309,1,0,0:0:0:0:
64,192,82365,1,2,0:0:0:0:
192,192,82365,128,0,82420:0:0:0:0:
448,192,82365,1,0,0:0:0:0:
320,192,82587,128,0,82643:0:0:0:0:
448,192,82587,1,0,0:0:0:0:
64,192,82698,1,0,0:0:0:0:
192,192,82698,128,0,82754:0:0:0:0:
64,192,82809,1,2,0:0:0:0:
320,192,82809,1,0,0:0:0:0:
448,192,82809,1,0,0:0:0:0:
192,192,82920,128,0,82976:0:0:0:0:
448,192,82920,1,0,0:0:0:0:
64,192,83032,1,0,0:0:0:0:
320,192,83032,128,0,83087:0:0:0:0:
64,192,83254,1,2,0:0:0:0:
192,192,83254,128,0,83309:0:0:0:0:
448,192,83254,1,0,0:0:0:0:
192,192,83476,1,0,0:0:0:0:
320,192,83476,128,0,83532:0:0:0:0:
64,192,83698,1,2,0:0:0:0:
320,192,83698,1,0,0:0:0:0:
448,192,83698,128,0,83754:0:0:0:0:
192,192,83920,1,0,0:0:0:0:
320,192,84032,1,0,0:0:0:0:
192,192,84087,1,0,0:0:0:0:
64,192,84143,128,2,84198:0:0:0:0:
320,192,84143,1,0,0:0:0:0:
448,192,84143,1,0,0:0:0:0:
192,192,84365,1,0,0:0:0:0:
448,192,84365,128,0,84420:0:0:0:0:
64,192,84476,128,0,84532:0:0:0:0:
320,192,84476,1,0,0:0:0:0:
64,192,84587,1,2,0:0:0:0:
192,192,84587,1,0,0:0:0:0:
448,192,84587,1,0,0:0:0:0:
320,192,84698,1,0,0:0:0:0:
448,192,84698,1,0,0:0:0:0:
64,192,84809,1,0,0:0:0:0:
320,192,84809,1,0,0:0:0:0:
64,192,84920,1,0,0:0:0:0:
192,192,84920,1,0,0:0:0:0:
192,192,85032,128,2,85087:0:0:0:0:
320,192,85032,1,0,0:0:0:0:
448,192,85032,1,0,0:0:0:0:
320,192,85143,128,0,85198:0:0:0:0:
448,192,85143,1,0,0:0:0:0:
192,192,85254,1,0,0:0:0:0:
64,192,85365,1,0,0:0:0:0:
448,192,85365,128,0,85420:0:0:0:0:
64,192,85476,1,2,0:0:0:0:
192,192,85476,1,0,0:0:0:0:
320,192,85476,128,0,85532:0:0:0:0:
192,192,85698,1,0,0:0:0:0:
64,192,85809,1,0,0:0:0:0:
320,192,85865,1,0,0:0:0:0:
64,192,85920,1,2,0:0:0:0:
192,192,85920,128,0,85976:0:0:0:0:
448,192,85920,1,0,0:0:0:0:
320,192,86143,128,0,86198:0:0:0:0:
448,192,86143,1,0,0:0:0:0:
64,192,86254,1,0,0:0:0:0:
192,192,86254,128,0,86309:0:0:0:0:
64,192,86365,1,2,0:0:0:0:
320,192,86365,1,0,0:0:0:0:
448,192,86365,1,0,0:0:0:0:
192,192,86476,128,0,86532:0:0:0:0:
448,192,86476,1,0,0:0:0:0:
64,192,86587,1,0,0:0:0:0:
320,192,86587,128,0,86643:0:0:0:0:
448,192,86698,1,0,0:0:0:0:
192,192,86754,1,0,0:0:0:0:
64,192,86809,1,2,0:0:0:0:
320,192,86809,1,0,0:0:0:0:
448,192,86809,128,0,86865:0:0:0:0:
192,192,87032,128,0,87087:0:0:0:0:
320,192,87032,1,0,0:0:0:0:
64,192,87143,1,0,0:0:0:0:
448,192,87143,128,0,87198:0:0:0:0:
64,192,87254,128,2,87309:0:0:0:0:
192,192,87254,1,0,0:0:0:0:
320,192,87254,1,0,0:0:0:0:
448,192,87476,1,0,0:0:0:0:
192,192,87587,1,0,0:0:0:0:
320,192,87643,1,0,0:0:0:0:
64,192,87698,128,2,87754:0:0:0:0:
192,192,87698,1,0,0:0:0:0:
448,192,87698,1,0,0:0:0:0:
64,192,87920,1,0,0:0:0:0:
448,192,87920,128,0,87976:0:0:0:0:
192,192,88032,1,0,0:0:0:0:
320,192,88032,128,0,88087:0:0:0:0:
64,192,88143,1,2,0:0:0:0:
192,192,88143,1,0,0:0:0:0:
448,192,88143,1,0,0:0:0:0:
320,192,88254,1,0,0:0:0:0:
448,192,88254,128,0,88309:0:0:0:0:
64,192,88365,128,0,88420:0:0:0:0:
192,192,88365,1,0,0:0:0:0:
320,192,88476,1,0,0:0:0:0:
192,192,88532,1,0,0:0:0:0:
64,192,88587,1,2,0:0:0:0:
320,192,88587,128,0,88643:0:0:0:0:
448,192,88587,1,0,0:0:0:0:
320,192,88809,1,0,0:0:0:0:
448,192,88809,128,0,88865:0:0:0:0:
64,192,88920,1,0,0:0:0:0:
192,192,88920,128,0,88976:0:0:0:0:
64,192,89032,128,2,89087:0:0:0:0:
192,192,89032,128,4,89087:0:0:0:0:
448,192,89032,128,0,89087:0:0:0:0:
320,192,89254,1,0,0:0:0:0:
64,192,89365,1,0,0:0:0:0:
192,192,89420,1,0,0:0:0:0:
64,192,89476,1,2,0:0:0:0:
320,192,89476,128,0,89532:0:0:0:0:
448,192,89476,1,0,0:0:0:0:
192,192,89698,128,0,89754:0:0:0:0:
448,192,89698,1,0,0:0:0:0:
64,192,89809,1,0,0:0:0:0:
320,192,89809,128,0,89865:0:0:0:0:
64,192,89920,1,2,0:0:0:0:
192,192,89920,1,0,0:0:0:0:
448,192,89920,1,0,0:0:0:0:
320,192,90032,128,0,90087:0:0:0:0:
448,192,90032,1,0,0:0:0:0:
64,192,90143,1,0,0:0:0:0:
192,192,90143,128,0,90198:0:0:0:0:
64,192,90365,1,2,0:0:0:0:
320,192,90365,128,0,90420:0:0:0:0:
448,192,90365,1,0,0:0:0:0:
192,192,90587,1,0,0:0:0:0:
448,192,90587,128,0,90643:0:0:0:0:
64,192,90809,128,2,90865:0:0:0:0:
192,192,90809,1,0,0:0:0:0:
320,192,90809,1,0,0:0:0:0:
64,192,91032,1,0,0:0:0:0:
448,192,91143,1,0,0:0:0:0:
320,192,91198,1,0,0:0:0:0:
64,192,91254,1,2,0:0:0:0:
192,192,91254,1,0,0:0:0:0:
448,192,91254,128,0,91309:0:0:0:0:
192,192,91476,128,0,91532:0:0:0:0:
320,192,91476,1,0,0:0:0:0:
64,192,91587,1,0,0:0:0:0:
448,192,91587,128,0,91643:0:0:0:0:
64,192,91698,1,2,0:0:0:0:
192,192,91698,1,0,0:0:0:0:
320,192,91698,1,0,0:0:0:0:
320,192,91809,1,0,0:0:0:0:
448,192,91809,1,0,0:0:0:0:
64,192,91920,1,0,0:0:0:0:
192,192,91920,1,0,0:0:0:0:
192,192,92032,1,0,0:0:0:0:
320,192,92032,1,0,0:0:0:0:
64,192,92143,1,0,0:0:0:70:S_.wav
448,192,92143,1,0,0:0:0:0:
64,192,92365,1,0,0:0:0:70:S_.wav
448,192,92365,1,0,0:0:0:0:
64,192,92587,128,2,92643:0:0:0:0:
192,192,92587,128,0,92643:0:0:0:0:
448,192,92587,1,0,0:0:0:0:
320,192,92809,128,0,92865:0:0:0:0:
448,192,92809,128,0,92865:0:0:0:0:
64,192,92920,128,0,92976:0:0:0:0:
192,192,92920,128,0,92976:0:0:0:0:
64,192,93032,1,2,0:0:0:0:
320,192,93032,1,0,0:0:0:0:
448,192,93032,1,0,0:0:0:0:
192,192,93143,128,0,93198:0:0:0:0:
448,192,93143,128,0,93198:0:0:0:0:
64,192,93254,128,0,93309:0:0:0:0:
320,192,93254,128,0,93309:0:0:0:0:
64,192,93476,128,2,93532:0:0:0:0:
192,192,93476,128,0,93532:0:0:0:0:
448,192,93476,1,0,0:0:0:0:
320,192,93587,128,0,93643:0:0:0:0:
448,192,93587,128,0,93643:0:0:0:0:
64,192,93809,128,0,93865:0:0:0:0:
192,192,93809,128,0,93865:0:0:0:0:
64,192,93920,1,2,0:0:0:0:
320,192,93920,128,0,93976:0:0:0:0:
448,192,93920,128,0,93976:0:0:0:0:
192,192,94143,128,0,94198:0:0:0:0:
448,192,94143,128,0,94198:0:0:0:0:
64,192,94254,128,0,94309:0:0:0:0:
320,192,94254,128,0,94309:0:0:0:0:
192,192,94365,128,2,94420:0:0:0:0:
320,192,94365,1,0,0:0:0:0:
448,192,94365,128,0,94420:0:0:0:0:
64,192,94587,128,0,94643:0:0:0:0:
320,192,94587,128,0,94643:0:0:0:0:
192,192,94698,128,0,94754:0:0:0:0:
448,192,94698,128,0,94754:0:0:0:0:
64,192,94809,1,2,0:0:0:0:
192,192,94809,1,0,0:0:0:0:
320,192,94809,1,0,0:0:0:0:
320,192,94920,128,0,94976:0:0:0:0:
448,192,94920,128,0,94976:0:0:0:0:
64,192,95032,128,0,95087:0:0:0:0:
192,192,95032,128,0,95087:0:0:0:0:
192,192,95143,128,0,95198:0:0:0:0:
320,192,95143,128,0,95198:0:0:0:0:
64,192,95254,1,2,0:0:0:0:
320,192,95254,128,0,95309:0:0:0:0:
448,192,95254,128,0,95309:0:0:0:0:
448,192,95476,1,0,0:0:0:50:LR3_GrowlFFGBF.wav
320,192,95513,1,0,0:0:0:0:
64,192,95550,1,0,0:0:0:0:
192,192,95587,1,0,0:0:0:0:
320,192,95698,1,0,0:0:0:70:S_.wav
448,192,95698,1,0,0:0:0:0:
320,192,95809,1,0,0:0:0:70:S_.wav
448,192,95809,1,0,0:0:0:0:
320,192,95920,1,0,0:0:0:70:S_.wav
448,192,95920,1,0,0:0:0:0:
64,192,96143,1,0,0:0:0:0:
192,192,96143,1,0,0:0:0:0:
320,192,96198,1,0,0:0:0:0:
448,192,96254,1,0,0:0:0:100:WB1.wav
192,192,96309,1,0,0:0:0:0:
320,192,96365,1,0,0:0:0:0:
64,192,96420,1,0,0:0:0:0:
192,192,96476,1,0,0:0:0:0:
448,192,96532,1,0,0:0:0:0:
64,192,96587,1,4,0:0:0:0:
192,192,96587,1,2,0:0:0:0:
320,192,96587,128,0,96643:0:0:0:0:
320,192,96809,128,0,96865:0:0:0:0:
448,192,96809,1,0,0:0:0:0:
64,192,96920,1,0,0:0:0:0:
192,192,96920,128,0,96976:0:0:0:0:
64,192,97032,1,2,0:0:0:0:
320,192,97032,1,0,0:0:0:0:
448,192,97032,1,0,0:0:0:0:
192,192,97143,128,0,97198:0:0:0:0:
448,192,97143,1,0,0:0:0:0:
64,192,97254,1,0,0:0:0:0:
320,192,97254,128,0,97309:0:0:0:0:
64,192,97476,1,2,0:0:0:0:
192,192,97476,128,0,97532:0:0:0:0:
448,192,97476,1,0,0:0:0:0:
192,192,97698,1,0,0:0:0:0:
320,192,97698,128,0,97754:0:0:0:0:
64,192,97920,128,2,98309:0:0:0:0:
320,192,97920,128,0,98087:0:0:0:50:LR3_GrowlBRHL.wav
448,192,97920,128,0,98087:0:0:0:0:
320,192,98143,128,0,98198:0:0:0:70:LR3_GrowlKickBR.wav
448,192,98143,128,0,98198:0:0:0:0:
320,192,98254,128,0,98309:0:0:0:70:LR3_GrowlKickBR.wav
448,192,98254,128,0,98309:0:0:0:0:
64,192,98365,1,2,0:0:0:0:
192,192,98365,1,0,0:0:0:0:
448,192,98365,128,0,98420:0:0:0:0:
64,192,98587,128,0,98643:0:0:0:0:
320,192,98587,1,0,0:0:0:0:
192,192,98698,1,0,0:0:0:0:
448,192,98698,128,0,98754:0:0:0:0:
64,192,98809,1,2,0:0:0:0:
320,192,98809,1,0,0:0:0:0:
448,192,98809,1,0,0:0:0:0:
64,192,98920,128,0,98976:0:0:0:0:
192,192,98920,1,0,0:0:0:0:
192,192,99032,128,0,99087:0:0:0:0:
320,192,99032,1,0,0:0:0:0:
320,192,99143,128,0,99198:0:0:0:0:
448,192,99143,1,0,0:0:0:0:
64,192,99254,1,2,0:0:0:0:
192,192,99254,1,0,0:0:0:0:
448,192,99254,128,0,99309:0:0:0:0:
64,192,99365,1,0,0:0:0:0:
192,192,99365,128,0,99420:0:0:0:0:
320,192,99476,1,0,0:0:0:0:
448,192,99476,1,0,0:0:0:0:
64,192,99587,1,0,0:0:0:0:
448,192,99587,128,0,99643:0:0:0:0:
64,192,99698,128,2,99976:0:0:0:0:
192,192,99698,128,0,99865:0:0:0:50:LR3_GrowlRSRSG.wav
320,192,99698,128,0,99837:0:0:0:0:
320,192,99920,1,0,0:0:0:0:
448,192,99948,1,0,0:0:0:0:
192,192,100032,1,0,0:0:0:0:
320,192,100059,1,0,0:0:0:0:
64,192,100143,1,2,0:0:0:0:
192,192,100143,128,0,100198:0:0:0:0:
448,192,100143,1,0,0:0:0:0:
64,192,100365,1,0,0:0:0:0:
320,192,100365,128,0,100420:0:0:0:0:
192,192,100476,128,0,100532:0:0:0:0:
448,192,100476,1,0,0:0:0:0:
64,192,100587,1,2,0:0:0:0:
320,192,100587,1,0,0:0:0:0:
448,192,100587,1,0,0:0:0:0:
64,192,100698,1,0,0:0:0:0:
192,192,100698,128,0,100754:0:0:0:0:
320,192,100809,1,0,0:0:0:0:
448,192,100809,128,0,100865:0:0:0:0:
192,192,100920,1,0,0:0:0:0:
320,192,100976,1,0,0:0:0:0:
64,192,101032,1,0,0:0:0:70:S_.wav
448,192,101032,1,0,0:0:0:0:
64,192,101143,1,0,0:0:0:70:S_.wav
448,192,101143,1,0,0:0:0:0:
192,192,101254,1,0,0:0:0:50:K.wav
320,192,101254,1,0,0:0:0:0:
192,192,101365,1,0,0:0:0:50:K.wav
320,192,101365,1,0,0:0:0:0:
64,192,101476,128,2,101532:0:0:0:0:
192,192,101476,1,0,0:0:0:0:
448,192,101476,1,0,0:0:0:0:
320,192,101587,1,0,0:0:0:0:
448,192,101587,128,0,101643:0:0:0:0:
64,192,101698,128,0,101754:0:0:0:0:
192,192,101698,1,0,0:0:0:0:
320,192,101809,1,0,0:0:0:0:
448,192,101809,128,0,101865:0:0:0:0:
64,192,101920,1,2,0:0:0:0:
192,192,101948,1,0,0:0:0:0:
320,192,101976,1,0,0:0:0:0:
448,192,102004,1,0,0:0:0:0:
64,192,102143,1,0,0:0:0:0:
192,192,102143,128,0,102198:0:0:0:0:
320,192,102254,128,0,102309:0:0:0:0:
448,192,102254,1,0,0:0:0:0:
64,192,102365,1,2,0:0:0:0:
192,192,102365,1,0,0:0:0:0:
448,192,102365,1,0,0:0:0:0:
64,192,102476,128,0,102532:0:0:0:0:
320,192,102476,1,0,0:0:0:0:
192,192,102587,1,0,0:0:0:0:
448,192,102587,128,0,102643:0:0:0:0:
320,192,102698,1,0,0:0:0:0:
192,192,102754,1,0,0:0:0:0:
64,192,102809,128,2,102865:0:0:0:0:
320,192,102809,1,0,0:0:0:0:
448,192,102809,1,0,0:0:0:0:
192,192,103032,128,0,103087:0:0:0:70:S_.wav
320,192,103032,128,0,103087:0:0:0:0:
64,192,103254,128,2,103309:0:0:0:0:
192,192,103254,128,0,103309:0:0:0:0:
448,192,103254,128,0,103309:0:0:0:0:
320,192,103365,128,0,103420:0:0:0:0:
448,192,103365,1,0,0:0:0:0:
64,192,103476,1,0,0:0:0:0:
192,192,103476,128,0,103532:0:0:0:0:
320,192,103587,1,0,0:0:0:0:
448,192,103587,128,0,103643:0:0:0:0:
64,192,103698,1,2,0:0:0:0:
192,192,103698,128,0,103754:0:0:0:0:
320,192,103698,1,0,0:0:0:0:
192,192,103920,128,0,103976:0:0:0:0:
448,192,103920,1,0,0:0:0:0:
64,192,104032,1,0,0:0:0:0:
320,192,104032,128,0,104087:0:0:0:0:
64,192,104143,1,2,0:0:0:0:
192,192,104143,1,4,0:0:0:0:
320,192,104143,1,0,0:0:0:0:
448,192,104143,1,0,0:0:0:0:
192,192,104254,128,0,104309:0:0:0:0:
448,192,104254,1,0,0:0:0:0:
64,192,104365,1,0,0:0:0:0:
320,192,104365,128,0,104420:0:0:0:0:
64,192,104587,1,2,0:0:0:0:
320,192,104587,1,0,0:0:0:0:
448,192,104587,128,0,104643:0:0:0:0:
192,192,104809,128,0,104865:0:0:0:0:
320,192,104809,1,0,0:0:0:0:
64,192,105032,128,2,105087:0:0:0:0:
192,192,105032,1,0,0:0:0:0:
320,192,105032,1,0,0:0:0:0:
448,192,105032,1,0,0:0:0:0:
64,192,105254,1,0,0:0:0:0:
192,192,105254,1,0,0:0:0:0:
320,192,105365,1,0,0:0:0:0:
192,192,105420,1,0,0:0:0:0:
64,192,105476,128,2,105532:0:0:0:0:
320,192,105476,1,0,0:0:0:0:
448,192,105476,1,0,0:0:0:0:
192,192,105698,1,0,0:0:0:0:
320,192,105698,128,0,105754:0:0:0:0:
64,192,105809,128,0,105865:0:0:0:0:
448,192,105809,1,0,0:0:0:0:
64,192,105920,1,2,0:0:0:0:
192,192,105920,1,4,0:0:0:0:
320,192,105920,1,0,0:0:0:0:
448,192,105920,1,0,0:0:0:0:
192,192,106032,1,0,0:0:0:0:
320,192,106032,1,0,0:0:0:0:
64,192,106143,1,0,0:0:0:0:
448,192,106143,1,0,0:0:0:0:
192,192,106254,1,0,0:0:0:0:
448,192,106254,1,0,0:0:0:0:
64,192,106365,1,0,0:0:0:50:LR3_FX PDLR_edit.wav
192,192,106365,1,0,0:0:0:0:
320,192,106365,1,0,0:0:0:0:
320,192,106587,128,0,106643:0:0:0:0:
64,192,106809,128,2,106865:0:0:0:0:
192,192,106809,1,0,0:0:0:0:
448,192,106809,1,0,0:0:0:0:
320,192,107032,1,0,0:0:0:0:
448,192,107032,1,0,0:0:0:0:
64,192,107143,128,2,107198:0:0:0:0:
192,192,107143,1,0,0:0:0:0:
448,192,107143,1,0,0:0:0:0:
192,192,107365,1,0,0:0:0:0:
320,192,107365,1,0,0:0:0:0:
64,192,107476,1,2,0:0:0:0:
192,192,107476,128,0,107532:0:0:0:0:
448,192,107476,1,0,0:0:0:0:
320,192,107698,1,0,0:0:0:0:
448,192,107698,1,0,0:0:0:0:
64,192,107809,128,2,107865:0:0:0:0:
192,192,107809,1,0,0:0:0:0:
448,192,107809,1,0,0:0:0:0:
320,192,108032,1,0,0:0:0:0:
192,192,108087,1,0,0:0:0:0:
64,192,108143,1,2,0:0:0:0:
320,192,108143,128,0,108198:0:0:0:0:
448,192,108143,1,0,0:0:0:0:
64,192,108365,1,2,0:0:0:0:
192,192,108365,1,0,0:0:0:0:
448,192,108365,128,0,108420:0:0:0:0:
192,192,108476,128,0,108532:0:0:0:0:
320,192,108476,1,0,0:0:0:0:
64,192,108587,1,2,0:0:0:0:
320,192,108587,128,0,108643:0:0:0:0:
448,192,108587,1,0,0:0:0:0:
64,192,108809,1,0,0:0:0:0:
192,192,108809,1,0,0:0:0:0:
64,192,108920,1,2,0:0:0:0:
320,192,108920,128,0,108976:0:0:0:0:
448,192,108920,1,0,0:0:0:0:
192,192,109143,1,0,0:0:0:0:
320,192,109143,1,0,0:0:0:0:
64,192,109254,1,2,0:0:0:0:
320,192,109254,1,0,0:0:0:0:
448,192,109254,128,0,109309:0:0:0:0:
64,192,109476,1,0,0:0:0:0:
192,192,109476,1,0,0:0:0:0:
64,192,109587,1,2,0:0:0:0:
320,192,109587,128,0,109643:0:0:0:0:
448,192,109587,1,0,0:0:0:0:
64,192,109809,1,2,0:0:0:0:
320,192,109809,128,0,109865:0:0:0:0:
448,192,109809,1,0,0:0:0:0:
64,192,109920,128,0,110254:0:0:0:70:S_.wav
192,192,109920,1,0,0:0:0:0:
320,192,109920,1,0,0:0:0:0:
448,192,109920,128,0,110254:0:0:0:0:
192,192,110365,128,4,110587:0:0:0:0:
320,192,110365,1,2,0:0:0:0:
448,192,110365,1,0,0:0:0:0:
64,192,110587,128,0,110809:0:0:0:0:
448,192,110587,1,0,0:0:0:0:
192,192,110698,1,0,0:0:0:0:
320,192,110809,128,2,111032:0:0:0:0:
448,192,110809,1,0,0:0:0:70:clap1.wav
64,192,111032,1,0,0:0:0:0:
192,192,111032,1,0,0:0:0:0:
192,192,111143,1,0,0:0:0:0:
448,192,111143,1,0,0:0:0:0:
64,192,111254,128,2,111476:0:0:0:0:
320,192,111254,1,0,0:0:0:0:
448,192,111365,1,0,0:0:0:0:
192,192,111476,128,0,111698:0:0:0:0:
320,192,111476,1,0,0:0:0:0:
320,192,111698,128,2,111920:0:0:0:0:
448,192,111698,1,0,0:0:0:70:clap1.wav
192,192,111809,1,0,0:0:0:0:
64,192,111920,1,0,0:0:0:0:
448,192,111920,128,0,112143:0:0:0:0:
192,192,112143,128,2,112365:0:0:0:0:
320,192,112143,1,0,0:0:0:0:
64,192,112365,1,0,0:0:0:0:
448,192,112365,128,0,112587:0:0:0:0:
192,192,112476,1,0,0:0:0:0:
64,192,112587,1,2,0:0:0:0:
320,192,112587,128,0,112809:0:0:0:70:clap1.wav
64,192,112809,1,0,0:0:0:0:
192,192,112809,1,0,0:0:0:0:
64,192,112920,1,0,0:0:0:0:
320,192,112920,1,0,0:0:0:0:
192,192,113032,128,2,113254:0:0:0:0:
448,192,113032,1,0,0:0:0:0:
320,192,113143,1,0,0:0:0:0:
64,192,113254,1,0,0:0:0:0:
448,192,113254,128,0,113476:0:0:0:0:
64,192,113476,128,2,113698:0:0:0:0:
320,192,113476,1,0,0:0:0:70:clap1.wav
192,192,113587,1,0,0:0:0:0:
320,192,113698,128,0,113920:0:0:0:0:
448,192,113698,1,0,0:0:0:0:
64,192,113920,1,2,0:0:0:0:
192,192,113920,128,0,114143:0:0:0:0:
64,192,114143,128,0,114365:0:0:0:0:
320,192,114143,1,0,0:0:0:0:
192,192,114254,1,0,0:0:0:0:
320,192,114365,128,2,114587:0:0:0:0:
448,192,114365,1,0,0:0:0:70:clap1.wav
64,192,114587,1,0,0:0:0:0:
192,192,114587,1,0,0:0:0:0:
64,192,114698,1,0,0:0:0:0:
320,192,114698,1,0,0:0:0:0:
192,192,114809,1,2,0:0:0:0:
448,192,114809,128,0,115032:0:0:0:0:
64,192,114920,1,0,0:0:0:0:
192,192,115032,1,0,0:0:0:0:
320,192,115032,128,0,115254:0:0:0:0:
64,192,115254,1,2,0:0:0:0:
192,192,115254,128,0,115476:0:0:0:70:clap1.wav
320,192,115365,1,0,0:0:0:0:
64,192,115476,128,0,115698:0:0:0:0:
448,192,115476,1,0,0:0:0:0:
320,192,115698,1,2,0:0:0:0:
448,192,115698,1,0,0:0:0:0:
448,192,115809,1,0,0:0:0:0:
64,192,115920,1,0,0:0:0:0:
320,192,115920,128,0,116143:0:0:0:0:
192,192,116032,1,0,0:0:0:0:
64,192,116143,128,2,116365:0:0:0:0:
448,192,116143,1,0,0:0:0:70:clap1.wav
320,192,116365,1,0,0:0:0:0:
448,192,116365,1,0,0:0:0:0:
192,192,116476,1,0,0:0:0:0:
320,192,116476,1,0,0:0:0:0:
64,192,116587,128,2,116809:0:0:0:0:
448,192,116587,1,0,0:0:0:0:
192,192,116698,1,0,0:0:0:0:
320,192,116809,128,0,117032:0:0:0:0:
448,192,116809,1,0,0:0:0:0:
192,192,117032,1,2,0:0:0:0:
448,192,117032,128,0,117254:0:0:0:70:clap1.wav
64,192,117143,1,0,0:0:0:0:
192,192,117254,128,0,117476:0:0:0:0:
320,192,117254,1,0,0:0:0:0:
64,192,117476,128,0,117587:0:0:0:50:S2.wav
320,192,117476,1,0,0:0:0:0:
448,192,117476,1,0,0:0:0:0:
192,192,117698,1,0,0:0:0:50:S2.wav
320,192,117698,1,0,0:0:0:0:
448,192,117698,1,0,0:0:0:0:
64,192,117809,1,0,0:0:0:0:
320,192,117920,1,0,0:0:0:50:S4.wav
448,192,117920,1,0,0:0:0:30:LR_J Hit Whistle.wav
192,192,118143,1,0,0:0:0:50:S2.wav
320,192,118143,1,0,0:0:0:0:
448,192,118143,1,0,0:0:0:0:
64,192,118254,1,0,0:0:0:50:S2.wav
320,192,118254,1,0,0:0:0:0:
448,192,118254,1,0,0:0:0:0:
192,192,118365,1,0,0:0:0:50:S2.wav
320,192,118365,1,0,0:0:0:0:
448,192,118365,1,0,0:0:0:0:
64,192,118476,1,0,0:0:0:0:
192,192,118587,1,0,0:0:0:50:S2.wav
320,192,118587,1,0,0:0:0:0:
448,192,118587,1,0,0:0:0:0:
64,192,118809,1,0,0:0:0:50:S4.wav
320,192,118809,1,0,0:0:0:30:LR_J Hit Whistle.wav
448,192,118809,1,0,0:0:0:0:
192,192,118920,1,0,0:0:0:0:
64,192,119032,1,0,0:0:0:50:S2.wav
320,192,119032,1,0,0:0:0:0:
448,192,119032,1,0,0:0:0:0:
320,192,119143,1,0,0:0:0:50:S2.wav
448,192,119143,1,0,0:0:0:0:
64,192,119254,1,0,0:0:0:50:S2.wav
192,192,119254,1,0,0:0:0:0:
448,192,119254,128,0,119365:0:0:0:0:
64,192,119476,1,0,0:0:0:50:S2.wav
192,192,119476,1,0,0:0:0:0:
320,192,119476,1,0,0:0:0:0:
448,192,119587,1,0,0:0:0:0:
64,192,119698,1,0,0:0:0:50:S4.wav
192,192,119698,1,0,0:0:0:30:LR_J Hit Whistle.wav
64,192,119920,1,0,0:0:0:50:S2.wav
192,192,119920,1,0,0:0:0:0:
320,192,119920,1,0,0:0:0:0:
64,192,120032,1,0,0:0:0:50:S2.wav
192,192,120032,1,0,0:0:0:0:
448,192,120032,1,0,0:0:0:0:
64,192,120143,1,0,0:0:0:50:S2.wav
192,192,120143,1,0,0:0:0:0:
320,192,120143,1,0,0:0:0:0:
448,192,120254,1,0,0:0:0:0:
64,192,120365,1,0,0:0:0:50:S2.wav
192,192,120365,1,0,0:0:0:0:
320,192,120365,1,0,0:0:0:0:
64,192,120587,1,0,0:0:0:50:S4.wav
192,192,120587,1,0,0:0:0:30:LR_J Hit Whistle.wav
448,192,120587,1,0,0:0:0:0:
320,192,120698,1,0,0:0:0:0:
64,192,120809,1,0,0:0:0:50:S2.wav
192,192,120809,1,0,0:0:0:0:
448,192,120809,1,0,0:0:0:0:
64,192,120920,1,0,0:0:0:50:S2.wav
192,192,120920,1,0,0:0:0:0:
64,192,121032,1,0,0:0:0:50:S4.wav
192,192,121032,1,0,0:0:0:30:LR_J Hit Whistle.wav
320,192,121143,1,0,0:0:0:50:S2.wav
448,192,121143,1,0,0:0:0:0:
64,192,121254,1,0,0:0:0:50:S2.wav
192,192,121254,1,0,0:0:0:0:
64,192,121365,1,0,0:0:0:50:S2.wav
192,192,121365,1,0,0:0:0:0:
320,192,121476,1,0,0:0:0:50:S4.wav
448,192,121476,1,0,0:0:0:30:LR_J Hit Whistle.wav
64,192,121587,1,0,0:0:0:50:S2.wav
192,192,121587,1,0,0:0:0:0:
320,192,121698,1,0,0:0:0:50:S2.wav
448,192,121698,1,0,0:0:0:0:
320,192,121809,1,0,0:0:0:50:S2.wav
448,192,121809,1,0,0:0:0:0:
64,192,121920,1,0,0:0:0:50:S4.wav
192,192,121920,1,0,0:0:0:0:
320,192,121976,1,0,0:0:0:40:S2.wav
448,192,122032,1,0,0:0:0:40:S2.wav
192,192,122087,1,0,0:0:0:40:S2.wav
320,192,122143,1,0,0:0:0:40:S2.wav
64,192,122198,1,0,0:0:0:40:S2.wav
192,192,122254,1,0,0:0:0:40:S2.wav
320,192,122309,1,0,0:0:0:40:S2.wav
64,192,122365,128,0,122698:0:0:0:70:S_.wav
448,192,122365,128,0,122698:0:0:0:0:
192,192,122809,1,0,0:0:0:0:
192,192,122920,1,0,0:0:0:0:
320,192,123032,128,0,123254:0:0:0:0:
192,192,123254,128,0,123476:0:0:0:0:
320,192,123476,1,0,0:0:0:0:
320,192,123587,1,0,0:0:0:0:
192,192,123698,128,0,123809:0:0:0:0:
320,192,123809,128,0,123920:0:0:0:0:
192,192,123920,128,0,124143:0:0:0:0:
64,192,124143,1,0,0:0:0:70:push_scratch.wav
448,192,124143,1,0,0:0:0:0:
