osu file format v14

[General]
AudioFilename: audio.mp3
AudioLeadIn: 0
PreviewTime: 87334
Countdown: 0
SampleSet: Soft
StackLeniency: 0.4
Mode: 0
LetterboxInBreaks: 0
WidescreenStoryboard: 0

[Editor]
DistanceSpacing: 0.6
BeatDivisor: 8
GridSize: 16
TimelineZoom: 2.799999

[Metadata]
Title:NO ONE YES MAN
TitleUnicode:NO ONE YES MAN
Artist:MYUKKE.
ArtistUnicode:MYUKKE.
Creator:captin1
Version:PEACE
Source:Phigros
Tags:skytuna entry aeril risen muse dash electronic instrumental video game
BeatmapID:3448347
BeatmapSetID:1687287

[Difficulty]
HPDrainRate:5
CircleSize:4.2
OverallDifficulty:9
ApproachRate:9.4
SliderMultiplier:2
SliderTickRate:1

[Events]
//Background and Video events
0,0,"82477623_p0.jpg",0,0
//Break Periods
//Storyboard Layer 0 (Background)
//Storyboard Layer 1 (Fail)
//Storyboard Layer 2 (Pass)
//Storyboard Layer 3 (Foreground)
//Storyboard Layer 4 (Overlay)
//Storyboard Sound Samples

[TimingPoints]
2805,352.941176470588,4,2,2,60,1,0
2805,-50,4,2,2,60,0,0
3422,-133.333333333333,4,2,2,60,0,0
5452,-50,4,2,2,60,0,0
6246,-100,4,2,2,60,0,0
6863,-133.333333333333,4,2,1,70,0,0
7216,-50,4,2,1,70,0,0
7393,-40,4,2,1,70,0,0
7569,-66.6666666666667,4,2,1,70,0,0
7746,-33.3333333333333,4,2,1,70,0,0
8099,-500,4,2,1,70,0,0
8628,-50,4,2,1,70,0,0
10216,-66.6666666666667,4,2,1,70,0,0
10393,-50,4,2,1,70,0,0
10746,-66.6666666666667,4,2,1,70,0,0
10922,-100,4,2,1,70,0,0
11452,-66.6666666666667,4,2,1,70,0,0
11628,-50,4,2,1,70,0,0
13040,-66.6666666666667,4,2,1,70,0,0
13216,-50,4,2,1,70,0,0
13393,-40,4,2,1,70,0,0
14628,-50,4,2,1,70,0,0
16216,-40,4,2,1,70,0,0
17452,-66.6666666666667,4,2,1,70,0,0
19393,-133.333333333333,4,2,1,70,0,0
19746,-40,4,2,1,70,0,0
20628,-133.333333333333,4,2,1,70,0,0
20981,-33.3333333333333,4,2,1,70,0,0
21334,-66.6666666666667,4,2,1,70,0,0
21510,-28.5714285714286,4,2,1,70,0,0
21863,-50,4,2,1,70,0,0
22216,-33.3333333333333,4,2,1,70,0,0
22569,-40,4,2,1,70,0,0
23452,-133.333333333333,4,2,1,70,0,0
23804,-33.3333333333333,4,2,1,70,0,0
24157,-66.6666666666667,4,2,1,70,0,0
25393,-40,4,2,1,70,0,0
26275,-133.333333333333,4,2,1,70,0,0
26628,-33.3333333333333,4,2,1,70,0,0
26981,-66.6666666666667,4,2,1,70,0,0
27157,-28.5714285714286,4,2,1,70,0,0
27510,-45.4545454545455,4,2,1,70,0,0
27863,-33.3333333333333,4,2,1,70,0,0
28216,-40,4,2,1,70,0,0
29099,-133.333333333333,4,2,1,70,0,0
29452,-30.3030303030303,4,2,1,70,0,0
29981,-40,4,2,1,70,0,0
30334,-50,4,2,1,70,0,0
31040,-40,4,2,1,70,0,0
33510,-66.6666666666667,4,2,1,70,0,0
33863,-40,4,2,1,70,0,0
34746,-100,4,2,1,70,0,0
35099,-40,4,2,1,70,0,0
36334,-50,4,2,1,70,0,0
36687,-40,4,2,1,70,0,0
39157,-50,4,2,1,70,0,0
39510,-40,4,2,1,70,0,0
40393,-66.6666666666667,4,2,1,70,0,0
40746,-50,4,2,1,70,0,0
41981,-33.3333333333333,4,2,1,70,0,0
42334,-66.6666666666667,4,2,1,70,0,0
44804,-250,4,2,1,70,0,0
45687,-100,4,2,1,70,0,0
46040,-66.6666666666667,4,2,1,70,0,0
50452,-250,4,2,1,70,0,0
51334,-66.6666666666667,4,2,1,70,0,0
52922,-100,4,2,1,70,0,0
53628,-66.6666666666667,4,2,1,70,0,0
55746,-100,4,2,1,70,0,0
56452,-66.6666666666667,4,2,1,70,0,0
58040,-50,4,2,1,70,0,0
58922,-40,4,2,1,70,0,0
59452,-100,4,2,1,70,0,0
64216,-125,4,2,1,70,0,0
64569,-166.666666666667,4,2,1,70,0,0
64922,-166.666666666667,4,2,2,60,0,0
75510,-125,4,2,2,60,0,0
75687,-100,4,2,2,60,0,0
76216,-100,4,2,2,65,0,0
81863,-100,4,2,3,65,0,0
85216,-100,4,2,3,70,0,0
85746,-66.6666666666667,4,2,3,70,0,0
85834,-66.6666666666667,4,2,3,5,0,0
85922,-133.333333333333,4,2,3,70,0,0
87157,-50,4,2,1,70,0,0
87510,-40,4,2,1,80,0,1
89099,-66.6666666666667,4,2,1,80,0,1
89540,-50,4,2,1,80,0,1
89804,-33.3333333333333,4,2,1,80,0,1
90334,-40,4,2,1,80,0,1
91569,-42.5531914893617,4,2,1,80,0,1
92804,-33.3333333333333,4,2,1,80,0,1
93157,-40,4,2,1,80,0,1
94393,-33.3333333333333,4,2,1,80,0,1
94746,-50,4,2,1,80,0,1
95452,-33.3333333333333,4,2,1,80,0,1
95981,-40,4,2,1,80,0,1
97216,-35.7142857142857,4,2,1,80,0,1
97569,-50,4,2,1,80,0,1
98099,-40,4,2,1,80,0,1
100834,-50,4,2,1,80,0,1
101099,-33.3333333333333,4,2,1,80,0,1
101628,-40,4,2,1,80,0,1
104099,-33.3333333333333,4,2,1,80,0,1
104452,-40,4,2,1,80,0,1
105687,-33.3333333333333,4,2,1,80,0,1
106040,-50,4,2,1,80,0,1
106746,-40,4,2,1,80,0,1
108510,-33.3333333333333,4,2,1,80,0,1
109393,-100,4,2,1,80,0,0
109746,-37.037037037037,4,2,1,80,0,0
110099,-40,4,2,1,70,0,0
111334,-33.3333333333333,4,2,1,70,0,0
111687,-40,4,2,1,70,0,0
112393,-133.333333333333,4,2,1,70,0,0
112569,-40,4,2,1,70,0,0
112922,-33.3333333333333,4,2,1,70,0,0
113275,-40,4,2,1,70,0,0
114157,-33.3333333333333,4,2,1,70,0,0
114510,-40,4,2,1,70,0,0
116981,-33.3333333333333,4,2,1,70,0,0
117863,-40,4,2,1,70,0,0
118040,-133.333333333333,4,2,1,70,0,0
118216,-40,4,2,1,70,0,0
118569,-33.3333333333333,4,2,1,70,0,0
118922,-40,4,2,1,70,0,0
119628,-133.333333333333,4,2,1,70,0,0
119804,-40,4,2,1,70,0,0
120687,-50,4,2,1,70,0,0
121393,-40,4,2,1,70,0,0
122628,-41.6666666666667,4,2,1,70,0,0
122981,-41.6666666666667,4,2,1,5,0,0

[Colours]
Combo1 : 213,137,189
Combo2 : 224,71,144
Combo3 : 245,222,231
Combo4 : 133,230,201
Combo5 : 63,114,164
Combo6 : 100,207,200
Combo7 : 207,218,57
Combo8 : 254,249,220

[HitObjects]
7,192,2805,6,0,P|192:232|373:344,1,400,2|10,1:2|2:0,2:0:0:0:
100,351,3334,5,2,2:3:0:0:
86,337,3422,2,0,P|140:321|195:323,1,112.5,8|2,2:0|2:3,2:0:0:0:
259,169,3863,1,2,2:3:0:0:
158,120,4040,1,8,2:0:0:0:
170,106,4128,1,2,2:3:0:0:
168,88,4216,1,0,1:0:0:0:
90,69,4393,5,2,1:2:0:0:
300,10,4569,1,10,2:0:0:0:
470,149,4746,1,2,2:0:0:0:
319,87,4922,6,0,L|328:131,1,37.5000000000001,2|0,1:2|2:0,2:0:0:0:
392,177,5099,1,2,2:3:0:0:
378,189,5187,1,2,2:3:0:0:
382,207,5275,1,10,2:0:0:0:
474,13,5452,6,0,P|428:27|415:94,1,100,10|8,2:0|2:0,2:0:0:0:
226,90,5628,6,0,P|315:106|399:380,1,400,2|10,1:2|2:0,2:0:0:0:
262,271,6157,5,2,2:3:0:0:
251,252,6246,2,0,P|303:236|256:265,1,150,8|2,2:0|2:3,2:0:0:0:
192,360,6687,1,2,2:0:0:0:
51,135,6863,6,0,P|72:172|142:172,1,112.5,6|0,1:2|2:0,2:0:0:0:
90,357,7216,6,0,B|99:313|99:313|105:308|105:308|116:247,1,100,2|0,1:2|2:0,2:0:0:0:
208,119,7393,6,0,P|271:147|267:211,1,125,4|0,1:2|2:0,2:0:0:0:
122,89,7569,6,0,B|116:60|116:60|111:56|111:56|103:17,1,75,0|0,2:0|2:0,2:0:0:0:
223,262,7746,6,0,B|256:158|256:158|253:140|253:140|285:33,1,225,0|0,1:0|2:0,2:0:0:0:
296,40,7922,1,6,2:0:0:0:
435,111,8099,6,0,P|415:113|403:118,1,30,4|0,1:2|2:0,2:0:0:0:
439,188,8452,5,2,1:2:0:0:
324,141,8628,2,0,B|309:106|293:93|293:93|323:111|362:122,1,100,2|0,2:0|2:0,2:0:0:0:
421,282,8804,2,0,B|398:312|394:332|394:332|395:297|385:258,1,100,10|0,2:0|2:0,2:0:0:0:
512,143,8981,6,0,B|435:121|370:197|425:220|349:304|257:266,1,300,2|0,1:2|2:0,2:0:0:0:
221,208,9334,2,0,B|184:234|184:234|197:305,1,100,2|0,1:2|2:0,2:0:0:0:
282,350,9510,1,10,2:0:0:0:
220,130,9687,6,0,B|205:64|150:90|131:16|131:16|97:45|97:45|65:93|89:153,1,300,2|0,1:2|2:0,2:0:0:0:
113,220,10040,1,2,1:2:0:0:
288,60,10216,6,0,P|315:85|364:75,1,75,10|0,2:0|2:0,2:0:0:0:
506,169,10393,2,0,P|456:163|421:211,1,100,2|0,1:2|2:0,2:0:0:0:
241,351,10569,6,0,P|235:301|283:266,1,100,2|0,2:0|2:0,2:0:0:0:
407,28,10746,2,0,P|432:55|422:104,1,75,2|0,1:2|2:0,2:0:0:0:
395,269,10922,6,0,L|332:257,1,50,10|0,2:0|2:0,2:0:0:0:
291,168,11099,2,0,L|354:180,1,50,0|0,1:0|1:0,2:0:0:0:
503,294,11275,5,2,1:2:0:0:
365,375,11452,2,0,P|349:342|315:329,1,75,2|0,2:0|2:0,2:0:0:0:
113,282,11628,2,0,P|159:262|179:215,1,100,10|0,2:0|2:0,2:0:0:0:
288,84,11804,6,0,B|264:46|220:48|220:48|296:138|265:259,1,300,2|0,2:0|2:0,2:0:0:0:
232,337,12157,2,0,P|211:357|231:333,1,100,2|0,1:2|2:0,2:0:0:0:
345,204,12334,1,10,2:0:0:0:
148,105,12510,6,0,B|59:109|99:53|44:37|7:54|7:54|49:132|-15:138|46:209,1,300,2|0,2:0|2:0,2:0:0:0:
104,203,12863,1,2,1:2:0:0:
47,364,13040,6,0,P|18:336|25:283,1,75,10|0,2:0|2:0,2:0:0:0:
178,181,13216,2,0,P|185:233|142:267,1,100,2|0,2:0|2:0,2:0:0:0:
7,54,13393,6,0,B|69:42|69:42|74:35|74:35|148:21,1,125,2|0,2:0|2:0,2:0:0:0:
374,175,13569,2,0,B|311:163|311:163|306:156|306:156|232:142,1,125,2|0,1:2|2:0,2:0:0:0:
210,45,13746,5,10,2:0:0:0:
484,48,13922,5,8,2:0:0:0:
434,114,14010,1,8,2:0:0:0:
354,94,14099,1,2,2:0:0:0:
292,264,14275,6,0,B|258:276|240:303|240:303|264:288|306:280,1,125,2|0,2:0|2:0,2:0:0:0:
460,197,14452,2,0,B|487:220|519:222|519:222|494:209|466:176,1,125,10|0,2:0|2:0,2:0:0:0:
370,336,14628,6,0,B|415:339|446:371|446:371|360:283|377:150,1,300,2|0,2:0|2:0,2:0:0:0:
434,114,14981,1,2,1:2:0:0:
313,20,15157,2,0,P|357:54|350:101,1,100,8|2,2:0|2:0,2:0:0:0:
110,226,15334,6,0,B|171:152|265:184|229:225|331:263|383:161,1,300,2|0,2:0|2:0,2:0:0:0:
275,117,15687,1,2,1:2:0:0:
19,43,15863,6,0,P|16:94|63:135,1,100,10|0,2:0|2:0,2:0:0:0:
157,85,16040,2,0,P|160:34|113:-7,1,100,2|0,2:0|2:0,2:0:0:0:
184,263,16216,6,0,B|186:307|198:321|198:321|176:334|147:382,1,125,2|0,2:0|2:0,2:0:0:0:
0,322,16393,2,0,B|-2:278|-14:264|-14:264|8:251|37:203,1,125,2|0,1:2|2:0,2:0:0:0:
90,306,16569,1,10,2:0:0:0:
266,357,16746,5,8,2:0:0:0:
335,320,16834,1,8,2:0:0:0:
409,337,16922,5,8,2:0:0:0:
424,323,17010,1,8,2:0:0:0:
431,304,17099,1,8,2:0:0:0:
423,272,17187,1,8,2:0:0:0:
392,245,17275,1,8,2:0:0:0:
352,186,17363,1,8,2:0:0:0:
379,109,17452,6,0,P|401:126|410:157,1,37.5,0|0,1:0|1:0,1:0:0:0:
401,95,17540,2,0,P|411:119|410:139,1,37.5,0|0,1:0|1:0,2:0:0:0:
424,96,17628,2,0,P|422:121|402:148,1,37.5,0|0,1:0|1:0,2:0:0:0:
443,108,17716,2,0,P|439:125|416:135,1,37.5,0|0,1:0|1:0,2:0:0:0:
460,126,17804,2,0,P|450:138|425:137,1,37.5,0|0,1:0|1:0,2:0:0:0:
464,149,17893,2,0,P|443:151|420:137,1,37.5,0|0,1:0|2:0,2:0:0:0:
453,170,17981,1,2,0:0:0:0:
512,209,18157,6,0,P|368:176|196:163,1,300,2|2,2:0|2:0,2:0:0:0:
74,137,18687,2,0,P|113:127|152:108,1,75,2|0,2:0|2:0,2:0:0:0:
286,26,18863,1,2,2:0:0:0:
159,33,19040,6,0,P|184:98|208:197,1,150,0|2,2:0|2:0,2:0:0:0:
52,341,19393,6,0,B|40:312|12:301|12:301|42:304|79:287,1,112.5,14|0,1:2|2:0,2:0:0:0:
131,334,19746,6,2,B|264:240|435:281|435:281|409:288|380:330,1,375,6|0,1:0|2:0,2:1:0:0:
463,353,20099,1,8,2:0:0:0:
297,192,20275,5,2,2:3:0:0:
282,197,20363,1,2,2:3:0:0:
313,327,20452,6,0,B|328:249|328:249|336:240|336:240|358:130,1,187.5,2|0,2:0|2:0,2:0:0:0:
348,130,20628,6,0,L|392:116,1,37.5000000000001,0|0,1:0|1:0,2:0:0:0:
100,208,20804,1,8,2:0:0:0:
457,112,20981,6,2,B|496:65|486:9|486:9|470:17|470:17|407:-6|340:34|340:34|347:40|347:40|265:86|175:74,1,450,2|0,1:0|2:0,2:1:0:0:
91,14,21334,2,0,B|65:9|65:9|99:54,1,75,0|0,1:2|2:0,2:0:0:0:
341,142,21510,6,0,P|209:166|79:199,1,262.5,8|0,2:0|2:0,2:0:0:0:
28,141,21687,1,2,2:3:0:0:
44,129,21775,1,2,2:3:0:0:
98,275,21863,6,0,P|50:280|20:243,1,100,2|0,2:0|2:0,2:0:0:0:
190,93,22040,2,0,B|179:138|179:138|173:143|173:143|156:207,1,100,0|0,1:0|1:0,2:0:0:0:
347,363,22216,6,0,B|457:374|457:374|497:376|508:339|507:301|457:298|457:298|346:286|346:286|317:337|244:330,1,450,8|0,2:0|2:0,2:0:0:0:
198,291,22569,6,0,B|189:196|343:133|309:224|466:181|451:76,1,375,6|0,1:2|2:0,2:0:0:0:
390,25,22922,1,8,2:0:0:0:
252,124,23099,5,2,2:3:0:0:
257,107,23187,1,2,2:3:0:0:
153,60,23275,6,0,B|231:75|231:75|240:83|240:83|350:105,1,187.5,2|0,2:0|2:0,2:0:0:0:
350,95,23452,6,0,L|364:139,1,37.5000000000001,0|0,1:0|1:0,2:0:0:0:
85,12,23628,1,8,2:0:0:0:
206,198,23804,6,2,B|257:265|257:265|267:264|267:264|313:321|313:321|223:336|223:336|216:330|216:330|130:345|130:345|155:292|155:292|165:290|165:290|184:244,1,450,2|0,2:1|2:0,2:1:0:0:
136,147,24157,2,0,B|117:192|117:192|138:169,1,75,0|0,1:0|2:0,2:0:0:0:
50,319,24334,1,8,2:0:0:0:
287,184,24510,5,2,2:3:0:0:
357,159,24599,1,2,2:3:0:0:
407,212,24687,1,2,2:3:0:0:
390,285,24775,5,2,2:3:0:0:
382,311,24863,1,2,1:3:0:0:
402,332,24952,1,2,2:3:0:0:
468,286,25040,6,0,L|507:272,2,37.5,10|0|0,2:0|2:0|2:0,2:0:0:0:
306,323,25216,2,0,L|267:337,2,37.5,2|0|0,2:3|2:0|2:0,2:0:0:0:
510,100,25393,6,0,B|428:73|480:37|374:-22|374:-22|388:72|310:53|367:183,1,375,4|0,1:2|2:0,2:0:0:0:
407,212,25746,1,8,2:0:0:0:
278,44,25922,5,2,2:3:0:0:
283,27,26010,1,2,2:3:0:0:
385,121,26099,6,0,B|305:104|305:104|293:92|293:92|183:71,1,187.5,2|0,2:0|2:0,2:0:0:0:
194,92,26275,6,0,L|203:133,1,37.5000000000001,0|0,1:0|1:0,2:0:0:0:
256,355,26452,1,8,2:0:0:0:
123,73,26628,6,2,B|69:-4|69:-4|-23:55|-23:55|10:196|10:196|119:229,1,450,2|0,2:1|2:0,2:1:0:0:
127,214,26981,2,0,L|49:191,1,75,0|0,1:0|2:0,2:0:0:0:
4,298,27157,6,0,P|155:245|268:223,1,262.5,8|0,2:0|2:0,2:0:0:0:
319,274,27334,1,2,2:3:0:0:
309,294,27422,1,2,2:3:0:0:
267,141,27510,6,0,B|315:153|315:153|320:159|320:159|380:173,1,110,2|0,2:0|2:0,2:0:0:0:
484,300,27687,2,0,B|436:312|436:312|431:318|431:318|371:332,1,110,0|0,1:0|1:0,2:0:0:0:
363,90,27863,6,0,B|305:3|305:3|223:27|223:27|265:37|265:37|268:42|268:42|272:39|272:39|394:64|394:64|399:61|399:61|401:66|401:66|478:83,1,450,8|0,2:0|2:0,2:0:0:0:
474,209,28216,6,0,B|368:259|368:259|297:218|297:218|284:154|284:154|207:137|207:137|178:172,1,375,4|0,1:2|2:0,2:0:0:0:
127,214,28569,1,8,2:0:0:0:
255,281,28746,5,2,2:3:0:0:
274,294,28834,1,2,2:3:0:0:
262,182,28922,6,0,B|245:262|245:262|233:274|233:274|212:384,1,187.5,2|0,2:0|2:0,2:0:0:0:
233,376,29099,6,0,L|274:367,1,37.5000000000001,0|0,1:0|2:0,2:0:0:0:
66,267,29275,1,10,3:2:0:0:
370,170,29452,6,2,B|424:163|424:163|428:154|428:154|491:146|491:146|528:213|528:213|452:224|452:224|416:157|416:157|420:148|420:148|390:89|390:89|309:98,1,495.000004720688,2|0,2:1|0:0,0:1:0:0:
284,172,29804,1,0,1:0:0:0:
147,29,29981,6,0,P|191:30|236:97,1,125,8|0,2:0|2:0,2:0:0:0:
495,0,30157,2,0,P|447:10|415:78,1,125,0|0,1:0|2:0,2:0:0:0:
197,192,30334,6,0,P|192:245|247:288,1,100,8|0,2:0|2:0,2:0:0:0:
326,248,30510,2,0,P|332:199|371:170,1,100,0|0,1:0|2:0,2:0:0:0:
476,314,30687,2,0,P|423:309|380:364,1,100,8|0,2:0|2:0,2:0:0:0:
290,348,30863,5,8,2:0:0:0:
273,354,30952,1,8,2:0:0:0:
410,237,31040,6,2,P|231:275|50:363,1,375,6|0,1:0|2:0,2:1:0:0:
10,267,31393,2,0,B|2:288|-16:304|-16:304|13:277|70:266,1,125,8|0,2:0|2:0,2:0:0:0:
150,95,31569,6,2,P|318:176|501:215,1,375,2|0,2:1|2:0,2:1:0:0:
493,118,31922,1,0,1:0:0:0:
474,111,32010,1,0,2:0:0:0:
464,130,32099,1,8,2:0:0:0:
309,330,32275,6,2,B|264:305|264:305|245:210|245:210|279:154|279:154|250:39|250:39|207:23,1,375,2|0,1:0|2:0,2:1:0:0:
50,35,32628,5,2,1:2:0:0:
27,114,32716,1,2,2:0:0:0:
99,161,32804,5,10,2:0:0:0:
122,241,32893,1,2,2:0:0:0:
85,311,32981,5,2,2:0:0:0:
71,303,33069,1,2,2:0:0:0:
56,296,33157,1,2,2:0:0:0:
23,366,33246,5,2,2:0:0:0:
105,333,33334,1,2,1:2:0:0:
187,300,33422,1,2,2:0:0:0:
273,265,33510,6,0,B|325:241|325:241|428:285|428:285|502:252,1,225,8|0,2:0|2:0,2:0:0:0:
512,236,33863,6,0,B|464:209|464:209|360:256|360:256|338:303|338:303|239:348|239:348|189:327,1,375,2|0,1:0|2:0,2:1:0:0:
246,241,34216,2,0,B|232:186|232:186|227:182|227:182|203:96,1,125,8|0,2:0|2:0,2:0:0:0:
14,29,34393,6,2,B|62:2|62:2|166:49|166:49|188:96|188:96|287:141|287:141|337:120,1,375,2|0,1:0|2:0,2:1:0:0:
401,151,34746,6,0,P|411:126|403:99,1,50,2|0,1:2|2:0,2:0:0:0:
351,49,34922,1,8,2:0:0:0:
407,350,35099,6,2,B|356:344|331:298|331:298|400:239|480:209|480:209|453:147|390:151,1,375,2|0,1:0|2:0,2:1:0:0:
323,193,35452,5,2,1:2:0:0:
308,206,35540,1,2,2:0:0:0:
251,257,35628,5,10,2:0:0:0:
186,220,35716,1,2,2:0:0:0:
91,249,35804,5,2,2:0:0:0:
74,337,35893,1,2,2:0:0:0:
168,346,35981,5,2,2:0:0:0:
158,330,36069,1,2,2:0:0:0:
112,258,36157,5,2,1:2:0:0:
128,164,36246,1,2,2:0:0:0:
52,129,36334,6,0,B|18:96|18:96|29:20,1,100,8|0,2:0|2:0,2:0:0:0:
151,8,36510,2,0,B|185:41|185:41|174:117,1,100,2|0,2:0|2:0,2:0:0:0:
0,19,36687,6,2,B|77:31|77:31|129:120|129:120|215:132|215:132|259:87|259:87|327:96,1,375,2|0,1:0|2:0,2:1:0:0:
373,148,37040,2,0,B|410:127|410:127|376:24,1,125,8|0,2:0|2:0,2:0:0:0:
160,273,37216,6,2,B|237:261|237:261|289:172|289:172|375:160|375:160|419:205|419:205|487:196,1,375,2|0,2:1|2:0,2:1:0:0:
511,286,37569,1,0,1:0:0:0:
490,293,37657,1,0,2:0:0:0:
476,275,37746,1,8,2:0:0:0:
100,212,37922,6,2,P|280:265|444:357,1,375,2|0,2:1|2:0,2:1:0:0:
398,270,38275,5,2,1:2:0:0:
306,299,38363,1,2,2:0:0:0:
242,356,38452,5,10,2:0:0:0:
157,325,38540,1,2,2:0:0:0:
76,291,38628,5,2,2:0:0:0:
66,311,38716,1,2,2:0:0:0:
55,333,38804,1,2,2:0:0:0:
82,362,38893,5,2,2:0:0:0:
57,278,38981,1,2,1:2:0:0:
30,196,39069,1,2,2:0:0:0:
94,144,39157,6,0,B|9:28|9:28|17:85|17:85|126:121,1,300,8|0,2:0|2:0,2:0:0:0:
152,44,39510,6,2,P|244:77|245:339,1,375,2|0,1:0|2:0,2:1:0:0:
131,286,39863,2,0,P|144:253|235:268,1,125,8|0,2:0|2:0,2:0:0:0:
492,365,40040,6,2,P|400:332|399:70,1,375,2|0,2:1|2:0,2:1:0:0:
475,115,40393,6,0,B|465:83|465:83|459:78|459:78|446:33,1,75,0|0,1:0|2:0,2:0:0:0:
512,0,40569,1,8,2:0:0:0:
512,215,40746,6,2,B|461:207|461:207|423:228|423:228|321:162|321:162|288:182|288:182|219:168,1,300,2|0,1:0|2:0,2:1:0:0:
219,83,41099,6,2,L|246:42,4,50,2|2|2|2|8,1:3|2:3|2:3|2:3|2:0,2:3:0:0:
167,217,41452,6,0,P|152:243|153:273,1,50,2|0,1:3|2:0,2:0:0:0:
176,289,41540,2,0,P|173:313|159:334,1,50,2|0,2:3|2:0,2:0:0:0:
135,349,41628,6,0,L|119:230,1,100,2|0,2:0|2:0,2:0:0:0:
292,99,41804,2,0,L|305:-1,1,100,0|0,1:0|2:0,2:0:0:0:
166,27,41981,6,0,B|189:162|189:162|183:182|183:182|207:341,1,300,12|2,1:0|1:2,2:0:0:0:
348,366,42246,1,2,1:2:0:0:
359,355,42334,6,0,P|347:294|243:297,1,150,6|2,1:2|2:0,2:0:0:0:
98,72,42687,2,0,P|90:113|110:141,1,75,10|0,2:0|2:0,2:0:0:0:
197,91,42863,2,0,L|170:258,1,150,2|0,2:0|2:0,2:0:0:0:
146,366,43216,1,2,1:2:0:0:
265,165,43393,1,10,2:0:0:0:
40,347,43569,6,0,B|172:328|172:328|211:340|211:340|361:316,1,300,2|2,1:2|1:2,2:0:0:0:
499,384,44099,1,10,2:0:0:0:
359,245,44275,6,0,P|408:248|436:345,1,150,2|0,2:0|2:0,2:0:0:0:
380,381,44628,1,2,1:2:0:0:
379,165,44804,6,0,B|371:140|371:140|365:133|365:133|357:105,1,60,10|2,2:0|2:0,2:0:0:0:
418,44,45157,5,2,1:2:0:0:
280,151,45334,1,2,2:0:0:0:
183,25,45510,1,10,2:0:0:0:
275,181,45687,6,0,L|289:228,1,50,2|0,2:0|2:0,2:0:0:0:
253,332,45863,1,2,2:0:0:0:
252,109,46040,2,0,B|239:173|239:173|228:186|228:186|212:260,1,150,2|8,1:2|2:0,2:0:0:0:
106,370,46393,6,0,B|49:350|32:293|32:293|69:248|49:174,1,225.000008583069,2|0,1:2|2:0,2:0:0:0:
31,173,46746,1,2,1:2:0:0:
132,258,46922,1,10,2:0:0:0:
20,61,47099,2,0,B|54:39|54:39|96:55|96:55|109:126,1,150,2|0,2:0|2:0,2:0:0:0:
70,196,47452,1,2,1:2:0:0:
166,10,47628,6,0,B|211:28|211:28|245:19|245:19|310:48|310:48|342:39|342:39|388:46,1,225,8|0,2:0|2:0,2:0:0:0:
499,35,47981,6,0,P|494:92|391:106,1,150,2|2,1:2|2:0,2:0:0:0:
512,255,48334,2,0,P|487:232|485:188,1,75,10|0,2:0|2:0,2:0:0:0:
350,352,48510,2,0,P|466:347|476:251,1,225,2|0,2:0|2:0,2:0:0:0:
397,205,48863,1,2,1:2:0:0:
277,384,49040,1,10,2:0:0:0:
40,371,49216,6,0,B|219:323|219:323|245:287,1,225,2|0,2:0|2:0,2:0:0:0:
50,272,49569,1,2,1:2:0:0:
247,201,49746,1,10,2:0:0:0:
196,369,49922,2,0,L|222:215,1,150,2|0,2:0|2:0,2:0:0:0:
168,161,50275,1,2,1:2:0:0:
47,37,50452,6,0,B|44:69|44:69|66:92,1,60,10|2,2:0|2:0,2:0:0:0:
139,88,50804,5,2,1:2:0:0:
310,34,50981,1,2,2:0:0:0:
426,170,51157,1,10,2:0:0:0:
247,80,51334,6,0,B|276:198|336:143|362:268,1,225,2|0,1:2|2:0,2:0:0:0:
300,318,51687,2,0,P|264:307|221:301,1,75,2|0,1:2|2:0,2:0:0:0:
442,249,51863,1,10,2:0:0:0:
151,269,52040,6,0,P|214:322|257:381,1,150,2|0,1:2|2:0,2:0:0:0:
455,328,52393,1,2,1:2:0:0:
304,215,52569,5,10,2:0:0:0:
329,124,52746,1,2,2:0:0:0:
463,9,52922,6,0,P|453:33|445:68,1,50,2|0,2:0|2:0,2:0:0:0:
512,207,53099,1,2,1:2:0:0:
356,33,53275,5,10,2:0:0:0:
232,120,53452,1,8,2:0:0:0:
159,99,53540,1,8,2:0:0:0:
85,77,53628,6,0,P|99:147|113:230,1,150,2|2,1:2|2:0,2:0:0:0:
43,351,53981,1,10,2:0:0:0:
227,238,54157,2,0,P|204:131|185:8,1,225,2|0,2:0|2:0,2:0:0:0:
289,66,54510,2,0,P|300:35|323:-2,1,75,2|0,1:2|2:0,2:0:0:0:
403,3,54687,1,10,2:0:0:0:
368,193,54863,6,0,P|396:92|501:93,1,225,0|0,1:2|2:0,2:0:0:0:
445,210,55216,1,2,1:2:0:0:
483,332,55393,1,10,2:0:0:0:
360,271,55569,5,2,2:0:0:0:
350,348,55746,2,0,L|288:339,1,50,2|0,2:0|2:0,2:0:0:0:
179,223,55922,5,2,1:2:0:0:
228,373,56099,1,10,2:0:0:0:
218,256,56275,1,2,2:0:0:0:
0,281,56452,6,0,L|152:303,1,150,0|2,1:0|2:0,2:0:0:0:
154,313,56716,1,2,2:0:0:0:
159,321,56804,1,10,2:0:0:0:
295,160,56981,5,2,2:0:0:0:
102,219,57157,1,2,2:0:0:0:
17,52,57334,1,2,1:2:0:0:
104,79,57510,1,10,2:0:0:0:
281,300,57687,6,0,B|232:120|232:120|182:104,1,225,2|0,1:2|2:0,2:0:0:0:
370,18,58040,6,0,B|402:-17|402:-17|253:34,1,200,2|10,1:2|2:0,2:0:0:0:
166,2,58393,1,2,2:0:0:0:
282,168,58569,6,0,B|322:161|322:161|332:153|332:153|388:142,1,100,10|0,2:0|2:0,2:0:0:0:
417,79,58746,2,0,B|457:86|457:86|467:94|467:94|523:105,1,100,0|0,1:0|2:0,2:0:0:0:
319,71,58922,2,0,P|416:141|413:261,1,250,8|0,2:0|1:0,2:0:0:0:
347,324,59187,1,0,1:0:0:0:
347,324,59275,1,2,1:2:0:0:
277,248,59452,6,0,L|263:306,1,50,2|0,2:0|2:0,2:0:0:0:
421,298,59628,2,0,L|435:356,1,50,2|0,2:0|2:0,2:0:0:0:
197,167,59981,6,0,P|173:150|147:149,1,50,10|0,2:0|2:0,2:0:0:0:
254,117,60157,2,0,P|243:89|222:74,1,50,0|0,2:0|2:0,2:0:0:0:
319,71,60334,2,0,P|325:42|316:17,1,50,2|0,2:0|2:0,2:0:0:0:
154,75,60510,6,0,P|197:110|272:215,1,175,2|0,1:2|2:0,2:0:0:0:
253,223,60863,2,0,L|243:286,1,50,2|0,2:0|2:0,2:0:0:0:
186,346,61040,1,2,1:2:0:0:
103,316,61216,1,2,2:0:0:0:
410,213,61393,6,0,P|366:234|322:267,1,100,10|2,2:0|2:0,2:0:0:0:
108,228,61746,2,0,P|116:202|119:176,1,50,2|0,1:2|2:0,2:0:0:0:
46,148,61922,2,0,P|35:123|16:99,1,50,0|0,2:0|2:0,2:0:0:0:
130,7,62099,6,0,P|148:20|181:31,1,50,2|0,1:2|2:0,2:0:0:0:
306,33,62275,2,0,P|284:42|259:65,1,50,2|0,2:0|2:0,2:0:0:0:
195,172,62452,2,0,P|197:149|190:115,1,50,2|0,2:0|2:0,2:0:0:0:
197,126,62804,6,0,P|202:151|200:176,1,50,10|0,2:0|2:0,2:0:0:0:
269,63,62981,2,0,P|288:47|311:37,1,50,2|0,2:0|2:0,2:0:0:0:
178,33,63157,2,0,P|155:25|135:11,1,50,2|0,2:0|2:0,2:0:0:0:
292,160,63334,6,0,P|362:132|454:119,1,150,2|0,1:2|2:0,2:0:0:0:
505,159,63687,1,2,2:0:0:0:
310,291,63863,6,0,P|334:250|369:212,1,100,2|0,1:2|2:0,2:0:0:0:
220,316,64216,6,0,P|224:278|238:239,1,80,10|0,2:0|2:0,2:0:0:0:
143,359,64569,6,0,P|134:329|132:296,1,59.9999999999999,2|0,1:2|2:0,2:0:0:0:
47,297,64922,5,0,1:0:0:0:
115,18,65275,1,8,2:0:0:0:
45,65,65452,1,2,2:3:0:0:
49,79,65540,1,8,2:0:0:0:
53,93,65628,1,2,2:3:0:0:
95,218,65804,1,2,2:3:0:0:
98,203,65893,1,0,2:0:0:0:
101,188,65981,1,2,2:3:0:0:
104,173,66069,1,2,2:3:0:0:
108,158,66157,1,8,2:0:0:0:
181,214,66334,5,2,2:3:0:0:
163,299,66510,1,0,1:0:0:0:
147,384,66687,1,8,2:0:0:0:
255,298,66863,1,8,2:0:0:0:
251,284,66952,1,8,2:0:0:0:
247,270,67040,1,0,1:0:0:0:
326,231,67216,1,0,1:0:0:0:
272,106,67393,1,2,2:3:0:0:
269,121,67481,1,8,2:0:0:0:
266,136,67569,1,2,2:3:0:0:
263,151,67657,1,8,2:0:0:0:
259,166,67746,1,0,1:0:0:0:
191,103,67922,5,0,1:0:0:0:
207,21,68099,1,8,2:0:0:0:
348,82,68275,1,8,2:0:0:0:
352,68,68363,1,8,2:0:0:0:
356,54,68452,1,0,1:0:0:0:
397,179,68628,1,2,2:3:0:0:
400,194,68716,1,8,2:0:0:0:
403,209,68804,1,2,2:3:0:0:
406,224,68893,1,8,2:0:0:0:
410,239,68981,1,2,2:3:0:0:
452,315,69157,5,2,2:3:0:0:
371,378,69334,1,0,1:0:0:0:
332,300,69510,1,8,2:0:0:0:
284,193,69687,1,8,2:0:0:0:
288,207,69775,1,8,2:0:0:0:
292,221,69863,1,0,1:0:0:0:
388,163,70040,1,0,1:0:0:0:
481,116,70216,1,2,2:3:0:0:
484,101,70304,1,8,2:0:0:0:
487,86,70393,1,2,2:3:0:0:
490,71,70481,1,8,2:0:0:0:
494,56,70569,1,0,1:0:0:0:
411,12,70746,5,2,2:3:0:0:
323,105,70922,1,8,2:0:0:0:
228,60,71099,1,8,2:0:0:0:
242,56,71187,1,8,2:0:0:0:
256,52,71275,1,0,1:0:0:0:
145,16,71452,1,2,2:3:0:0:
130,13,71540,1,8,2:0:0:0:
115,10,71628,1,2,2:3:0:0:
100,7,71716,1,8,2:0:0:0:
85,3,71804,1,2,2:3:0:0:
15,69,71981,5,2,2:3:0:0:
64,213,72157,1,0,1:0:0:0:
127,153,72334,1,8,2:0:0:0:
215,175,72510,1,8,2:0:0:0:
229,179,72599,1,8,2:0:0:0:
243,183,72687,1,0,1:0:0:0:
294,261,72863,1,0,1:0:0:0:
345,124,73040,1,2,2:3:0:0:
360,121,73128,1,8,2:0:0:0:
375,118,73216,1,2,2:3:0:0:
390,115,73304,1,8,2:0:0:0:
405,111,73393,1,0,1:0:0:0:
379,216,73569,5,0,1:0:0:0:
489,242,73746,1,8,2:0:0:0:
406,337,73922,1,2,2:3:0:0:
392,333,74010,1,2,2:3:0:0:
378,329,74099,1,8,2:0:0:0:
202,286,74275,1,2,2:3:0:0:
187,289,74363,1,8,2:0:0:0:
172,292,74452,1,2,2:3:0:0:
157,295,74540,1,8,2:0:0:0:
142,299,74628,6,0,P|111:279|112:192,1,120,2|0,2:3|1:0,2:0:0:0:
53,338,75157,2,0,P|32:354|29:366,1,29.9999999999999,8|0,2:0|2:0,2:0:0:0:
185,188,75334,1,8,2:0:0:0:
197,180,75422,1,8,2:0:0:0:
209,172,75510,2,0,L|217:122,1,40,0|0,2:0|2:0,2:0:0:0:
67,98,75687,2,0,L|54:31,1,50,0|0,1:0|2:0,2:0:0:0:
147,85,75863,5,8,2:3:0:0:
299,46,76040,1,8,2:3:0:0:
351,146,76216,6,0,P|423:146|466:77,1,150,6|0,1:2|2:0,2:0:0:0:
424,26,76569,1,10,2:0:0:0:
323,230,76746,6,0,P|251:230|208:161,1,150,2|0,1:2|2:0,2:0:0:0:
250,110,77099,1,2,2:0:0:0:
399,261,77275,2,0,L|384:324,1,50,10|2,2:0|2:3,2:0:0:0:
491,326,77452,6,0,P|419:326|376:395,1,150,2|0,1:2|2:0,2:0:0:0:
307,320,77804,5,2,2:0:0:0:
147,378,77981,1,10,2:0:0:0:
20,266,78157,1,2,2:0:0:0:
220,357,78334,5,2,2:0:0:0:
226,332,78422,1,0,2:0:0:0:
232,307,78510,1,2,1:2:0:0:
105,207,78687,2,0,L|95:150,1,50,2|8,2:3|2:0,2:0:0:0:
145,87,78863,2,0,L|135:30,1,50,2|8,2:3|2:0,2:0:0:0:
191,151,79040,6,0,P|128:125|34:103,1,150,2|0,1:2|2:0,2:0:0:0:
0,159,79393,1,10,2:0:0:0:
227,81,79569,6,0,P|290:107|384:129,1,150,2|0,2:0|2:0,2:0:0:0:
418,73,79922,1,2,1:2:0:0:
242,247,80099,2,0,L|254:191,1,50,10|0,2:0|2:0,2:0:0:0:
220,371,80275,6,0,P|202:298|174:228,1,150,2|0,2:0|2:0,2:0:0:0:
297,294,80628,5,2,1:2:0:0:
320,286,80716,1,0,2:0:0:0:
343,278,80804,1,10,2:0:0:0:
409,359,80981,1,2,2:0:0:0:
505,199,81157,1,2,2:0:0:0:
422,283,81334,1,2,1:2:0:0:
354,125,81510,1,10,2:0:0:0:
245,191,81687,5,2,2:0:0:0:
220,186,81775,1,0,2:0:0:0:
195,181,81863,1,2,1:2:0:0:
130,241,82040,1,0,1:0:0:0:
51,220,82216,1,2,1:2:0:0:
82,2,82393,5,2,1:2:0:0:
100,75,82569,1,0,1:0:0:0:
120,147,82746,1,2,1:2:0:0:
66,308,82922,5,2,1:2:0:0:
146,351,83099,1,2,1:2:0:0:
170,346,83187,1,0,1:0:0:0:
194,342,83275,1,0,1:0:0:0:
245,257,83452,5,2,1:2:0:0:
357,285,83628,1,2,1:2:0:0:
470,308,83804,1,2,1:2:0:0:
442,79,83981,5,2,1:2:0:0:
375,130,84157,1,2,1:2:0:0:
388,214,84334,1,2,1:2:0:0:
457,163,84510,2,0,L|503:182,1,50,2|0,1:2|1:0,2:0:0:0:
346,52,84687,5,2,1:2:0:0:
312,53,84775,1,0,1:0:0:0:
294,74,84863,1,0,1:0:0:0:
283,124,84952,1,0,1:0:0:0:
232,178,85040,1,2,1:2:0:0:
149,165,85128,1,0,1:0:0:0:
113,90,85216,6,0,P|125:84|149:85,10,25,2|0|2|0|2|0|0|0|0|0|0,2:3|2:0|2:3|2:0|2:0|2:0|2:0|2:0|2:0|2:0|2:0,2:0:0:0:
234,19,85746,6,0,B|224:53|224:53|218:58|218:58|205:106,1,75,2|0,2:0|2:0,2:0:0:0:
69,154,85922,6,0,P|115:198|162:286,1,150,0|2,2:0|2:0,2:0:0:0:
98,321,86363,1,2,2:0:0:0:
83,315,86452,1,2,2:0:0:0:
191,372,86628,6,0,B|214:297|254:327|274:250,1,150,2|2,2:0|2:0,2:0:0:0:
220,187,87069,1,2,2:0:0:0:
208,211,87157,6,0,P|350:235|512:294,1,300,10|0,1:0|2:0,2:0:0:0:
511,373,87510,6,0,B|480:364|451:383|451:383|446:350|410:327,1,125,4|0,1:0|2:0,2:0:0:0:
424,78,87687,1,2,3:0:0:0:
440,146,87775,1,2,3:0:0:0:
455,216,87863,2,0,P|415:226|321:270,1,125,8|0,2:0|2:0,2:0:0:0:
88,300,88040,6,0,B|69:257|28:244|28:244|192:243|297:361,1,375,4|0,1:2|2:0,2:0:0:0:
396,352,88393,5,0,1:0:0:0:
391,369,88481,1,0,2:0:0:0:
318,273,88569,2,0,B|333:214|333:214|342:205|342:205|361:129,1,125,8|0,2:0|2:0,2:0:0:0:
240,0,88746,6,0,B|291:66|291:66|272:143|272:143|179:191|179:191|119:98,1,375,4|0,1:2|2:0,2:0:0:0:
98,97,89099,2,0,L|150:180,1,75,0|0,1:0|2:0,2:0:0:0:
159,341,89275,5,10,2:0:0:0:
159,341,89363,1,2,2:0:0:0:
105,278,89452,1,2,1:2:0:0:
33,316,89540,2,0,B|121:303|121:303|138:291|138:291|250:274,1,200,2|0,1:2|2:0,2:0:0:0:
366,344,89804,6,0,B|391:374|391:374|275:339,1,150,0|0,1:0|2:0,2:0:0:0:
272,204,89981,5,8,2:0:0:0:
339,151,90069,1,0,2:0:0:0:
416,190,90157,5,0,1:0:0:0:
442,177,90246,1,0,1:0:0:0:
507,145,90334,6,0,B|490:91|490:91|481:80|481:80|460:19,1,125,4|0,1:2|2:0,2:0:0:0:
323,67,90510,1,2,3:0:0:0:
299,138,90599,1,2,3:0:0:0:
272,204,90687,2,0,P|350:239|408:278,1,125,8|0,2:0|2:0,2:0:0:0:
399,75,90863,6,0,P|369:220|161:242,1,375,4|0,1:2|2:0,2:0:0:0:
78,131,91216,5,0,1:0:0:0:
69,107,91304,1,0,2:0:0:0:
140,176,91393,2,0,B|128:236|128:236|119:245|119:245|108:298,1,125,8|0,2:0|2:0,2:0:0:0:
28,40,91569,6,0,P|89:104|212:358,1,352.5,4|0,1:2|2:0,2:0:0:0:
50,363,91922,5,2,1:2:0:0:
30,347,92010,1,2,2:0:0:0:
85,287,92099,1,10,2:0:0:0:
170,314,92187,1,2,2:0:0:0:
238,378,92275,5,2,1:2:0:0:
320,304,92363,1,2,2:0:0:0:
297,199,92452,6,0,P|244:216|241:271,1,117.5,8|0,2:0|2:0,2:0:0:0:
398,275,92628,2,0,P|448:300|448:356,1,117.5,0|0,1:0|2:0,2:0:0:0:
342,382,92804,6,0,L|399:55,1,300,8|8,2:0|2:0,2:0:0:0:
485,8,93069,1,8,2:0:0:0:
512,102,93157,6,0,P|492:149|407:144,1,125,4|0,1:2|2:0,2:0:0:0:
276,10,93334,1,2,2:3:0:0:
204,31,93422,1,2,2:3:0:0:
133,50,93510,2,0,B|77:36|77:36|68:25|68:25|16:13,1,125,8|0,2:0|2:0,2:0:0:0:
219,228,93687,6,0,B|303:247|303:247|255:93|255:93|151:181,1,375,4|0,1:2|2:0,2:0:0:0:
185,300,94040,5,0,1:0:0:0:
189,323,94128,1,0,2:0:0:0:
70,246,94216,2,0,B|57:205|57:205|149:261,1,125,8|0,2:0|2:0,2:0:0:0:
456,335,94393,6,0,B|512:306|522:245|522:245|342:232|234:383,1,450,4|0,1:2|2:0,2:0:0:0:
107,376,94746,6,0,B|88:356|88:356|117:274,1,100,0|0,1:0|2:0,2:0:0:0:
247,152,94922,2,0,B|266:172|266:172|237:254,1,100,8|0,2:0|2:0,2:0:0:0:
33,142,95099,5,2,2:3:0:0:
33,142,95187,1,2,2:3:0:0:
76,71,95275,1,2,1:3:0:0:
16,13,95363,1,2,2:3:0:0:
86,93,95452,6,0,B|150:107|150:107|159:119|159:119|238:135,1,150,0|0,2:0|2:0,2:0:0:0:
503,8,95628,2,0,B|438:22|438:22|429:34|429:34|351:50,1,150,8|0,2:0|2:0,2:0:0:0:
224,18,95804,5,0,1:0:0:0:
286,82,95893,1,0,1:0:0:0:
351,149,95981,6,0,P|293:191|307:263,1,125,4|0,1:2|2:0,2:0:0:0:
428,366,96157,1,2,2:3:0:0:
459,297,96246,1,2,2:3:0:0:
486,227,96334,2,0,B|432:241|432:241|426:249|426:249|368:263,1,125,8|0,2:0|2:0,2:0:0:0:
11,345,96510,6,0,B|48:314|48:314|162:337|162:337|179:355|179:355|315:380|315:380|358:341,1,375,4|0,1:2|2:0,2:0:0:0:
159,225,96863,5,0,1:0:0:0:
136,231,96952,1,0,2:0:0:0:
229,290,97040,2,0,B|245:231|245:231|243:220|243:220|264:143,1,125,8|0,2:0|2:0,2:0:0:0:
54,0,97216,6,0,B|-51:82|48:226|178:177|178:177|179:130|199:104|253:93,1,420,4|0,1:2|2:0,2:0:0:0:
127,68,97569,6,0,P|100:96|130:73,1,100,10|2,2:0|2:0,2:0:0:0:
257,169,97746,5,2,1:2:0:0:
341,207,97834,1,2,2:0:0:0:
411,140,97922,1,10,2:0:0:0:
389,127,98010,1,2,2:0:0:0:
304,107,98099,6,0,B|336:172|353:134|387:223,1,125,2|0,1:3|2:0,2:0:0:0:
509,34,98275,2,0,B|436:29|461:62|386:50,1,125,8|0,2:0|2:0,2:0:0:0:
504,132,98452,5,0,1:0:0:0:
465,197,98540,1,0,1:0:0:0:
440,244,98628,1,0,1:0:0:0:
422,286,98716,1,0,1:0:0:0:
416,323,98804,6,0,P|400:254|370:188,1,125,4|0,1:0|2:0,2:0:0:0:
218,225,98981,1,2,2:3:0:0:
242,301,99069,1,2,2:3:0:0:
266,374,99157,2,0,B|283:313|283:313|292:302|292:302|307:243,1,125,8|0,2:0|2:0,2:0:0:0:
215,20,99334,6,0,B|118:130|86:297|86:297|112:265|155:253,1,375,4|0,1:2|2:0,2:0:0:0:
287,134,99687,1,0,1:0:0:0:
294,114,99775,1,0,2:0:0:0:
218,225,99863,2,0,B|234:201|234:201|204:92,1,125,8|0,2:0|2:0,2:0:0:0:
110,19,100040,6,0,B|0:32|-21:163|-21:163|62:122|64:186|141:113,1,375,4|0,1:2|2:0,2:0:0:0:
156,336,100393,2,0,B|216:324|216:324|220:316|220:316|282:301,1,125,0|0,1:0|2:0,2:0:0:0:
395,184,100569,5,10,2:0:0:0:
395,184,100657,1,2,2:0:0:0:
463,229,100746,1,2,1:2:0:0:
511,163,100834,2,0,B|350:210|350:210|319:259,1,200,2|0,1:2|2:0,2:0:0:0:
329,371,101099,6,0,P|408:333|395:265,1,150,0|0,1:0|2:0,2:0:0:0:
253,217,101275,5,8,2:0:0:0:
216,124,101363,1,0,2:0:0:0:
281,58,101452,5,0,1:0:0:0:
285,25,101540,1,0,1:0:0:0:
374,16,101628,6,0,P|316:24|251:41,1,125,4|0,1:2|2:0,2:0:0:0:
83,210,101804,1,2,2:3:0:0:
43,147,101893,1,2,2:3:0:0:
11,81,101981,2,0,B|68:94|68:94|73:102|73:102|129:116,1,125,8|0,2:0|2:0,2:0:0:0:
294,297,102157,6,0,P|340:184|151:45,1,375,4|0,1:2|2:0,2:0:0:0:
359,92,102510,5,0,1:0:0:0:
382,98,102599,1,0,2:0:0:0:
302,146,102687,2,0,P|242:164|178:194,1,125,8|0,2:0|2:0,2:0:0:0:
139,347,102863,6,0,B|71:283|71:283|386:365,1,375,4|0,1:2|2:0,2:0:0:0:
438,376,103216,5,2,1:2:0:0:
460,354,103304,1,2,2:0:0:0:
458,266,103393,1,10,2:0:0:0:
367,278,103481,1,2,2:0:0:0:
291,228,103569,5,2,1:2:0:0:
299,126,103657,1,2,2:0:0:0:
401,88,103746,6,0,P|401:155|350:178,1,125,8|0,2:0|2:0,2:0:0:0:
251,309,103922,2,0,P|200:278|205:218,1,125,0|0,1:0|2:0,2:0:0:0:
484,68,104099,6,0,P|359:54|182:12,1,300,8|8,2:0|2:0,2:0:0:0:
118,138,104363,1,8,2:0:0:0:
32,69,104452,6,0,B|63:50|63:50|148:134,1,125,4|0,1:2|2:0,2:0:0:0:
98,313,104628,1,2,2:3:0:0:
55,248,104716,1,2,2:3:0:0:
12,188,104804,2,0,B|74:200|74:200|79:207|79:207|147:220,1,125,8|0,2:0|2:0,2:0:0:0:
271,370,104981,6,0,B|351:300|351:300|285:212|285:212|199:280|199:280|241:332,1,375,4|0,1:2|2:0,2:0:0:0:
441,318,105334,5,0,1:0:0:0:
449,298,105422,1,0,2:0:0:0:
371,384,105510,2,0,B|350:293|350:293|376:252,1,125,8|0,2:0|2:0,2:0:0:0:
512,0,105687,6,0,B|440:-11|378:23|378:23|397:34|397:34|382:112|432:167|432:167|445:166|445:166|440:239|342:277,1,450.000017166138,4|0,1:2|2:0,2:0:0:0:
294,200,106040,2,0,B|265:179|265:179|346:201,1,100,0|0,1:0|2:0,2:0:0:0:
506,92,106216,2,0,B|535:71|535:71|454:93,1,100,8|0,2:0|2:0,2:0:0:0:
220,35,106393,5,2,1:3:0:0:
220,35,106481,1,2,2:3:0:0:
166,105,106569,1,10,3:2:0:0:
84,73,106657,1,2,2:3:0:0:
199,108,106746,6,0,B|186:172|186:172|179:177|179:177|165:249,1,125,2|0,2:0|2:0,2:0:0:0:
29,384,106922,2,0,B|16:320|16:320|9:315|9:315|-5:243,1,125,8|0,2:0|2:0,2:0:0:0:
39,157,107099,5,0,1:0:0:0:
87,246,107187,1,0,1:0:0:0:
127,337,107275,6,0,B|209:345|170:374|262:379,1,125,4|0,1:2|2:0,2:0:0:0:
448,377,107452,1,2,2:3:0:0:
403,321,107540,1,2,2:3:0:0:
362,260,107628,2,0,P|305:282|239:298,1,125,8|0,2:0|2:0,2:0:0:0:
467,248,107804,6,0,P|382:280|201:88,1,375,4|0,1:2|2:0,2:0:0:0:
359,35,108157,5,0,1:0:0:0:
368,12,108246,1,0,2:0:0:0:
267,15,108334,2,0,B|284:71|284:71|280:81|280:81|299:143,1,125,8|0,2:0|2:0,2:0:0:0:
403,321,108510,6,0,B|351:328|305:384|305:384|423:238|436:55,1,450,4|0,1:2|2:0,2:0:0:0:
83,24,108863,6,0,P|83:63|106:106,1,75.0000000000001,2|0,1:2|2:0,2:0:0:0:
133,79,108952,2,0,P|147:113|147:150,1,75.0000000000001,2|0,2:0|2:0,2:0:0:0:
112,154,109040,6,0,B|112:231|112:231|153:301,1,150,10|0,2:0|2:0,2:0:0:0:
487,361,109216,6,0,P|495:322|483:274,1,75.0000000000001,2|0,1:2|2:0,2:0:0:0:
509,283,109304,2,0,P|487:249|444:224,1,75.0000000000001,2|0,2:0|2:0,2:0:0:0:
469,212,109393,6,0,B|456:182|432:182|432:182|413:215|369:217|369:217|384:207|390:188,1,150,10|0,2:0|2:0,2:0:0:0:
8,250,109746,6,0,P|215:264|415:326,1,405,10|0,1:2|2:0,2:0:0:0:
378,123,110099,6,2,B|303:126|254:88|254:88|339:202|319:342,1,375,6|0,1:2|2:0,2:1:0:0:
250,356,110452,2,0,B|189:327|189:327|224:375,1,125,8|0,2:0|2:0,2:0:0:0:
450,164,110628,5,2,2:3:0:0:
472,172,110716,1,2,2:3:0:0:
385,226,110804,2,0,B|329:238|329:238|321:244|321:244|245:259,1,125,2|0,1:2|2:0,2:0:0:0:
87,284,110981,5,2,2:0:0:0:
87,284,111069,1,2,2:0:0:0:
100,370,111157,1,8,2:0:0:0:
170,79,111334,6,2,P|142:228|100:370,1,300,2|0,2:0|1:0,2:1:0:0:
254,280,111599,1,2,2:0:0:0:
264,255,111687,2,0,P|222:269|210:351,1,125,2|0,2:0|2:0,2:0:0:0:
10,106,111863,2,0,P|52:120|64:202,1,125,10|0,2:0|2:0,2:0:0:0:
245,165,112040,5,2,2:3:0:0:
322,136,112128,1,2,2:3:0:0:
398,105,112216,6,0,B|310:87|310:87|307:92|307:92|206:71,1,187.5,2|0,1:2|2:0,2:0:0:0:
197,87,112393,6,0,L|187:39,1,37.5000000000001,2|0,2:0|2:0,2:0:0:0:
332,336,112569,6,0,B|420:318|420:318|423:323|423:323|524:302,1,187.5,10|0,2:0|2:0,2:0:0:0:
475,330,112746,5,0,1:0:0:0:
411,288,112834,1,0,1:0:0:0:
421,182,112922,6,2,B|389:134|402:78|434:25|505:2|550:57|567:108|546:174|502:218|453:206|453:206|471:218|474:268,1,450,4|0,1:2|2:0,2:1:0:0:
348,244,113275,6,0,B|313:259|313:259|288:364,1,125,10|0,2:0|2:0,2:0:0:0:
30,338,113452,5,2,2:3:0:0:
102,321,113540,1,2,2:3:0:0:
174,304,113628,2,0,L|312:350,1,125,2|0,1:2|2:0,2:0:0:0:
317,106,113804,6,0,B|333:136|333:136|241:106,1,125,2|0,2:0|2:0,2:0:0:0:
194,34,113981,2,0,P|149:73|174:149,1,125,8|0,2:0|2:0,2:0:0:0:
14,213,114157,6,2,B|-17:172|-6:118|-6:118|63:144|63:144|90:215|168:235,1,300,2|0,2:0|1:0,2:1:0:0:
226,202,114422,1,2,2:0:0:0:
226,202,114510,2,0,B|259:256|259:256|236:198,1,125,2|0,2:0|2:0,2:0:0:0:
55,19,114687,2,0,B|4:33|4:33|71:58,1,125,8|0,2:0|2:0,2:0:0:0:
286,25,114863,5,2,2:0:0:0:
367,8,114952,1,2,2:0:0:0:
418,74,115040,1,2,1:2:0:0:
389,153,115128,5,2,2:0:0:0:
396,182,115216,1,2,2:0:0:0:
401,210,115304,1,2,2:0:0:0:
469,269,115393,6,0,L|485:194,2,62.5,10|0|2,2:0|2:0|2:0,2:0:0:0:
297,118,115569,2,0,L|313:193,2,62.5,2|0|2,2:0|2:0|2:0,2:0:0:0:
480,23,115746,6,2,B|384:115|360:296|360:296|374:256|409:230,1,375,6|0,1:2|2:0,2:1:0:0:
428,334,116099,6,0,P|368:330|328:385,1,125,8|0,2:0|2:0,2:0:0:0:
180,250,116275,5,2,2:3:0:0:
189,231,116363,1,2,2:3:0:0:
284,297,116452,2,0,B|232:312|232:312|225:321|225:321|159:339,1,125,0|0,1:2|2:0,2:0:0:0:
49,384,116628,6,0,B|21:362|21:362|76:280,1,125,2|2,2:0|2:0,2:0:0:0:
234,137,116804,2,0,B|262:159|262:159|207:241,1,125,8|0,2:0|2:0,2:0:0:0:
83,88,116981,6,2,B|41:132|41:132|-15:135|-15:135|67:143|67:143|132:224,1,300,2|0,2:0|1:0,2:1:0:0:
274,67,117246,1,2,2:0:0:0:
274,67,117334,2,0,B|215:100|215:100|196:133|196:133|137:121,1,150,2|0,2:0|2:0,2:0:0:0:
28,4,117510,2,0,P|90:59|161:26,1,150,8|0,2:0|2:0,2:0:0:0:
358,82,117687,5,2,2:3:0:0:
427,58,117775,1,2,2:3:0:0:
497,34,117863,2,0,B|470:111|470:111|459:120|459:120|427:219,1,187.5,0|0,1:0|2:0,2:0:0:0:
458,220,118040,6,0,L|505:209,1,37.5000000000001,2|0,2:0|2:0,2:0:0:0:
403,378,118216,6,0,B|376:301|376:301|365:291|365:291|333:193,1,187.5,8|0,2:0|2:0,2:0:0:0:
362,178,118393,5,0,1:0:0:0:
324,270,118481,1,0,1:0:0:0:
196,359,118569,6,2,B|110:340|110:340|72:331|45:283|88:240|129:248|129:248|242:272|242:272|240:330|296:352,1,450,4|0,1:2|2:0,2:1:0:0:
506,306,118922,2,0,B|453:320|453:320|442:315|442:315|365:332,1,125,8|0,2:0|2:0,2:0:0:0:
160,176,119099,5,2,2:3:0:0:
153,153,119187,1,2,2:3:0:0:
253,138,119275,2,0,B|233:227|233:227|191:253,1,125,2|0,1:2|2:0,2:0:0:0:
22,130,119452,6,0,P|79:60|169:65,1,187.5,2|0,2:0|2:0,2:0:0:0:
193,85,119628,6,0,L|204:34,1,37.5000000000001,10|2,2:0|2:3,2:0:0:0:
318,210,119804,6,2,B|422:181|374:146|484:126|484:126|389:57|405:141|300:62,1,375,6|0,1:2|2:0,2:1:0:0:
267,6,120157,1,0,1:0:0:0:
90,193,120334,6,0,P|34:236|50:298,1,125,10|0,2:0|2:0,2:0:0:0:
386,274,120510,2,0,P|442:317|426:379,1,125,2|0,2:0|2:0,2:0:0:0:
116,266,120687,6,0,B|160:252|160:252|167:253|167:253|231:233,1,100,10|0,2:0|2:0,2:0:0:0:
351,350,120863,2,0,B|316:318|316:318|314:312|314:312|264:266,1,100,2|0,1:2|2:0,2:0:0:0:
307,105,121040,2,0,B|297:150|297:150|292:155|292:155|278:221,1,100,10|0,2:0|2:0,2:0:0:0:
210,322,121216,5,10,2:0:0:0:
206,343,121304,1,8,2:0:0:0:
362,261,121393,6,0,P|283:294|113:385,1,250,12|0,2:0|1:0,2:0:0:0:
62,361,121657,1,0,1:0:0:0:
66,349,121746,1,0,1:0:0:0:
12,96,121922,6,0,P|91:129|261:220,1,250,12|0,2:0|1:0,2:0:0:0:
312,196,122187,1,0,1:0:0:0:
308,184,122275,1,0,1:0:0:0:
486,45,122452,6,0,P|454:102|394:98,1,125,12|0,2:0|2:0,2:0:0:0:
190,90,122628,6,0,P|407:154|409:382,1,480,6|0,1:2|2:0,2:0:0:0:
