osu file format v14

[General]
AudioFilename: audio.mp3
AudioLeadIn: 0
PreviewTime: 87334
Countdown: 0
SampleSet: Soft
StackLeniency: 0.4
Mode: 0
LetterboxInBreaks: 0
WidescreenStoryboard: 1

[Editor]
DistanceSpacing: 0.6
BeatDivisor: 8
GridSize: 16
TimelineZoom: 2.799999

[Metadata]
Title:NO ONE YES MAN
TitleUnicode:NO ONE YES MAN
Artist:MYUKKE.
ArtistUnicode:MYUKKE.
Creator:captin1
Version:INSANE
Source:Phigros
Tags:skytuna entry aeril risen muse dash electronic instrumental video game
BeatmapID:3598925
BeatmapSetID:1687287

[Difficulty]
HPDrainRate:5
CircleSize:4
OverallDifficulty:7.5
ApproachRate:8.7
SliderMultiplier:2
SliderTickRate:1

[Events]
//Background and Video events
0,0,"82477623_p0.jpg",0,0
//Break Periods
2,65122,73983
//Storyboard Layer 0 (Background)
//Storyboard Layer 1 (Fail)
//Storyboard Layer 2 (Pass)
//Storyboard Layer 3 (Foreground)
//Storyboard Layer 4 (Overlay)
//Storyboard Sound Samples

[TimingPoints]
2805,352.941176470588,4,2,2,60,1,0
3334,-133.333333333333,4,2,2,60,0,0
5628,-100,4,2,2,60,0,0
6157,-133.333333333333,4,2,2,60,0,0
6863,-100,4,2,1,70,0,0
8099,-200,4,2,1,70,0,0
8452,-100,4,2,1,70,0,0
18157,-133.333333333333,4,2,1,70,0,0
19393,-200,4,2,1,70,0,0
19746,-83.3333333333333,4,2,1,70,0,0
20628,-100,4,2,1,70,0,0
22569,-83.3333333333333,4,2,1,70,0,0
23099,-100,4,2,1,70,0,0
25393,-83.3333333333333,4,2,1,70,0,0
26275,-100,4,2,1,70,0,0
28216,-83.3333333333333,4,2,1,70,0,0
28746,-100,4,2,1,70,0,0
42334,-133.333333333333,4,2,1,70,0,0
64922,-133.333333333333,4,2,2,60,0,0
76216,-133.333333333333,4,2,2,65,0,0
81863,-133.333333333333,4,2,3,65,0,0
85216,-133.333333333333,4,2,3,70,0,0
85834,-133.333333333333,4,2,3,5,0,0
85922,-200,4,2,3,70,0,0
87157,-200,4,2,1,70,0,0
87510,-83.3333333333333,4,2,1,80,0,1
109393,-100,4,2,1,80,0,0
109746,-200,4,2,1,80,0,0
110099,-83.3333333333333,4,2,1,70,0,0
122981,-83.3333333333333,4,2,1,5,0,0

[Colours]
Combo1 : 213,137,189
Combo2 : 224,71,144
Combo3 : 245,222,231
Combo4 : 133,230,201
Combo5 : 63,114,164
Combo6 : 100,207,200
Combo7 : 207,218,57
Combo8 : 254,249,220

[HitObjects]
226,341,2805,6,0,L|251:140,1,200,2|10,1:2|2:0,2:0:0:0:
118,246,3334,1,2,2:3:0:0:
138,254,3422,1,8,2:0:0:0:
158,263,3510,2,0,L|136:169,1,75.0000028610231,0|2,0:0|2:3,0:0:0:0:
310,85,3863,1,2,2:3:0:0:
61,54,4040,6,0,B|118:103|118:103|198:86,1,150.000005722046,8|2,2:0|1:2,0:0:0:0:
287,277,4569,1,10,2:0:0:0:
374,251,4746,1,2,2:0:0:0:
407,340,4922,1,2,1:2:0:0:
383,234,5099,1,2,2:3:0:0:
277,263,5275,1,10,2:0:0:0:
399,216,5452,6,0,L|391:169,1,37.5000014305115,10|8,2:0|2:0,2:0:0:0:
484,187,5628,6,0,L|277:158,1,200,2|10,1:2|2:0,2:0:0:0:
438,58,6157,1,2,2:3:0:0:
459,66,6246,1,8,2:0:0:0:
479,74,6334,2,0,L|397:97,1,75.0000028610231,0|2,0:0|2:3,0:0:0:0:
217,207,6687,1,2,2:0:0:0:
159,376,6863,6,0,P|90:325|101:249,1,150,6|0,1:2|2:0,2:0:0:0:
135,197,7216,2,0,L|114:126,1,50,2|0,1:2|2:0,2:0:0:0:
176,51,7393,5,4,1:2:0:0:
9,259,7569,1,0,2:0:0:0:
194,304,7746,2,0,L|218:199,1,100,0|6,1:0|2:0,2:0:0:0:
23,23,8099,6,0,L|43:99,1,75,4|0,1:2|2:0,2:0:0:0:
29,123,8452,5,2,1:2:0:0:
161,32,8628,1,2,2:0:0:0:
241,131,8804,1,10,2:0:0:0:
463,129,8981,6,0,B|343:114|408:57|240:54,1,200,2|2,1:2|1:2,2:0:0:0:
440,44,9510,1,10,2:0:0:0:
324,156,9687,2,0,P|290:201|300:246,1,100,2|0,1:2|0:0,2:0:0:0:
407,356,10040,5,2,1:2:0:0:
385,260,10216,1,10,2:0:0:0:
490,302,10393,5,2,1:2:0:0:
321,334,10569,1,2,2:0:0:0:
166,364,10746,1,2,1:2:0:0:
303,315,10922,6,0,L|187:294,1,100,10|0,2:0|1:0,2:0:0:0:
28,353,11275,5,2,1:2:0:0:
116,287,11452,1,2,2:0:0:0:
81,160,11628,1,10,2:0:0:0:
160,24,11804,6,0,B|138:57|138:57|169:177|169:177|143:216,1,200,2|2,2:0|1:2,2:0:0:0:
237,124,12334,1,10,2:0:0:0:
60,87,12510,2,0,B|28:51|28:51|37:0,1,100,2|0,2:0|0:0,2:0:0:0:
188,60,12863,5,2,1:2:0:0:
270,29,13040,1,10,2:0:0:0:
498,124,13216,5,2,2:0:0:0:
328,95,13393,1,2,2:0:0:0:
478,143,13569,1,2,1:2:0:0:
393,47,13746,6,0,L|408:157,1,100,10|8,2:0|2:0,0:0:0:0:
457,320,14010,1,8,2:0:0:0:
481,316,14099,6,0,L|500:209,1,100,2|2,2:0|2:0,0:0:0:0:
385,364,14452,1,10,2:0:0:0:
194,337,14628,6,0,B|257:271|257:271|378:287,1,200,2|2,2:0|1:2,2:0:0:0:
287,353,15157,1,8,2:0:0:0:
261,191,15334,2,0,L|148:236,1,100,2|0,2:0|0:0,2:0:0:0:
85,148,15687,5,2,1:2:0:0:
165,115,15863,1,10,2:0:0:0:
374,214,16040,5,2,2:0:0:0:
227,174,16216,1,2,2:0:0:0:
76,129,16393,1,2,1:2:0:0:
228,26,16569,5,10,2:0:0:0:
287,97,16746,1,8,2:0:0:0:
287,97,16834,1,8,2:0:0:0:
287,97,16922,2,0,L|344:84,3,50,8|8|8|8,2:0|2:0|2:0|2:0,0:0:0:0:
424,37,17275,5,8,2:0:0:0:
424,37,17363,1,8,2:0:0:0:
424,37,17452,2,0,L|382:28,12,25,0|0|0|0|0|0|0|0|0|0|0|0|2,1:0|1:0|1:0|1:0|1:0|1:0|1:0|1:0|1:0|1:0|1:0|2:0|0:0,1:0:0:0:
473,178,18157,6,0,L|511:1,1,150.000005722046,2|2,2:0|2:0,2:0:0:0:
389,164,18687,1,2,2:0:0:0:
487,269,18863,2,0,L|505:363,1,75.0000028610231,2|0,2:0|2:0,0:0:0:0:
408,319,19216,5,2,2:0:0:0:
325,349,19393,2,0,L|243:332,1,75,14|0,1:2|2:0,2:0:0:0:
190,383,19746,6,2,B|163:324|163:324|229:222|229:222|204:167,1,239.999992675782,6|8,1:0|2:0,2:1:0:0:
293,168,20275,1,2,2:3:0:0:
304,134,20363,1,2,2:3:0:0:
316,99,20452,1,2,2:0:0:0:
200,4,20628,2,0,B|214:50|214:50|219:51|219:51|238:112,1,100,0|8,1:0|2:0,2:0:0:0:
512,66,20981,6,2,P|447:91|359:-13,1,200,2|0,1:0|1:2,2:1:0:0:
243,72,21510,1,8,2:0:0:0:
125,25,21687,1,2,2:3:0:0:
125,25,21775,1,2,2:3:0:0:
125,25,21863,1,2,2:0:0:0:
256,86,22040,1,0,1:0:0:0:
161,153,22216,6,0,L|192:310,1,150,8|0,2:0|2:0,2:0:0:0:
255,341,22569,6,0,B|198:264|96:267|96:267|112:291|118:324,1,239.999992675781,6|8,1:2|2:0,2:0:0:0:
15,376,23099,1,2,2:3:0:0:
12,346,23187,1,2,2:3:0:0:
28,321,23275,1,2,2:0:0:0:
102,236,23452,2,0,P|87:186|60:133,1,100,0|8,1:0|2:0,2:0:0:0:
176,39,23804,6,2,B|76:16|76:16|-9:87,1,200,2|0,2:1|1:0,2:1:0:0:
176,123,24334,1,8,2:0:0:0:
270,16,24510,5,2,2:3:0:0:
300,18,24599,1,2,2:3:0:0:
322,37,24687,1,2,2:3:0:0:
334,64,24775,1,2,2:3:0:0:
327,93,24863,2,0,L|314:142,1,50,2|2,1:3|2:3,0:0:0:0:
256,213,25040,2,0,P|302:168|356:178,1,100,10|2,2:0|2:3,2:0:0:0:
480,10,25393,6,0,B|493:62|493:62|409:170|409:170|425:225,1,239.999992675781,4|8,1:2|2:0,2:0:0:0:
431,353,25922,1,2,2:3:0:0:
456,328,26010,1,2,2:3:0:0:
491,321,26099,1,2,2:0:0:0:
512,221,26275,2,0,B|485:212|485:212|417:242,1,100,0|8,1:0|2:0,2:0:0:0:
286,333,26628,6,2,P|189:352|124:281,1,200,2|0,2:1|1:0,2:1:0:0:
186,224,27157,1,8,2:0:0:0:
133,76,27334,1,2,2:3:0:0:
133,76,27422,1,2,2:3:0:0:
133,76,27510,1,2,2:0:0:0:
199,189,27687,1,0,1:0:0:0:
37,269,27863,6,0,L|65:115,1,150,8|0,2:0|2:0,2:0:0:0:
27,46,28216,6,0,B|77:61|108:113|108:113|114:34|166:-6,1,239.999992675781,4|8,1:2|2:0,2:0:0:0:
257,127,28746,1,2,2:3:0:0:
286,120,28834,1,2,2:3:0:0:
315,114,28922,1,2,2:0:0:0:
386,61,29099,2,0,P|345:22|298:27,1,100,0|10,1:0|3:2,2:0:0:0:
178,145,29452,6,2,L|399:180,1,200,2|0,2:1|1:0,0:1:0:0:
411,313,29981,5,8,2:0:0:0:
297,291,30157,1,0,1:0:0:0:
386,205,30334,1,8,2:0:0:0:
500,227,30510,1,0,1:0:0:0:
417,329,30687,5,8,2:0:0:0:
366,192,30863,1,8,2:0:0:0:
372,162,30952,1,8,2:0:0:0:
378,132,31040,6,2,B|434:100|434:100|488:257,1,200,6|8,1:0|2:0,2:1:0:0:
305,331,31569,2,2,B|249:363|249:363|195:206,1,200,2|0,2:1|1:0,2:1:0:0:
441,309,32099,5,8,2:0:0:0:
279,206,32275,2,2,L|304:88,1,100,2|0,1:0|0:0,2:1:0:0:
205,12,32628,1,2,1:2:0:0:
175,16,32716,1,2,2:0:0:0:
150,33,32804,1,10,2:0:0:0:
139,61,32893,1,2,2:0:0:0:
143,90,32981,2,0,L|177:137,1,50,2|2,2:0|2:0,0:0:0:0:
85,219,33157,2,0,L|109:154,3,50,2|2|2|2,2:0|2:0|1:2|2:0,0:0:0:0:
27,130,33510,2,0,B|8:111|8:111|32:42,1,100,8|0,2:0|0:0,2:0:0:0:
174,227,33863,6,0,P|220:232|250:375,1,200,2|8,1:0|2:0,2:1:0:0:
460,363,34393,2,2,P|414:358|384:215,1,200,2|2,1:0|1:2,2:1:0:0:
456,221,34922,1,8,2:0:0:0:
321,67,35099,2,2,B|303:89|303:89|326:180,1,100,2|0,1:0|0:0,2:1:0:0:
410,95,35452,5,2,1:2:0:0:
496,121,35628,1,10,2:0:0:0:
392,6,35804,5,2,2:0:0:0:
235,54,35981,1,2,2:0:0:0:
152,11,36157,1,2,1:2:0:0:
152,11,36246,1,2,2:0:0:0:
152,11,36334,2,0,L|134:132,1,100,8|2,2:0|2:0,2:0:0:0:
87,291,36687,6,2,L|42:76,1,200,2|8,1:0|2:0,2:1:0:0:
0,284,37216,2,2,B|40:271|65:242|65:242|121:246|184:296,1,200,2|0,2:1|1:0,2:1:0:0:
230,360,37746,1,8,2:0:0:0:
380,342,37922,2,2,B|371:300|371:300|364:293|364:293|353:237,1,100,2|0,2:1|0:0,2:1:0:0:
248,206,38275,5,2,1:2:0:0:
256,177,38363,1,2,2:0:0:0:
280,159,38452,1,10,2:0:0:0:
309,153,38540,1,2,2:0:0:0:
338,156,38628,2,0,L|392:172,1,50,2|2,2:0|2:0,0:0:0:0:
490,224,38804,2,0,L|430:241,3,50,2|2|2|2,2:0|2:0|1:2|2:0,0:0:0:0:
464,145,39157,2,0,P|417:137|395:85,1,100,8|0,2:0|0:0,2:0:0:0:
491,18,39510,6,2,B|459:-1|459:-1|269:45,1,200,2|8,1:0|2:0,2:1:0:0:
132,134,40040,2,2,B|164:153|164:153|354:107,1,200,2|0,2:1|1:0,2:1:0:0:
165,58,40569,1,8,2:0:0:0:
305,194,40746,2,2,L|193:174,1,100,2|0,1:0|0:0,2:1:0:0:
55,92,41099,6,2,L|12:104,4,25,2|2|2|2|8,1:3|2:3|2:3|2:3|2:0,2:3:0:0:
112,209,41452,1,2,1:3:0:0:
112,209,41540,1,2,2:3:0:0:
112,209,41628,1,2,2:0:0:0:
34,273,41804,1,0,1:0:0:0:
143,352,41981,2,0,B|159:331|159:331|244:311,1,100,12|2,1:0|1:2,2:0:0:0:
367,258,42246,1,2,1:2:0:0:
379,279,42334,6,0,L|277:259,1,75.0000028610231,6|2,1:2|2:0,2:0:0:0:
310,359,42687,1,10,2:0:0:0:
228,223,42863,2,0,P|243:176|253:47,1,150.000005722046,2|2,2:0|1:2,2:0:0:0:
469,36,43393,1,10,2:0:0:0:
385,0,43569,6,0,P|391:74|411:146,1,150.000005722046,2|2,1:2|1:2,2:0:0:0:
347,214,44099,1,10,2:0:0:0:
497,173,44275,2,0,B|488:211|488:211|483:213|483:213|472:253,1,75.0000028610231,2|0,2:0|2:0,2:0:0:0:
358,348,44628,1,2,1:2:0:0:
503,351,44804,2,0,P|484:297|423:282,1,112.500004291535,10|2,2:0|2:0,2:0:0:0:
404,284,45157,1,2,1:2:0:0:
280,343,45334,5,2,2:0:0:0:
214,267,45510,2,0,L|126:287,1,75.0000028610231,10|2,2:0|2:0,0:0:0:0:
101,178,45863,1,2,2:0:0:0:
19,220,46040,2,0,L|107:200,1,75.0000028610231,2|8,1:2|2:0,2:0:0:0:
186,124,46393,2,0,P|194:84|199:34,1,75.0000028610231,2|0,1:2|0:0,2:0:0:0:
304,2,46746,6,0,P|296:42|291:92,1,75.0000028610231,2|10,1:2|2:0,0:0:0:0:
92,119,47099,2,0,P|156:134|173:226,1,150.000005722046,2|2,2:0|1:2,2:0:0:0:
352,358,47628,2,0,B|338:319|338:319|277:283|277:283|263:237,1,150.000005722046,8|2,2:0|1:2,2:0:0:0:
305,145,48157,5,2,2:0:0:0:
398,169,48334,1,10,2:0:0:0:
512,47,48510,2,0,P|454:72|364:90,1,150.000005722046,2|2,2:0|1:2,2:0:0:0:
406,307,49040,1,10,2:0:0:0:
350,239,49216,6,0,P|292:214|202:196,1,150.000005722046,2|2,2:0|1:2,2:0:0:0:
114,51,49746,1,10,2:0:0:0:
28,106,49922,2,0,P|61:99|117:74,1,75.0000028610231,2|0,2:0|2:0,2:0:0:0:
315,69,50275,1,2,1:2:0:0:
222,31,50452,2,0,P|203:72|191:116,1,75.0000028610231,10|0,2:0|0:0,2:0:0:0:
50,190,50804,5,2,1:2:0:0:
69,277,50981,1,2,2:0:0:0:
89,363,51157,1,10,2:0:0:0:
0,296,51334,6,0,L|163:326,1,150.000005722046,2|2,1:2|1:2,2:0:0:0:
218,261,51863,1,10,2:0:0:0:
333,380,52040,2,0,L|496:350,1,150.000005722046,2|2,1:2|1:2,2:0:0:0:
394,323,52569,5,10,2:0:0:0:
308,289,52746,1,2,2:0:0:0:
447,198,52922,2,0,B|439:164|439:164|434:161|434:161|425:117,1,75.0000028610231,2|2,2:0|1:2,2:0:0:0:
383,3,53275,2,0,P|362:44|348:86,1,75.0000028610231,10|8,2:0|2:0,0:0:0:0:
352,158,53540,1,8,2:0:0:0:
352,158,53628,6,0,P|317:180|293:205,1,75.0000028610231,2|2,1:2|2:0,2:0:0:0:
375,247,53981,1,10,2:0:0:0:
257,363,54157,2,0,P|232:317|203:208,1,150.000005722046,2|2,2:0|1:2,2:0:0:0:
262,140,54687,1,10,2:0:0:0:
161,21,54863,2,0,L|127:182,1,150.000005722046,0|2,1:2|1:2,2:0:0:0:
102,257,55393,5,10,2:0:0:0:
23,204,55569,1,2,2:0:0:0:
30,109,55746,2,0,P|69:102|116:87,1,75.0000028610231,2|2,2:0|1:2,2:0:0:0:
309,60,56099,2,0,P|269:53|223:38,1,75.0000028610231,10|2,2:0|2:0,0:0:0:0:
190,144,56452,6,0,L|202:231,1,75.0000028610231,0|2,1:0|2:0,2:0:0:0:
225,240,56716,1,2,2:0:0:0:
225,240,56804,1,10,2:0:0:0:
113,347,56981,1,2,2:0:0:0:
113,347,57157,2,0,P|76:331|31:319,2,75.0000028610231,2|2|10,2:0|1:2|2:0,0:0:0:0:
308,277,57687,6,0,P|375:313|477:342,1,150.000005722046,2|2,1:2|1:2,2:0:0:0:
260,349,58216,2,0,P|225:360|191:376,1,75.0000028610231,10|2,2:0|2:0,0:0:0:0:
432,247,58569,1,10,2:0:0:0:
461,166,58746,1,0,1:0:0:0:
492,86,58922,1,8,2:0:0:0:
401,79,59099,1,0,1:0:0:0:
401,79,59187,1,0,1:0:0:0:
401,79,59275,6,0,L|383:6,2,75.0000028610231,2|2|2,1:2|2:0|2:0,0:0:0:0:
233,22,59981,2,0,L|308:43,2,75.0000028610231,10|0|2,2:0|2:0|2:0,2:0:0:0:
89,148,60510,2,0,L|253:111,1,150.000005722046,2|2,1:2|2:0,2:0:0:0:
39,75,61040,2,0,L|102:33,1,75.0000028610231,2|2,1:2|2:0,0:0:0:0:
238,208,61393,1,10,2:0:0:0:
219,233,61746,2,0,L|239:319,1,75.0000028610231,2|0,1:2|2:0,2:0:0:0:
402,339,62099,6,0,L|317:363,2,75.0000028610231,2|2|2,1:2|2:0|2:0,2:0:0:0:
150,300,62804,2,0,L|233:321,2,75.0000028610231,10|2|2,2:0|2:0|2:0,2:0:0:0:
355,267,63334,2,0,L|391:86,1,150.000005722046,2|2,1:2|2:0,2:0:0:0:
512,20,63863,2,0,L|434:50,1,75.0000028610231,2|0,1:2|2:0,2:0:0:0:
304,71,64216,2,0,L|284:171,1,75.0000028610231,10|0,2:0|2:0,2:0:0:0:
445,247,64569,2,0,L|465:147,1,75.0000028610231,2|0,1:2|2:0,2:0:0:0:
277,51,64922,5,0,1:0:0:0:
183,281,74628,6,0,P|258:273|355:247,1,150.000005722046,2|0,2:3|1:0,2:0:0:0:
444,348,75157,2,0,P|403:335|357:327,1,75.0000028610231,8|8,2:0|2:0,2:0:0:0:
261,195,75510,1,0,2:0:0:0:
267,175,75687,1,0,1:0:0:0:
414,232,75863,5,8,2:3:0:0:
463,145,76040,1,8,2:3:0:0:
350,157,76216,6,0,B|334:111|334:111|326:108|326:108|307:48,1,112.500004291535,6|0,1:2|0:0,2:0:0:0:
281,41,76569,1,10,2:0:0:0:
163,174,76746,2,0,B|178:219|178:219|186:222|186:222|205:282,1,112.500004291535,2|0,1:2|0:0,2:0:0:0:
211,312,77099,1,2,2:0:0:0:
201,328,77187,1,0,0:0:0:0:
191,344,77275,1,10,2:0:0:0:
404,323,77452,6,0,P|372:273|273:276,1,150.000005722046,2|2,1:2|2:0,2:0:0:0:
282,344,77981,1,10,2:0:0:0:
119,301,78157,1,2,2:0:0:0:
257,360,78334,2,0,L|154:375,1,75.0000028610231,2|2,2:0|1:2,0:0:0:0:
54,245,78687,1,2,2:3:0:0:
60,223,78775,1,8,2:0:0:0:
66,201,78863,1,2,2:3:0:0:
72,179,78952,1,8,2:0:0:0:
78,157,79040,6,0,B|199:128|199:128|232:151,1,150.000005722046,2|10,1:2|2:0,2:0:0:0:
360,210,79569,2,0,B|239:239|239:239|206:216,1,150.000005722046,2|2,2:0|1:2,2:0:0:0:
209,241,80010,1,0,0:0:0:0:
200,257,80099,1,10,2:0:0:0:
299,109,80275,6,0,P|283:76|249:63,1,75.0000028610231,2|0,2:0|0:0,2:0:0:0:
23,50,80628,1,2,1:2:0:0:
97,69,80804,1,10,2:0:0:0:
172,86,80981,1,2,2:0:0:0:
333,15,81157,2,0,B|370:22|370:22|374:26|374:26|418:35,1,75.0000028610231,2|2,2:0|1:2,0:0:0:0:
483,134,81510,1,10,2:0:0:0:
460,129,81599,1,0,0:0:0:0:
438,133,81687,1,2,2:0:0:0:
419,145,81775,1,0,2:0:0:0:
406,163,81863,6,0,L|427:265,1,75.0000028610231,2|0,1:2|1:0,0:0:0:0:
280,323,82216,1,2,1:2:0:0:
369,358,82393,2,0,L|348:256,1,75.0000028610231,2|0,1:2|1:0,0:0:0:0:
236,218,82746,1,2,1:2:0:0:
253,126,82922,1,2,1:2:0:0:
271,41,83099,1,2,1:2:0:0:
271,41,83187,1,0,1:0:0:0:
271,41,83275,6,0,L|176:61,1,75.0000028610231,0|2,1:0|1:2,0:0:0:0:
16,31,83628,1,2,1:2:0:0:
99,93,83804,1,2,1:2:0:0:
104,195,83981,2,0,P|92:235|84:281,1,75.0000028610231,2|2,1:2|1:2,0:0:0:0:
144,346,84334,1,2,1:2:0:0:
239,322,84510,5,2,1:2:0:0:
261,301,84599,1,0,1:0:0:0:
267,271,84687,1,2,1:2:0:0:
259,242,84775,1,0,1:0:0:0:
239,219,84863,1,0,1:0:0:0:
211,207,84952,1,0,1:0:0:0:
181,212,85040,2,0,L|169:260,1,37.5000014305115,2|0,1:2|1:0,0:0:0:0:
126,351,85216,6,0,L|152:343,12,18.7500007152558,2|0|2|0|2|0|0|0|0|0|0|0|2,2:3|2:0|2:3|2:0|2:0|2:0|2:0|2:0|2:0|2:0|2:0|0:0|2:0,2:0:0:0:
261,301,85922,6,0,L|369:318,1,100,0|2,2:0|2:0,2:0:0:0:
377,306,86363,1,2,2:0:0:0:
394,296,86452,1,2,2:0:0:0:
314,188,86628,2,0,P|324:205|337:240,1,50,2|0,2:0|0:0,2:0:0:0:
488,362,86981,5,2,2:0:0:0:
484,342,87069,1,2,2:0:0:0:
480,322,87157,2,0,L|497:242,1,75,10|0,1:0|2:0,2:0:0:0:
367,129,87510,6,0,P|399:75|463:76,1,119.999996337891,4|2,1:0|3:0,2:0:0:0:
507,175,87775,2,0,B|474:175|474:175|454:149,1,59.9999981689454,2|8,3:0|2:0,0:0:0:0:
313,30,88040,2,0,P|259:47|182:58,1,119.999996337891,4|0,1:2|0:0,2:0:0:0:
22,38,88393,1,0,1:0:0:0:
57,42,88481,1,0,2:0:0:0:
80,68,88569,1,8,2:0:0:0:
63,316,88746,6,0,L|29:133,1,179.999994506836,4|0,1:2|2:0,2:0:0:0:
113,160,89099,1,0,1:0:0:0:
136,265,89275,1,10,2:0:0:0:
165,244,89363,1,2,2:0:0:0:
199,234,89452,1,2,1:2:0:0:
234,234,89540,2,0,L|350:262,1,119.999996337891,2|0,1:2|2:0,2:0:0:0:
383,241,89804,1,0,1:0:0:0:
502,326,89981,5,8,2:0:0:0:
466,318,90069,1,0,2:0:0:0:
430,322,90158,1,0,1:0:0:0:
398,339,90246,1,0,1:0:0:0:
372,364,90334,6,0,B|300:372|300:372|248:337,1,119.999996337891,4|2,1:2|3:0,2:0:0:0:
173,378,90599,2,0,L|192:314,1,59.9999981689454,2|8,3:0|2:0,0:0:0:0:
322,175,90863,2,0,B|300:110|266:139|245:57,1,119.999996337891,4|0,1:2|0:0,2:0:0:0:
381,17,91216,1,0,1:0:0:0:
345,24,91304,1,0,2:0:0:0:
331,57,91392,1,8,2:0:0:0:
239,196,91569,2,0,L|112:175,1,119.999996337891,4|0,1:2|0:0,2:0:0:0:
62,92,91922,1,2,1:2:0:0:
56,74,92010,1,2,2:0:0:0:
22,58,92099,5,10,2:0:0:0:
40,20,92187,1,2,2:0:0:0:
77,1,92275,1,2,1:2:0:0:
118,2,92363,1,2,2:0:0:0:
153,31,92452,1,8,2:0:0:0:
76,170,92628,1,0,1:0:0:0:
172,235,92804,2,0,B|158:290|158:290|151:295|151:295|133:371,1,119.999996337891,8|8,2:0|2:0,2:0:0:0:
235,328,93069,1,8,2:0:0:0:
223,342,93157,6,0,L|346:321,1,119.999996337891,4|2,1:2|2:3,2:0:0:0:
437,299,93422,2,0,B|416:322|416:322|416:359,1,59.9999981689454,2|8,2:3|2:0,0:0:0:0:
332,141,93687,2,0,B|374:183|374:183|370:255,1,119.999996337891,4|0,1:2|0:0,2:0:0:0:
494,81,94040,1,0,1:0:0:0:
467,113,94128,1,0,2:0:0:0:
425,108,94216,1,8,2:0:0:0:
173,115,94393,6,0,P|200:52|310:57,1,179.999994506836,4|0,1:2|2:0,2:0:0:0:
335,124,94746,1,0,1:0:0:0:
293,256,94922,1,8,2:0:0:0:
218,205,95099,1,2,2:3:0:0:
195,232,95187,1,2,2:3:0:0:
181,265,95275,1,2,1:3:0:0:
174,300,95363,1,2,2:3:0:0:
174,300,95452,2,0,P|122:315|62:352,1,119.999996337891,0|8,2:0|2:0,2:0:0:0:
110,227,95804,5,0,1:0:0:0:
101,191,95893,1,0,1:0:0:0:
93,155,95981,2,0,L|113:11,1,119.999996337891,4|2,1:2|2:3,2:0:0:0:
13,12,96246,2,0,L|26:76,1,59.9999981689454,2|8,2:3|2:0,0:0:0:0:
254,62,96510,2,0,P|220:84|163:154,1,119.999996337891,4|0,1:2|0:0,2:0:0:0:
331,40,96863,1,0,1:0:0:0:
352,69,96952,1,0,2:0:0:0:
387,75,97040,1,8,2:0:0:0:
295,263,97216,6,0,B|282:208|282:208|276:204|276:204|262:145,1,119.999996337891,4|0,1:2|0:0,2:0:0:0:
475,42,97569,5,10,2:0:0:0:
468,77,97657,1,2,2:0:0:0:
461,112,97746,1,2,1:2:0:0:
454,147,97834,1,2,2:0:0:0:
448,182,97922,1,10,2:0:0:0:
442,217,98010,1,2,2:0:0:0:
436,252,98099,1,2,1:3:0:0:
364,211,98275,1,8,2:0:0:0:
430,335,98452,5,0,1:0:0:0:
466,337,98540,1,0,1:0:0:0:
492,312,98628,1,0,1:0:0:0:
321,184,98804,6,0,L|353:308,1,119.999996337891,4|2,1:0|2:3,2:0:0:0:
267,383,99069,2,0,B|283:365|283:365|336:376,1,59.9999981689454,2|8,2:3|2:0,0:0:0:0:
164,245,99334,2,0,P|196:282|268:273,1,119.999996337891,4|0,1:2|0:0,2:0:0:0:
133,340,99687,1,0,1:0:0:0:
116,346,99775,1,0,2:0:0:0:
99,352,99863,1,8,2:0:0:0:
17,370,100040,6,0,L|48:169,1,179.999994506836,4|0,1:2|2:0,2:0:0:0:
22,169,100393,1,0,1:0:0:0:
180,201,100569,1,10,2:0:0:0:
174,165,100657,1,2,2:0:0:0:
145,142,100746,1,2,1:2:0:0:
109,138,100834,2,0,P|65:105|19:46,1,119.999996337891,2|0,1:2|2:0,2:0:0:0:
0,65,101099,1,0,1:0:0:0:
168,71,101275,5,8,2:0:0:0:
203,65,101363,1,0,2:0:0:0:
238,59,101452,1,0,1:0:0:0:
273,53,101540,1,0,1:0:0:0:
308,47,101628,6,0,B|362:75|362:75|436:63,1,119.999996337891,4|2,1:2|2:3,2:0:0:0:
508,22,101893,2,0,P|469:8|445:-6,1,59.9999981689454,2|8,2:3|2:0,0:0:0:0:
399,169,102157,2,0,P|448:135|505:114,1,119.999996337891,4|0,1:2|0:0,2:0:0:0:
457,236,102510,1,0,1:0:0:0:
451,253,102599,1,0,2:0:0:0:
446,270,102687,1,8,2:0:0:0:
383,365,102863,2,0,B|360:288|360:288|343:273|343:273|313:182,1,179.999994506836,4|0,1:2|2:0,2:0:0:0:
331,120,103216,1,2,1:2:0:0:
313,115,103304,1,2,2:0:0:0:
297,81,103393,5,10,2:0:0:0:
263,93,103481,1,2,2:0:0:0:
239,120,103569,1,2,1:2:0:0:
232,155,103657,1,2,2:0:0:0:
242,189,103746,1,8,2:0:0:0:
372,268,103922,1,0,1:0:0:0:
267,361,104099,6,0,L|276:301,1,59.9999981689454,8|0,2:0|0:0,2:0:0:0:
168,238,104275,1,8,2:0:0:0:
168,238,104363,1,8,2:0:0:0:
168,238,104452,6,0,B|119:271|119:271|134:345,1,119.999996337891,4|2,1:2|2:3,2:0:0:0:
66,370,104716,2,0,B|55:354|55:354|1:345,1,59.9999981689454,2|8,2:3|2:0,0:0:0:0:
205,309,104981,2,0,P|239:322|328:340,1,119.999996337891,4|0,1:2|0:0,2:0:0:0:
46,274,105334,1,0,1:0:0:0:
40,238,105422,1,0,2:0:0:0:
34,202,105510,1,8,2:0:0:0:
170,154,105687,2,0,P|189:102|231:29,1,119.999996337891,4|0,1:2|0:0,2:0:0:0:
11,16,106040,5,0,1:0:0:0:
115,85,106216,1,8,2:0:0:0:
65,220,106393,1,2,1:3:0:0:
99,228,106481,1,2,2:3:0:0:
129,247,106569,1,10,3:2:0:0:
152,274,106657,1,2,2:3:0:0:
152,274,106746,2,0,P|199:301|269:326,1,119.999996337891,2|8,2:0|2:0,2:0:0:0:
356,213,107099,5,0,1:0:0:0:
383,190,107187,1,0,1:0:0:0:
418,196,107275,2,0,L|447:329,1,119.999996337891,4|2,1:2|2:3,2:0:0:0:
344,355,107540,2,0,L|359:284,1,59.9999981689454,2|8,2:3|2:0,0:0:0:0:
504,186,107804,2,0,P|484:140|470:69,1,119.999996337891,4|0,1:2|0:0,2:0:0:0:
394,20,108157,1,0,1:0:0:0:
365,42,108246,1,0,2:0:0:0:
329,42,108334,1,8,2:0:0:0:
255,124,108510,6,0,P|215:102|135:81,1,119.999996337891,4|0,1:2|0:0,2:0:0:0:
28,24,108863,1,2,1:2:0:0:
56,46,108952,1,2,2:0:0:0:
66,80,109040,1,10,2:0:0:0:
34,215,109216,1,2,1:2:0:0:
15,245,109304,1,2,2:0:0:0:
20,283,109393,6,0,P|91:315|152:361,1,150,10|0,2:0|2:0,2:0:0:0:
247,350,109746,2,0,B|219:328|219:328|218:275,1,75,10|0,1:2|2:0,2:0:0:0:
149,233,110099,6,2,B|188:220|188:220|286:260|286:260|330:242,1,179.999994506836,6|0,1:2|2:0,2:1:0:0:
354,234,110452,1,8,2:0:0:0:
423,345,110628,1,2,2:3:0:0:
459,347,110716,1,2,2:3:0:0:
487,323,110804,1,2,1:2:0:0:
341,321,110981,2,0,L|286:347,2,59.9999981689454,2|2|8,2:0|2:0|2:0,0:0:0:0:
432,197,111334,6,2,L|452:60,1,119.999996337891,2|0,2:0|1:0,2:1:0:0:
484,60,111599,1,2,2:0:0:0:
484,60,111687,1,2,2:0:0:0:
334,2,111863,2,0,P|349:44|362:127,1,119.999996337891,10|2,2:0|2:3,2:0:0:0:
284,131,112128,2,0,L|267:202,1,59.9999981689454,2|2,2:3|1:2,0:0:0:0:
142,72,112393,1,2,2:0:0:0:
208,241,112569,1,10,2:0:0:0:
0,138,112746,5,0,1:0:0:0:
0,138,112834,1,0,1:0:0:0:
0,138,112922,2,2,B|80:120|80:120|155:188,1,179.999994506836,4|0,1:2|2:0,2:1:0:0:
120,198,113275,2,0,L|98:327,1,119.999996337891,10|2,2:0|2:3,2:0:0:0:
119,336,113540,1,2,2:3:0:0:
138,358,113628,1,2,1:2:0:0:
34,238,113804,1,2,2:0:0:0:
34,238,113981,1,8,2:0:0:0:
212,328,114157,6,2,P|273:310|352:303,1,119.999996337891,2|0,2:0|1:0,2:1:0:0:
388,366,114422,1,2,2:0:0:0:
388,366,114510,2,0,L|452:382,1,59.9999981689454,2|0,2:0|2:0,2:0:0:0:
509,333,114687,1,8,2:0:0:0:
388,249,114863,1,2,2:0:0:0:
408,235,114952,1,2,2:0:0:0:
410,211,115040,1,2,1:2:0:0:
412,187,115128,1,2,2:0:0:0:
414,163,115216,1,2,2:0:0:0:
415,139,115304,1,2,2:0:0:0:
435,126,115393,6,0,P|443:104|384:35,1,119.999996337891,10|2,2:0|2:0,2:0:0:0:
504,186,115746,6,2,L|311:151,1,179.999994506836,6|0,1:2|2:0,2:1:0:0:
287,88,116099,2,0,L|217:101,1,59.9999981689454,8|0,2:0|2:0,2:0:0:0:
176,29,116275,1,2,2:3:0:0:
152,55,116363,1,2,2:3:0:0:
115,53,116452,1,0,1:2:0:0:
24,37,116628,5,2,2:0:0:0:
110,164,116804,1,8,2:0:0:0:
37,67,116981,6,2,L|11:197,1,119.999996337891,2|0,2:0|1:0,2:1:0:0:
72,240,117246,1,2,2:0:0:0:
72,240,117334,1,2,2:0:0:0:
10,350,117510,1,8,2:0:0:0:
142,282,117687,2,0,L|74:262,2,59.9999981689454,2|2|0,2:3|2:3|1:0,0:0:0:0:
98,359,118040,1,2,2:0:0:0:
234,293,118216,1,8,2:0:0:0:
317,350,118393,5,0,1:0:0:0:
317,350,118481,1,0,1:0:0:0:
317,350,118569,2,2,B|304:256|304:256|354:169,1,179.999994506836,4|0,1:2|2:0,2:1:0:0:
412,233,118922,1,8,2:0:0:0:
257,166,119099,1,2,2:3:0:0:
250,130,119187,1,2,2:3:0:0:
243,94,119275,1,2,1:2:0:0:
300,35,119452,1,2,2:0:0:0:
415,146,119628,1,10,2:0:0:0:
498,38,119804,6,2,B|415:103|411:39|336:108,1,179.999994506836,6|0,1:2|2:0,2:1:0:0:
339,191,120157,1,0,1:0:0:0:
250,130,120334,5,10,2:0:0:0:
193,270,120510,1,2,2:0:0:0:
314,359,120687,1,10,2:0:0:0:
271,234,120863,1,2,1:2:0:0:
271,234,121040,1,10,2:0:0:0:
154,345,121216,1,10,2:0:0:0:
119,334,121304,1,8,2:0:0:0:
84,323,121393,6,0,L|52:190,1,119.999996337891,12|0,2:0|1:0,2:0:0:0:
131,184,121657,2,0,L|153:99,1,59.9999981689454,0|0,1:0|1:0,0:0:0:0:
318,373,121922,6,0,L|350:240,1,119.999996337891,12|0,2:0|1:0,2:0:0:0:
271,234,122186,2,0,L|249:149,1,59.9999981689454,0|0,1:0|1:0,0:0:0:0:
442,289,122452,5,12,2:0:0:0:
489,96,122628,1,6,1:2:0:0:
