osu file format v14

[General]
AudioFilename: audio.mp3
AudioLeadIn: 0
PreviewTime: 46859
Countdown: 0
SampleSet: Normal
StackLeniency: 0.7
Mode: 1
LetterboxInBreaks: 0
WidescreenStoryboard: 1

[Editor]
Bookmarks: 46859
DistanceSpacing: 0.6
BeatDivisor: 4
GridSize: 16
TimelineZoom: 2.1

[Metadata]
Title:Macropolis
TitleUnicode:Macropolis
Artist:MYUKKE.
ArtistUnicode:MYUKKE.
Creator:Boaz
Version:Yasuho's Muzukashii
Source:osu!
Tags:featured artist fa english we love myukke ep electronic instrumental city pop complextro glitch hop horiiizon yasuho disco
BeatmapID:3021498
BeatmapSetID:1457097

[Difficulty]
HPDrainRate:6
CircleSize:5
OverallDifficulty:5
ApproachRate:5
SliderMultiplier:1.4
SliderTickRate:1

[Events]
//Background and Video events
0,0,"bg.jpg",0,0
//Break Periods
//Storyboard Layer 0 (Background)
//Storyboard Layer 1 (Fail)
//Storyboard Layer 2 (Pass)
//Storyboard Layer 3 (Foreground)
//Storyboard Layer 4 (Overlay)
//Storyboard Sound Samples

[TimingPoints]
1859,468.750000000001,4,1,0,65,1,0
1859,-100,4,1,0,65,0,0
16859,-100,4,1,0,85,0,0
46859,-100,4,1,0,100,0,1
54359,-100,4,1,0,90,0,0
54827,-100,4,1,0,100,0,1
55296,-100,4,1,0,90,0,0
55765,-100,4,1,0,100,0,1
56234,-100,4,1,0,90,0,0
56702,-100,4,1,0,100,0,1
61859,-100,4,1,0,75,0,0
69359,-100,4,1,0,85,0,0
76859,-100,4,1,0,90,0,1
91859,-100,4,1,0,85,0,0
106859,-100,4,1,0,85,0,0
121859,-100,4,1,0,65,0,0

[HitObjects]
231,191,1859,5,8,0:0:0:0:
238,192,3265,1,8,0:0:0:0:
238,192,3382,1,8,0:0:0:0:
238,192,3499,1,8,0:0:0:0:
241,193,4671,1,0,0:0:0:0:
206,180,5609,1,0,0:0:0:0:
236,196,7249,1,8,0:0:0:0:
157,189,8421,1,0,0:0:0:0:
155,210,8890,1,8,0:0:0:0:
156,209,9007,1,8,0:0:0:0:
163,210,9124,1,8,0:0:0:0:
163,210,9359,1,0,0:0:0:0:
203,200,9827,1,0,0:0:0:0:
246,225,10296,1,0,0:0:0:0:
251,224,10765,1,8,0:0:0:0:
246,225,10882,1,8,0:0:0:0:
246,225,10999,1,8,0:0:0:0:
246,225,11234,1,0,0:0:0:0:
245,220,11702,1,0,0:0:0:0:
216,214,12171,1,0,0:0:0:0:
216,214,12640,1,8,0:0:0:0:
156,202,13109,1,0,0:0:0:0:
182,205,13577,1,8,0:0:0:0:
182,205,14046,1,0,0:0:0:0:
182,205,14515,1,8,0:0:0:0:
182,199,14749,1,0,0:0:0:0:
187,198,15218,1,0,0:0:0:0:
190,197,15335,1,0,0:0:0:0:
190,197,15452,1,0,0:0:0:0:
190,196,15687,1,0,0:0:0:0:
187,198,15921,1,8,0:0:0:0:
187,198,16155,1,0,0:0:0:0:
190,197,16390,1,8,0:0:0:0:
185,188,16859,1,12,0:0:0:0:
109,179,17210,1,0,0:0:0:0:
132,182,17327,1,8,0:0:0:0:
167,190,17562,1,0,0:0:0:0:
121,181,17796,1,0,0:0:0:0:
141,81,18148,1,0,0:0:0:0:
197,190,18265,1,8,0:0:0:0:
154,174,18499,1,8,0:0:0:0:
170,172,18734,1,0,0:0:0:0:
172,171,19202,1,8,0:0:0:0:
181,173,19671,1,0,0:0:0:0:
181,173,20140,1,8,0:0:0:0:
166,157,20374,1,0,0:0:0:0:
151,185,20609,1,8,0:0:0:0:
136,162,20960,1,8,0:0:0:0:
155,167,21077,1,0,0:0:0:0:
151,166,21312,1,0,0:0:0:0:
179,147,21546,1,8,0:0:0:0:
179,147,21898,1,0,0:0:0:0:
179,147,22015,1,8,0:0:0:0:
151,166,22249,1,0,0:0:0:0:
174,162,22484,1,0,0:0:0:0:
174,162,22601,1,0,0:0:0:0:
174,162,22718,1,0,0:0:0:0:
177,164,22952,1,8,0:0:0:0:
174,162,23187,1,0,0:0:0:0:
174,162,23421,1,0,0:0:0:0:
174,162,23655,1,0,0:0:0:0:
177,164,23890,1,8,0:0:0:0:
174,162,24359,1,0,0:0:0:0:
177,164,24710,1,0,0:0:0:0:
177,164,24827,1,8,0:0:0:0:
174,162,25062,1,0,0:0:0:0:
119,182,25296,1,0,0:0:0:0:
154,174,25648,1,0,0:0:0:0:
154,174,25765,1,8,0:0:0:0:
145,182,25999,1,0,0:0:0:0:
146,182,26234,1,0,0:0:0:0:
146,182,26702,1,8,0:0:0:0:
132,171,27171,1,0,0:0:0:0:
166,181,27523,5,0,0:0:0:0:
166,181,27640,1,8,0:0:0:0:
161,177,27874,1,0,0:0:0:0:
256,192,28109,12,8,29515,0:0:0:0:
196,180,29984,5,8,0:0:0:0:
196,180,30218,1,0,0:0:0:0:
138,167,30452,1,8,0:0:0:0:
177,172,30687,1,8,0:0:0:0:
177,172,30804,1,8,0:0:0:0:
178,172,30921,1,8,0:0:0:0:
180,172,31155,1,0,0:0:0:0:
183,173,31390,1,8,0:0:0:0:
101,194,31859,1,4,0:0:0:0:
174,206,32327,1,8,0:0:0:0:
174,206,32562,1,8,0:0:0:0:
174,206,32796,1,0,0:0:0:0:
174,206,32913,1,0,0:0:0:0:
174,206,33030,1,0,0:0:0:0:
174,206,33265,1,8,0:0:0:0:
180,210,33499,1,0,0:0:0:0:
188,210,34202,1,8,0:0:0:0:
190,210,34437,1,0,0:0:0:0:
192,212,34671,1,0,0:0:0:0:
192,212,35140,1,8,0:0:0:0:
200,113,35609,1,0,0:0:0:0:
200,113,36077,1,8,0:0:0:0:
200,113,36312,1,8,0:0:0:0:
200,113,36429,1,8,0:0:0:0:
200,113,36546,1,8,0:0:0:0:
203,107,36780,1,0,0:0:0:0:
175,182,37015,1,8,0:0:0:0:
183,181,37484,1,8,0:0:0:0:
131,143,37718,1,0,0:0:0:0:
131,143,37952,1,8,0:0:0:0:
119,158,38187,1,8,0:0:0:0:
141,162,38421,1,0,0:0:0:0:
142,163,38890,1,8,0:0:0:0:
143,162,39124,1,0,0:0:0:0:
141,162,39359,1,8,0:0:0:0:
177,177,39827,1,0,0:0:0:0:
176,172,40296,1,0,0:0:0:0:
176,172,40413,1,0,0:0:0:0:
177,177,40530,1,0,0:0:0:0:
177,177,40765,1,8,0:0:0:0:
176,172,40999,1,0,0:0:0:0:
154,169,41702,1,0,0:0:0:0:
178,163,41937,1,0,0:0:0:0:
161,126,42171,1,8,0:0:0:0:
107,162,42405,1,0,0:0:0:0:
107,162,42523,1,0,0:0:0:0:
107,162,42640,1,0,0:0:0:0:
112,163,42874,1,0,0:0:0:0:
112,163,43109,1,8,0:0:0:0:
107,162,43577,1,8,0:0:0:0:
112,163,43812,1,0,0:0:0:0:
112,163,43929,1,0,0:0:0:0:
112,163,44046,1,0,0:0:0:0:
107,162,44280,1,0,0:0:0:0:
107,162,44515,1,8,0:0:0:0:
112,163,44749,1,8,0:0:0:0:
112,163,44866,1,8,0:0:0:0:
112,163,44984,1,8,0:0:0:0:
107,162,45218,1,0,0:0:0:0:
107,162,45452,1,8,0:0:0:0:
112,163,45921,1,8,0:0:0:0:
107,162,46390,1,0,0:0:0:0:
112,163,46859,1,12,0:0:0:0:
163,175,47093,1,0,0:0:0:0:
163,175,47210,1,0,0:0:0:0:
163,175,47327,1,0,0:0:0:0:
136,165,47562,1,8,0:0:0:0:
156,150,47796,1,0,0:0:0:0:
241,161,48030,1,8,0:0:0:0:
141,127,48148,1,8,0:0:0:0:
141,127,48265,1,8,0:0:0:0:
151,193,48499,1,0,0:0:0:0:
151,193,49202,1,0,0:0:0:0:
208,181,49554,1,0,0:0:0:0:
166,147,49671,1,8,0:0:0:0:
131,102,49905,1,0,0:0:0:0:
129,156,50023,1,0,0:0:0:0:
123,157,50140,1,0,0:0:0:0:
115,173,50374,1,0,0:0:0:0:
111,160,50609,1,12,0:0:0:0:
227,153,51077,1,8,0:0:0:0:
227,153,51194,1,8,0:0:0:0:
226,158,51312,1,8,0:0:0:0:
227,174,51546,1,0,0:0:0:0:
231,174,51780,1,0,0:0:0:0:
226,174,52015,1,8,0:0:0:0:
221,179,52249,1,0,0:0:0:0:
136,160,52718,1,8,0:0:0:0:
149,184,52835,1,8,0:0:0:0:
222,182,52952,1,8,0:0:0:0:
168,182,53187,1,0,0:0:0:0:
177,182,53421,1,8,0:0:0:0:
182,180,53890,1,8,0:0:0:0:
139,175,54359,1,0,0:0:0:0:
146,174,54476,1,0,0:0:0:0:
146,174,54593,1,0,0:0:0:0:
139,175,54827,1,8,0:0:0:0:
214,171,55296,1,8,0:0:0:0:
191,182,55413,1,8,0:0:0:0:
139,175,55530,1,8,0:0:0:0:
139,175,55765,1,0,0:0:0:0:
166,173,56234,1,8,0:0:0:0:
193,167,56468,1,8,0:0:0:0:
162,162,56702,1,0,0:0:0:0:
194,160,56937,1,8,0:0:0:0:
194,160,57054,1,8,0:0:0:0:
189,164,57171,1,8,0:0:0:0:
186,161,57405,1,0,0:0:0:0:
186,161,57640,1,0,0:0:0:0:
189,164,58109,1,8,0:0:0:0:
193,168,58577,1,0,0:0:0:0:
195,173,58812,1,8,0:0:0:0:
182,173,59046,1,0,0:0:0:0:
157,164,59280,1,8,0:0:0:0:
186,188,59398,1,8,0:0:0:0:
176,192,59515,1,8,0:0:0:0:
177,192,59749,1,0,0:0:0:0:
129,158,60452,1,8,0:0:0:0:
129,158,60687,1,0,0:0:0:0:
133,154,60921,1,8,0:0:0:0:
141,154,61155,1,0,0:0:0:0:
146,156,61390,1,0,0:0:0:0:
149,157,61859,1,12,0:0:0:0:
166,201,62327,1,8,0:0:0:0:
172,193,62796,1,0,0:0:0:0:
175,196,63265,1,8,0:0:0:0:
172,193,63499,1,0,0:0:0:0:
143,201,63968,1,0,0:0:0:0:
216,109,64437,1,0,0:0:0:0:
147,198,64671,1,8,0:0:0:0:
164,190,64905,1,0,0:0:0:0:
161,190,65023,1,0,0:0:0:0:
161,190,65140,1,0,0:0:0:0:
159,187,65374,1,8,0:0:0:0:
159,187,65609,1,0,0:0:0:0:
161,190,66077,1,0,0:0:0:0:
173,152,66312,1,8,0:0:0:0:
172,157,66546,1,0,0:0:0:0:
161,164,66780,1,0,0:0:0:0:
135,172,67249,1,8,0:0:0:0:
172,118,67718,1,0,0:0:0:0:
186,176,67952,1,8,0:0:0:0:
172,118,68187,1,8,0:0:0:0:
172,118,68304,1,8,0:0:0:0:
172,118,68421,1,8,0:0:0:0:
178,136,68890,1,0,0:0:0:0:
178,135,69124,1,0,0:0:0:0:
178,135,69241,1,0,0:0:0:0:
178,136,69359,1,0,0:0:0:0:
139,187,69827,1,8,0:0:0:0:
171,181,70296,1,0,0:0:0:0:
171,181,70765,1,8,0:0:0:0:
177,179,71234,1,0,0:0:0:0:
177,179,71702,1,8,0:0:0:0:
177,179,72171,1,0,0:0:0:0:
177,179,72640,1,8,0:0:0:0:
256,192,73109,12,0,74515,0:0:0:0:
166,188,74749,5,8,0:0:0:0:
165,176,74984,1,0,0:0:0:0:
165,176,75335,1,0,0:0:0:0:
165,176,75452,1,8,0:0:0:0:
166,174,75687,1,0,0:0:0:0:
165,176,75921,1,8,0:0:0:0:
165,176,76155,1,0,0:0:0:0:
162,170,76273,1,0,0:0:0:0:
162,170,76390,1,0,0:0:0:0:
163,169,76859,1,12,0:0:0:0:
248,167,77327,1,0,0:0:0:0:
155,158,77562,1,0,0:0:0:0:
248,167,77796,1,8,0:0:0:0:
176,164,77913,1,8,0:0:0:0:
236,177,78030,1,8,0:0:0:0:
246,172,78265,1,8,0:0:0:0:
246,172,78499,1,0,0:0:0:0:
198,185,78968,1,8,0:0:0:0:
198,185,79202,1,0,0:0:0:0:
158,176,79319,1,0,0:0:0:0:
198,185,79437,1,0,0:0:0:0:
202,169,79671,1,0,0:0:0:0:
205,168,79905,1,0,0:0:0:0:
205,168,80140,1,8,0:0:0:0:
154,159,80609,1,8,0:0:0:0:
154,158,80843,1,0,0:0:0:0:
154,158,80960,1,0,0:0:0:0:
156,158,81077,1,0,0:0:0:0:
202,176,81312,1,8,0:0:0:0:
202,176,81429,1,8,0:0:0:0:
202,176,81546,1,8,0:0:0:0:
206,179,81780,1,8,0:0:0:0:
38,162,82015,1,0,0:0:0:0:
211,177,82249,1,8,0:0:0:0:
38,162,82952,1,0,0:0:0:0:
165,167,83187,1,0,0:0:0:0:
173,137,83421,1,8,0:0:0:0:
173,137,83655,1,0,0:0:0:0:
173,124,83890,1,8,0:0:0:0:
209,177,84007,1,8,0:0:0:0:
209,177,84124,1,8,0:0:0:0:
209,177,84359,1,4,0:0:0:0:
214,176,84827,1,0,0:0:0:0:
220,168,85062,1,8,0:0:0:0:
221,168,85179,1,8,0:0:0:0:
221,168,85296,1,8,0:0:0:0:
222,168,85530,1,0,0:0:0:0:
223,167,85765,1,8,0:0:0:0:
220,168,85999,1,0,0:0:0:0:
221,168,86468,1,8,0:0:0:0:
223,167,86702,1,0,0:0:0:0:
220,168,86819,1,0,0:0:0:0:
140,191,87054,1,8,0:0:0:0:
221,168,87171,1,8,0:0:0:0:
300,234,87405,1,8,0:0:0:0:
292,232,87640,1,8,0:0:0:0:
177,197,87874,1,0,0:0:0:0:
177,197,88109,1,0,0:0:0:0:
126,86,88812,1,0,0:0:0:0:
126,86,88929,1,0,0:0:0:0:
126,86,89046,1,0,0:0:0:0:
126,86,89280,1,0,0:0:0:0:
126,86,89515,1,8,0:0:0:0:
126,86,89749,1,4,0:0:0:0:
110,167,90218,1,12,0:0:0:0:
146,176,90452,1,0,0:0:0:0:
153,165,90687,1,12,0:0:0:0:
156,163,90921,1,0,0:0:0:0:
196,161,91390,1,0,0:0:0:0:
78,153,91859,1,8,0:0:0:0:
195,210,92327,1,8,0:0:0:0:
181,201,92796,1,0,0:0:0:0:
176,197,93030,1,8,0:0:0:0:
178,195,93148,1,8,0:0:0:0:
183,194,93499,1,8,0:0:0:0:
184,194,93734,1,0,0:0:0:0:
190,196,94202,1,0,0:0:0:0:
195,192,94437,1,8,0:0:0:0:
93,202,94671,1,0,0:0:0:0:
121,205,94905,1,0,0:0:0:0:
121,205,95140,1,8,0:0:0:0:
121,205,95609,1,8,0:0:0:0:
152,178,96077,1,0,0:0:0:0:
121,205,96312,1,8,0:0:0:0:
88,161,96429,1,8,0:0:0:0:
168,202,96546,1,8,0:0:0:0:
123,178,96780,1,8,0:0:0:0:
191,162,97015,1,8,0:0:0:0:
131,188,97249,1,0,0:0:0:0:
125,178,97718,1,8,0:0:0:0:
127,181,97952,1,0,0:0:0:0:
142,105,98421,1,8,0:0:0:0:
151,118,98655,1,8,0:0:0:0:
151,118,98773,1,8,0:0:0:0:
151,118,98890,1,8,0:0:0:0:
163,131,99124,1,0,0:0:0:0:
78,153,99359,1,8,0:0:0:0:
129,174,99827,1,8,0:0:0:0:
181,201,100296,1,0,0:0:0:0:
176,197,100530,1,8,0:0:0:0:
178,195,100648,1,8,0:0:0:0:
183,194,100999,1,8,0:0:0:0:
184,194,101234,1,0,0:0:0:0:
190,196,101702,1,0,0:0:0:0:
195,192,101937,1,8,0:0:0:0:
93,202,102171,1,0,0:0:0:0:
121,205,102405,1,0,0:0:0:0:
121,205,102640,1,8,0:0:0:0:
121,205,103109,1,8,0:0:0:0:
152,178,103577,1,0,0:0:0:0:
121,205,103812,1,8,0:0:0:0:
88,161,103929,1,8,0:0:0:0:
168,202,104046,1,8,0:0:0:0:
123,178,104280,1,8,0:0:0:0:
191,162,104515,1,8,0:0:0:0:
131,188,104749,1,0,0:0:0:0:
125,178,105218,1,8,0:0:0:0:
127,181,105452,1,0,0:0:0:0:
142,105,105921,5,8,0:0:0:0:
151,118,106155,1,8,0:0:0:0:
151,118,106273,1,8,0:0:0:0:
151,118,106390,1,8,0:0:0:0:
163,131,106624,1,0,0:0:0:0:
146,179,106859,5,4,0:0:0:0:
195,180,107210,1,0,0:0:0:0:
195,180,107327,1,8,0:0:0:0:
195,180,107562,1,0,0:0:0:0:
195,180,107796,1,8,0:0:0:0:
161,103,108148,1,8,0:0:0:0:
60,163,108499,1,0,0:0:0:0:
72,163,108616,1,0,0:0:0:0:
72,163,108734,1,0,0:0:0:0:
120,183,108968,1,0,0:0:0:0:
122,177,109202,1,8,0:0:0:0:
124,176,109437,1,0,0:0:0:0:
128,158,109671,1,8,0:0:0:0:
129,158,110140,1,0,0:0:0:0:
122,157,110609,1,12,0:0:0:0:
153,183,110960,1,0,0:0:0:0:
153,183,111077,1,8,0:0:0:0:
160,182,111312,1,8,0:0:0:0:
159,182,111546,1,0,0:0:0:0:
159,182,111898,1,8,0:0:0:0:
160,182,112249,1,0,0:0:0:0:
159,182,112366,1,0,0:0:0:0:
159,182,112484,1,0,0:0:0:0:
159,182,112718,1,0,0:0:0:0:
159,182,112952,1,8,0:0:0:0:
159,182,113421,1,0,0:0:0:0:
155,175,113773,1,0,0:0:0:0:
154,176,113890,1,8,0:0:0:0:
181,116,114124,1,8,0:0:0:0:
183,121,114359,1,0,0:0:0:0:
183,121,114827,1,12,0:0:0:0:
181,128,115062,1,0,0:0:0:0:
178,129,115296,1,8,0:0:0:0:
151,178,115648,1,0,0:0:0:0:
156,180,115765,1,8,0:0:0:0:
156,185,115999,1,0,0:0:0:0:
109,193,116234,1,0,0:0:0:0:
136,191,116702,1,8,0:0:0:0:
129,190,117171,1,0,0:0:0:0:
126,188,117523,1,0,0:0:0:0:
125,188,117640,1,8,0:0:0:0:
129,190,117874,1,8,0:0:0:0:
256,192,118109,12,0,119515,0:0:0:0:
133,185,119749,5,0,0:0:0:0:
136,185,120218,1,0,0:0:0:0:
136,185,120452,1,0,0:0:0:0:
141,207,120687,1,8,0:0:0:0:
139,207,120921,1,4,0:0:0:0:
85,198,121390,1,12,0:0:0:0:
147,202,121859,1,8,0:0:0:0:
147,202,122210,1,8,0:0:0:0:
141,195,122562,1,0,0:0:0:0:
213,198,122796,1,0,0:0:0:0:
170,185,123148,1,8,0:0:0:0:
