osu file format v14

[General]
AudioFilename: audio.mp3
AudioLeadIn: 0
PreviewTime: 46859
Countdown: 0
SampleSet: Normal
StackLeniency: 0.7
Mode: 1
LetterboxInBreaks: 0
WidescreenStoryboard: 1

[Editor]
Bookmarks: 46859
DistanceSpacing: 0.4
BeatDivisor: 4
GridSize: 16
TimelineZoom: 2.1

[Metadata]
Title:Macropolis
TitleUnicode:Macropolis
Artist:MYUKKE.
ArtistUnicode:MYUKKE.
Creator:Boaz
Version:Oni
Source:osu!
Tags:featured artist fa english we love myukke ep electronic instrumental city pop complextro glitch hop horiiizon yasuho disco
BeatmapID:3020696
BeatmapSetID:1457097

[Difficulty]
HPDrainRate:5.5
CircleSize:5
OverallDifficulty:5.5
ApproachRate:5
SliderMultiplier:1.4
SliderTickRate:1

[Events]
//Background and Video events
0,0,"bg.jpg",0,0
//Break Periods
//Storyboard Layer 0 (Background)
//Storyboard Layer 1 (Fail)
//Storyboard Layer 2 (Pass)
//Storyboard Layer 3 (Foreground)
//Storyboard Layer 4 (Overlay)
//Storyboard Sound Samples

[TimingPoints]
1859,468.750000000001,4,1,0,65,1,0
1859,-117.647058823529,4,1,0,65,0,0
8890,-117.647058823529,4,1,0,65,0,0
16859,-111.111111111111,4,1,0,85,0,0
28109,-111.111111111111,4,1,0,85,0,0
28226,-109.090869421502,4,1,0,85,0,0
28343,-108.108108108108,4,1,0,85,0,0
28460,-105.263157894737,4,1,0,85,0,0
28577,-103.448240190262,4,1,0,85,0,0
28812,-100,4,1,0,85,0,0
29046,-96.774224765879,4,1,0,85,0,0
29163,-95.2380952380952,4,1,0,85,0,0
29280,-93.7499707031342,4,1,0,85,0,0
29398,-92.3077207100679,4,1,0,85,0,0
29515,-90.9090909090909,4,1,0,85,0,0
31859,-100,4,1,0,85,0,0
46859,-100,4,1,0,85,0,1
54359,-95.2380952380952,4,1,0,90,0,0
54827,-90.9090909090909,4,1,0,100,0,1
55296,-95.2380952380952,4,1,0,90,0,0
55765,-90.9090909090909,4,1,0,100,0,1
56234,-95.2380952380952,4,1,0,90,0,0
56702,-90.9090909090909,4,1,0,100,0,1
61859,-111.111111111111,4,1,0,75,0,0
69359,-108.108108108108,4,1,0,85,0,0
73109,-107.52688172043,4,1,0,85,0,0
73226,-105.913466579535,4,1,0,85,0,0
73343,-104.347862381865,4,1,0,85,0,0
73460,-102.827763496144,4,1,0,85,0,0
73577,-101.351317111042,4,1,0,85,0,0
73812,-98.5221674876847,4,1,0,85,0,0
74046,-95.8466759893533,4,1,0,85,0,0
74163,-94.5626477541371,4,1,0,85,0,0
74280,-93.3125681764951,4,1,0,85,0,0
74398,-92.0951932755774,4,1,0,85,0,0
74515,-90.9090909090909,4,1,0,85,0,0
76155,-89.2857142857143,4,1,0,85,0,0
76390,-86.9565217391304,4,1,0,85,0,0
76859,-91.0780821506086,4,1,0,85,0,1
91859,-95.2380952380952,4,1,0,85,0,0
106507,-96.3618580493469,4,1,0,85,0,0
106624,-97.5124572164094,4,1,0,85,0,0
106859,-100,4,1,0,85,0,0
114359,-102.040816326531,4,1,0,85,0,0
114476,-104.166666666667,4,1,0,85,0,0
114593,-106.382978723404,4,1,0,85,0,0
114827,-83.3333333333333,4,1,0,85,0,0
115062,-100,4,1,0,85,0,0
121859,-111.111111111111,4,1,0,65,0,0

[HitObjects]
301,269,1859,5,8,0:0:0:0:
202,186,2210,1,0,0:0:0:0:
202,186,2327,1,8,0:0:0:0:
214,188,2562,1,8,0:0:0:0:
192,188,2796,1,0,0:0:0:0:
383,202,3265,1,8,0:0:0:0:
383,202,3382,1,8,0:0:0:0:
383,202,3499,1,0,0:0:0:0:
191,188,3968,1,8,0:0:0:0:
191,188,4202,1,0,0:0:0:0:
191,188,4319,1,8,0:0:0:0:
383,202,4671,1,8,0:0:0:0:
191,188,5023,1,0,0:0:0:0:
141,159,5140,1,8,0:0:0:0:
191,188,5374,1,8,0:0:0:0:
364,210,5609,1,0,0:0:0:0:
338,197,5960,1,0,0:0:0:0:
338,197,6077,1,8,0:0:0:0:
377,233,6312,1,8,0:0:0:0:
377,233,6546,1,0,0:0:0:0:
377,233,6898,1,0,0:0:0:0:
364,210,7249,1,8,0:0:0:0:
377,233,7718,1,0,0:0:0:0:
377,233,7952,1,8,0:0:0:0:
377,233,8069,1,0,0:0:0:0:
406,196,8421,1,8,0:0:0:0:
430,267,8890,1,0,0:0:0:0:
430,267,9007,1,0,0:0:0:0:
430,267,9124,1,0,0:0:0:0:
430,267,9359,1,8,0:0:0:0:
289,201,9593,1,0,0:0:0:0:
430,267,9827,1,8,0:0:0:0:
430,267,10062,1,0,0:0:0:0:
242,231,10296,1,8,0:0:0:0:
242,231,10530,1,0,0:0:0:0:
242,231,10765,1,8,0:0:0:0:
262,215,10882,1,8,0:0:0:0:
262,215,10999,1,0,0:0:0:0:
239,146,11234,1,0,0:0:0:0:
289,201,11468,1,8,0:0:0:0:
334,191,11702,1,0,0:0:0:0:
334,191,11937,1,8,0:0:0:0:
370,235,12054,1,0,0:0:0:0:
334,191,12171,1,0,0:0:0:0:
334,191,12405,1,0,0:0:0:0:
334,191,12640,1,8,0:0:0:0:
334,191,13109,1,8,0:0:0:0:
334,191,13343,1,8,0:0:0:0:
334,191,13460,1,8,0:0:0:0:
334,191,13577,1,0,0:0:0:0:
334,191,13812,1,0,0:0:0:0:
289,201,14046,1,8,0:0:0:0:
289,201,14280,1,8,0:0:0:0:
289,201,14398,1,8,0:0:0:0:
289,201,14515,1,0,0:0:0:0:
289,201,14749,1,0,0:0:0:0:
289,201,15218,1,0,0:0:0:0:
289,201,15335,1,0,0:0:0:0:
289,201,15452,1,8,0:0:0:0:
289,201,15687,1,0,0:0:0:0:
289,201,15921,1,0,0:0:0:0:
289,201,16155,1,8,0:0:0:0:
289,201,16390,1,4,0:0:0:0:
289,201,16859,1,12,0:0:0:0:
289,201,17210,1,0,0:0:0:0:
289,201,17327,1,8,0:0:0:0:
289,201,17562,1,0,0:0:0:0:
289,201,17796,1,8,0:0:0:0:
469,324,18148,1,0,0:0:0:0:
469,324,18265,1,8,0:0:0:0:
431,315,18499,1,0,0:0:0:0:
431,315,18734,1,0,0:0:0:0:
431,315,18851,1,8,0:0:0:0:
431,315,18968,1,0,0:0:0:0:
431,315,19202,1,8,0:0:0:0:
419,316,19554,1,0,0:0:0:0:
419,316,19671,1,8,0:0:0:0:
419,316,19788,1,0,0:0:0:0:
419,316,19905,1,8,0:0:0:0:
419,316,20140,1,8,0:0:0:0:
419,316,20374,1,0,0:0:0:0:
419,316,20491,1,0,0:0:0:0:
419,316,20609,1,12,0:0:0:0:
196,162,20960,1,0,0:0:0:0:
196,162,21077,1,8,0:0:0:0:
151,175,21312,1,0,0:0:0:0:
342,191,21546,1,8,0:0:0:0:
338,166,21898,1,0,0:0:0:0:
338,166,22015,1,8,0:0:0:0:
147,170,22249,1,8,0:0:0:0:
91,160,22484,1,8,0:0:0:0:
91,160,22601,1,0,0:0:0:0:
91,160,22718,1,0,0:0:0:0:
91,160,22952,1,8,0:0:0:0:
91,160,23187,1,0,0:0:0:0:
91,160,23421,1,8,0:0:0:0:
91,160,23538,1,0,0:0:0:0:
91,160,23655,1,0,0:0:0:0:
91,160,23890,1,8,0:0:0:0:
259,184,24124,1,0,0:0:0:0:
259,184,24359,1,12,0:0:0:0:
259,184,24710,1,0,0:0:0:0:
259,184,24827,1,8,0:0:0:0:
259,184,25062,1,0,0:0:0:0:
259,184,25296,1,8,0:0:0:0:
204,138,25648,1,0,0:0:0:0:
204,138,25765,1,8,0:0:0:0:
329,187,25999,1,0,0:0:0:0:
329,187,26234,1,8,0:0:0:0:
375,169,26351,1,0,0:0:0:0:
375,169,26468,1,0,0:0:0:0:
375,169,26702,1,0,0:0:0:0:
375,169,26937,1,0,0:0:0:0:
375,169,27171,1,8,0:0:0:0:
154,138,27288,1,8,0:0:0:0:
375,169,27405,1,0,0:0:0:0:
375,169,27640,1,8,0:0:0:0:
375,169,27874,1,0,0:0:0:0:
329,186,28109,1,8,0:0:0:0:
329,186,28226,1,0,0:0:0:0:
329,186,28343,1,0,0:0:0:0:
329,186,28460,1,0,0:0:0:0:
329,186,28577,1,8,0:0:0:0:
329,186,28812,1,0,0:0:0:0:
329,186,29046,1,8,0:0:0:0:
248,188,29163,1,8,0:0:0:0:
122,142,29280,1,0,0:0:0:0:
248,188,29398,1,0,0:0:0:0:
329,186,29515,1,8,0:0:0:0:
389,48,29749,1,0,0:0:0:0:
382,50,29984,1,8,0:0:0:0:
151,181,30101,1,0,0:0:0:0:
391,201,30218,1,0,0:0:0:0:
391,201,30452,1,8,0:0:0:0:
391,201,30687,1,0,0:0:0:0:
391,201,30804,1,8,0:0:0:0:
391,201,30921,1,0,0:0:0:0:
391,201,31155,1,8,0:0:0:0:
400,328,31390,1,4,0:0:0:0:
400,328,31859,1,12,0:0:0:0:
372,311,32327,1,8,0:0:0:0:
389,65,32444,1,0,0:0:0:0:
389,65,32562,1,8,0:0:0:0:
158,166,32796,1,0,0:0:0:0:
482,182,32913,1,0,0:0:0:0:
482,182,33030,1,8,0:0:0:0:
482,182,33265,1,0,0:0:0:0:
482,182,33499,1,8,0:0:0:0:
482,182,33734,1,8,0:0:0:0:
482,182,33968,1,0,0:0:0:0:
482,182,34202,1,8,0:0:0:0:
482,182,34319,1,0,0:0:0:0:
482,182,34437,1,0,0:0:0:0:
482,182,34671,1,8,0:0:0:0:
482,182,34905,1,8,0:0:0:0:
256,183,35023,1,8,0:0:0:0:
482,182,35140,1,0,0:0:0:0:
482,182,35609,1,12,0:0:0:0:
423,55,36077,1,0,0:0:0:0:
69,157,36194,1,0,0:0:0:0:
176,62,36312,1,8,0:0:0:0:
128,191,36546,1,8,0:0:0:0:
140,178,36663,1,0,0:0:0:0:
134,174,36780,1,8,0:0:0:0:
133,174,37015,1,0,0:0:0:0:
498,237,37249,1,8,0:0:0:0:
498,237,37484,1,8,0:0:0:0:
176,197,37718,1,0,0:0:0:0:
182,197,37835,1,0,0:0:0:0:
226,174,37952,1,8,0:0:0:0:
343,160,38187,1,8,0:0:0:0:
343,160,38421,1,0,0:0:0:0:
343,160,38655,1,0,0:0:0:0:
464,18,38773,1,0,0:0:0:0:
343,160,38890,1,8,0:0:0:0:
206,129,39124,1,0,0:0:0:0:
104,127,39359,1,8,0:0:0:0:
207,127,39827,1,8,0:0:0:0:
118,160,40062,1,8,0:0:0:0:
35,166,40179,1,0,0:0:0:0:
255,144,40413,1,0,0:0:0:0:
373,80,40530,1,8,0:0:0:0:
373,80,40765,1,0,0:0:0:0:
161,182,40999,1,8,0:0:0:0:
96,175,41234,1,8,0:0:0:0:
368,207,41468,1,0,0:0:0:0:
359,207,41585,1,8,0:0:0:0:
359,207,41702,1,8,0:0:0:0:
358,204,41937,1,0,0:0:0:0:
358,204,42171,1,8,0:0:0:0:
358,204,42405,1,8,0:0:0:0:
86,177,42523,1,0,0:0:0:0:
86,177,42640,1,0,0:0:0:0:
358,204,43109,1,0,0:0:0:0:
358,204,43343,1,0,0:0:0:0:
359,207,43577,1,8,0:0:0:0:
488,50,43694,1,8,0:0:0:0:
488,50,43812,1,0,0:0:0:0:
488,50,44046,1,8,0:0:0:0:
436,58,44163,1,0,0:0:0:0:
449,252,44280,1,8,0:0:0:0:
199,181,44515,1,0,0:0:0:0:
330,97,44749,1,8,0:0:0:0:
330,97,44984,1,8,0:0:0:0:
330,97,45218,1,0,0:0:0:0:
330,97,45452,1,8,0:0:0:0:
330,97,45687,1,0,0:0:0:0:
330,97,45804,1,0,0:0:0:0:
330,97,45921,1,8,0:0:0:0:
330,97,46155,1,0,0:0:0:0:
330,97,46390,1,8,0:0:0:0:
330,97,46859,1,8,0:0:0:0:
330,97,46976,1,8,0:0:0:0:
246,191,47093,1,0,0:0:0:0:
246,191,47210,1,0,0:0:0:0:
330,97,47327,1,8,0:0:0:0:
330,97,47562,1,8,0:0:0:0:
330,97,47796,1,8,0:0:0:0:
172,134,47913,1,0,0:0:0:0:
172,134,48030,1,0,0:0:0:0:
222,147,48265,1,0,0:0:0:0:
226,150,48382,1,0,0:0:0:0:
172,134,48499,1,0,0:0:0:0:
143,206,48734,1,8,0:0:0:0:
238,103,48968,1,0,0:0:0:0:
238,103,49085,1,0,0:0:0:0:
238,103,49202,1,8,0:0:0:0:
329,159,49437,1,8,0:0:0:0:
329,159,49554,1,0,0:0:0:0:
326,151,49671,1,8,0:0:0:0:
415,146,49905,1,8,0:0:0:0:
415,146,50023,1,8,0:0:0:0:
415,146,50140,1,0,0:0:0:0:
330,97,50609,1,8,0:0:0:0:
330,97,50726,1,8,0:0:0:0:
330,97,50843,1,0,0:0:0:0:
197,151,50960,1,0,0:0:0:0:
330,97,51077,1,8,0:0:0:0:
330,97,51312,1,8,0:0:0:0:
330,97,51546,1,8,0:0:0:0:
172,134,51663,1,0,0:0:0:0:
64,163,51780,1,0,0:0:0:0:
172,134,52015,1,8,0:0:0:0:
172,134,52132,1,0,0:0:0:0:
268,129,52249,1,8,0:0:0:0:
91,179,52484,1,8,0:0:0:0:
308,227,52718,1,0,0:0:0:0:
308,227,52835,1,0,0:0:0:0:
308,227,52952,1,8,0:0:0:0:
42,155,53069,1,0,0:0:0:0:
308,227,53187,1,8,0:0:0:0:
147,183,53421,1,8,0:0:0:0:
432,178,53655,1,0,0:0:0:0:
432,178,53890,1,8,0:0:0:0:
197,175,54007,1,8,0:0:0:0:
371,66,54124,1,0,0:0:0:0:
287,198,54359,1,8,0:0:0:0:
287,198,54476,1,0,0:0:0:0:
287,198,54593,1,0,0:0:0:0:
287,198,54827,1,12,0:0:0:0:
287,198,55296,1,8,0:0:0:0:
287,198,55413,1,0,0:0:0:0:
287,198,55530,1,0,0:0:0:0:
287,198,55765,1,12,0:0:0:0:
287,198,56234,1,8,0:0:0:0:
226,165,56351,1,0,0:0:0:0:
287,198,56468,1,0,0:0:0:0:
287,198,56702,1,12,0:0:0:0:
218,204,56937,1,0,0:0:0:0:
218,204,57054,1,0,0:0:0:0:
218,204,57171,1,0,0:0:0:0:
218,204,57405,1,8,0:0:0:0:
209,194,57523,1,0,0:0:0:0:
218,204,57640,1,8,0:0:0:0:
398,72,57874,1,0,0:0:0:0:
191,201,58109,1,12,0:0:0:0:
351,39,58577,1,8,0:0:0:0:
453,35,58694,1,8,0:0:0:0:
351,39,58812,1,0,0:0:0:0:
351,39,59046,1,8,0:0:0:0:
453,35,59163,1,0,0:0:0:0:
351,39,59280,1,8,0:0:0:0:
351,39,59515,1,0,0:0:0:0:
453,35,59632,1,0,0:0:0:0:
125,158,59749,1,8,0:0:0:0:
109,151,59984,1,0,0:0:0:0:
265,131,60218,1,0,0:0:0:0:
98,208,60335,1,8,0:0:0:0:
265,131,60452,1,0,0:0:0:0:
265,131,60687,1,0,0:0:0:0:
265,131,60921,1,0,0:0:0:0:
265,131,61155,1,0,0:0:0:0:
265,131,61390,1,8,0:0:0:0:
265,131,61859,1,4,0:0:0:0:
104,192,62327,1,8,0:0:0:0:
73,178,62796,1,0,0:0:0:0:
73,178,63265,1,8,0:0:0:0:
73,178,63499,1,0,0:0:0:0:
73,178,63968,1,8,0:0:0:0:
73,178,64202,1,0,0:0:0:0:
73,178,64437,1,0,0:0:0:0:
73,178,64671,1,8,0:0:0:0:
73,178,64905,1,0,0:0:0:0:
73,178,65140,1,8,0:0:0:0:
73,178,65374,1,0,0:0:0:0:
73,178,65609,1,8,0:0:0:0:
73,178,66077,1,0,0:0:0:0:
73,178,66312,1,8,0:0:0:0:
73,178,66546,1,0,0:0:0:0:
73,178,66898,1,0,0:0:0:0:
73,178,67249,1,8,0:0:0:0:
65,176,67718,1,8,0:0:0:0:
65,176,67952,1,0,0:0:0:0:
65,176,68187,1,0,0:0:0:0:
65,176,68421,1,8,0:0:0:0:
65,176,68890,1,0,0:0:0:0:
65,176,69007,1,8,0:0:0:0:
65,176,69124,1,0,0:0:0:0:
65,176,69359,1,8,0:0:0:0:
65,176,69827,1,8,0:0:0:0:
65,176,70296,1,0,0:0:0:0:
65,176,70765,1,8,0:0:0:0:
65,176,70999,1,0,0:0:0:0:
65,176,71234,1,0,0:0:0:0:
65,176,71468,1,0,0:0:0:0:
65,176,71702,1,8,0:0:0:0:
65,176,71937,1,0,0:0:0:0:
65,176,72171,1,0,0:0:0:0:
65,176,72405,1,0,0:0:0:0:
65,176,72640,1,8,0:0:0:0:
65,176,72874,1,0,0:0:0:0:
86,229,73109,1,8,0:0:0:0:
351,231,73226,1,0,0:0:0:0:
351,231,73343,1,0,0:0:0:0:
245,183,73460,1,0,0:0:0:0:
351,231,73577,1,8,0:0:0:0:
345,220,73812,1,0,0:0:0:0:
345,220,74046,1,8,0:0:0:0:
345,220,74163,1,8,0:0:0:0:
406,48,74280,1,0,0:0:0:0:
244,192,74398,1,0,0:0:0:0:
406,48,74515,1,8,0:0:0:0:
197,160,74749,1,0,0:0:0:0:
197,160,74984,1,8,0:0:0:0:
197,160,75218,1,0,0:0:0:0:
197,160,75335,1,8,0:0:0:0:
197,160,75569,1,0,0:0:0:0:
197,160,75687,1,8,0:0:0:0:
197,160,75921,1,0,0:0:0:0:
197,160,76155,1,8,0:0:0:0:
197,160,76390,1,8,0:0:0:0:
197,160,76859,1,12,0:0:0:0:
197,160,77093,1,0,0:0:0:0:
197,160,77210,1,0,0:0:0:0:
197,160,77327,1,8,0:0:0:0:
197,160,77562,1,0,0:0:0:0:
197,160,77796,1,8,0:0:0:0:
197,160,77913,1,8,0:0:0:0:
197,160,78030,1,0,0:0:0:0:
310,186,78265,1,0,0:0:0:0:
310,186,78499,1,8,0:0:0:0:
310,186,78734,1,0,0:0:0:0:
295,160,78968,1,8,0:0:0:0:
295,160,79202,1,0,0:0:0:0:
295,160,79319,1,8,0:0:0:0:
295,160,79437,1,8,0:0:0:0:
238,166,79554,1,0,0:0:0:0:
295,160,79671,1,8,0:0:0:0:
295,160,79905,1,8,0:0:0:0:
295,160,80140,1,8,0:0:0:0:
295,160,80374,1,0,0:0:0:0:
295,160,80609,1,8,0:0:0:0:
295,160,80843,1,0,0:0:0:0:
295,160,81077,1,8,0:0:0:0:
295,160,81312,1,0,0:0:0:0:
295,160,81429,1,8,0:0:0:0:
295,160,81546,1,8,0:0:0:0:
295,160,81780,1,0,0:0:0:0:
295,160,82015,1,8,0:0:0:0:
295,160,82249,1,8,0:0:0:0:
295,160,82718,1,0,0:0:0:0:
295,160,83187,1,0,0:0:0:0:
295,160,83421,1,8,0:0:0:0:
356,176,83655,1,0,0:0:0:0:
356,176,83890,1,8,0:0:0:0:
356,176,84124,1,0,0:0:0:0:
356,176,84359,1,8,0:0:0:0:
378,197,84593,1,0,0:0:0:0:
378,197,84710,1,0,0:0:0:0:
378,197,84827,1,8,0:0:0:0:
373,192,85062,1,0,0:0:0:0:
257,187,85179,1,0,0:0:0:0:
373,192,85296,1,8,0:0:0:0:
371,191,85413,1,8,0:0:0:0:
369,191,85530,1,0,0:0:0:0:
363,192,85765,1,8,0:0:0:0:
363,192,85999,1,0,0:0:0:0:
363,192,86234,1,0,0:0:0:0:
363,192,86468,1,8,0:0:0:0:
363,192,86702,1,8,0:0:0:0:
363,192,86819,1,0,0:0:0:0:
363,192,87054,1,0,0:0:0:0:
276,163,87171,1,8,0:0:0:0:
276,163,87288,1,8,0:0:0:0:
276,163,87405,1,8,0:0:0:0:
180,166,87640,1,8,0:0:0:0:
172,156,87874,1,0,0:0:0:0:
172,156,88109,1,0,0:0:0:0:
172,156,88226,1,8,0:0:0:0:
172,156,88343,1,0,0:0:0:0:
217,153,88577,1,8,0:0:0:0:
196,154,88812,1,0,0:0:0:0:
203,153,88929,1,8,0:0:0:0:
196,154,89046,1,0,0:0:0:0:
196,154,89280,1,8,0:0:0:0:
196,154,89515,1,0,0:0:0:0:
196,154,89749,1,8,0:0:0:0:
196,154,90218,1,8,0:0:0:0:
196,154,90452,1,0,0:0:0:0:
196,154,90687,1,0,0:0:0:0:
196,154,90921,1,8,0:0:0:0:
196,154,91155,1,8,0:0:0:0:
196,154,91390,1,0,0:0:0:0:
196,154,91859,1,12,0:0:0:0:
440,174,92093,1,8,0:0:0:0:
440,174,92210,1,0,0:0:0:0:
382,169,92444,1,8,0:0:0:0:
382,169,92562,1,0,0:0:0:0:
382,169,92679,1,0,0:0:0:0:
382,169,92796,1,8,0:0:0:0:
382,169,93030,1,0,0:0:0:0:
382,169,93148,1,8,0:0:0:0:
382,169,93382,1,8,0:0:0:0:
382,169,93499,1,0,0:0:0:0:
382,169,93616,1,0,0:0:0:0:
382,169,93734,1,8,0:0:0:0:
382,169,93968,1,0,0:0:0:0:
382,169,94202,1,8,0:0:0:0:
382,169,94437,1,0,0:0:0:0:
382,169,94671,1,8,0:0:0:0:
382,169,94905,1,0,0:0:0:0:
382,169,95023,1,0,0:0:0:0:
401,167,95140,1,8,0:0:0:0:
316,143,95374,1,0,0:0:0:0:
316,143,95609,1,8,0:0:0:0:
316,143,95843,1,0,0:0:0:0:
316,143,95960,1,8,0:0:0:0:
316,143,96194,1,0,0:0:0:0:
316,143,96312,1,8,0:0:0:0:
316,143,96429,1,0,0:0:0:0:
316,143,96546,1,8,0:0:0:0:
316,143,96780,1,0,0:0:0:0:
316,143,96898,1,8,0:0:0:0:
316,143,97132,1,8,0:0:0:0:
316,143,97249,1,0,0:0:0:0:
310,150,97366,1,0,0:0:0:0:
316,143,97484,1,0,0:0:0:0:
316,143,97718,1,8,0:0:0:0:
316,143,97952,1,8,0:0:0:0:
316,143,98187,1,0,0:0:0:0:
316,143,98421,1,0,0:0:0:0:
401,167,98655,1,12,0:0:0:0:
401,167,98890,1,12,0:0:0:0:
316,143,99359,1,8,0:0:0:0:
305,113,99593,1,0,0:0:0:0:
305,113,99710,1,8,0:0:0:0:
305,113,99944,1,8,0:0:0:0:
305,113,100062,1,0,0:0:0:0:
305,113,100179,1,0,0:0:0:0:
305,113,100296,1,8,0:0:0:0:
305,113,100530,1,8,0:0:0:0:
305,113,100648,1,0,0:0:0:0:
305,113,100882,1,0,0:0:0:0:
305,113,100999,1,8,0:0:0:0:
305,113,101116,1,8,0:0:0:0:
305,113,101234,1,0,0:0:0:0:
305,113,101468,1,8,0:0:0:0:
305,113,101702,1,8,0:0:0:0:
305,113,101937,1,0,0:0:0:0:
305,113,102171,1,8,0:0:0:0:
305,113,102405,1,0,0:0:0:0:
305,113,102523,1,0,0:0:0:0:
401,167,102640,1,8,0:0:0:0:
305,113,102874,1,0,0:0:0:0:
305,113,103109,1,8,0:0:0:0:
305,113,103577,1,8,0:0:0:0:
305,113,103812,1,0,0:0:0:0:
305,113,103929,1,0,0:0:0:0:
305,113,104046,1,0,0:0:0:0:
305,113,104280,1,8,0:0:0:0:
305,113,104515,1,0,0:0:0:0:
305,113,104749,1,12,0:0:0:0:
305,113,105218,1,8,0:0:0:0:
305,113,105452,1,0,0:0:0:0:
305,113,105569,1,8,0:0:0:0:
305,113,105687,1,0,0:0:0:0:
341,137,105921,1,8,0:0:0:0:
341,137,106155,1,0,0:0:0:0:
341,137,106390,1,0,0:0:0:0:
271,143,106507,1,0,0:0:0:0:
271,143,106624,1,0,0:0:0:0:
401,167,106859,1,12,0:0:0:0:
401,167,107210,1,0,0:0:0:0:
401,167,107327,1,8,0:0:0:0:
401,167,107562,1,0,0:0:0:0:
401,167,107796,1,8,0:0:0:0:
401,167,108148,1,0,0:0:0:0:
182,177,108265,1,8,0:0:0:0:
325,138,108499,1,0,0:0:0:0:
325,138,108734,1,8,0:0:0:0:
325,138,108851,1,0,0:0:0:0:
325,138,108968,1,0,0:0:0:0:
325,138,109202,1,8,0:0:0:0:
325,138,109554,1,0,0:0:0:0:
325,138,109671,1,8,0:0:0:0:
325,138,109788,1,0,0:0:0:0:
325,138,109905,1,8,0:0:0:0:
325,138,110140,1,8,0:0:0:0:
400,167,110609,1,12,0:0:0:0:
400,167,110960,1,0,0:0:0:0:
400,167,111077,1,8,0:0:0:0:
400,167,111312,1,0,0:0:0:0:
400,167,111546,1,8,0:0:0:0:
400,167,111898,1,0,0:0:0:0:
247,188,112015,1,8,0:0:0:0:
458,171,112249,1,0,0:0:0:0:
458,171,112484,1,8,0:0:0:0:
392,185,112601,1,8,0:0:0:0:
392,185,112718,1,0,0:0:0:0:
393,186,112952,1,8,0:0:0:0:
365,189,113187,1,0,0:0:0:0:
365,189,113421,1,8,0:0:0:0:
365,189,113538,1,0,0:0:0:0:
331,198,113655,1,0,0:0:0:0:
365,189,113890,1,8,0:0:0:0:
416,82,114359,1,0,0:0:0:0:
416,82,114476,1,0,0:0:0:0:
416,82,114593,1,0,0:0:0:0:
416,82,114827,1,12,0:0:0:0:
430,138,115062,1,0,0:0:0:0:
430,138,115296,1,8,0:0:0:0:
430,138,115648,1,0,0:0:0:0:
430,138,115765,1,8,0:0:0:0:
430,138,115999,1,0,0:0:0:0:
430,138,116234,1,8,0:0:0:0:
430,138,116351,1,0,0:0:0:0:
430,138,116468,1,0,0:0:0:0:
430,138,116702,1,8,0:0:0:0:
430,138,116937,1,0,0:0:0:0:
430,138,117171,1,8,0:0:0:0:
430,138,117288,1,8,0:0:0:0:
430,138,117405,1,0,0:0:0:0:
430,138,117640,1,8,0:0:0:0:
458,141,117874,1,0,0:0:0:0:
458,141,118109,1,8,0:0:0:0:
447,137,118226,1,0,0:0:0:0:
447,137,118343,1,0,0:0:0:0:
257,175,118460,1,0,0:0:0:0:
440,134,118577,1,8,0:0:0:0:
440,134,118812,1,0,0:0:0:0:
440,134,119046,1,8,0:0:0:0:
440,134,119163,1,8,0:0:0:0:
145,169,119280,1,0,0:0:0:0:
185,157,119398,1,0,0:0:0:0:
145,169,119515,1,8,0:0:0:0:
253,97,119749,1,0,0:0:0:0:
253,97,119984,1,8,0:0:0:0:
253,97,120218,1,0,0:0:0:0:
253,97,120452,1,8,0:0:0:0:
253,97,120569,1,0,0:0:0:0:
160,169,120687,1,0,0:0:0:0:
253,97,120804,1,0,0:0:0:0:
253,97,120921,1,8,0:0:0:0:
332,128,121155,1,0,0:0:0:0:
332,128,121390,1,8,0:0:0:0:
251,192,121859,1,8,0:0:0:0:
251,192,122210,1,8,0:0:0:0:
363,159,122562,1,0,0:0:0:0:
363,159,122796,1,8,0:0:0:0:
363,159,123148,1,0,0:0:0:0:
