osu file format v14

[General]
AudioFilename: audio.mp3
AudioLeadIn: 0
PreviewTime: 53842
Countdown: 0
SampleSet: Normal
StackLeniency: 0.7
Mode: 3
LetterboxInBreaks: 0
SpecialStyle: 0
WidescreenStoryboard: 0

[Editor]
Bookmarks: 14946,28187,41429,54670,107636
DistanceSpacing: 1.3
BeatDivisor: 4
GridSize: 8
TimelineZoom: 2.4

[Metadata]
Title:FULi AUTO SHOOTER
TitleUnicode:FULi AUTO SHOOTER
Artist:MYUKKE.
ArtistUnicode:MYUKKE.
Creator:Torchiciscuter
Version:FULi LOADED
Source:Muse Dash
Tags:
BeatmapID:4557552
BeatmapSetID:2161197

[Difficulty]
HPDrainRate:7
CircleSize:4
OverallDifficulty:7
ApproachRate:5
SliderMultiplier:1.4
SliderTickRate:1

[Events]
//Background and Video events
0,0,"FULi_AUTO_SHOOTER_new_jacket.png",0,0
//Break Periods
//Storyboard Layer 0 (Background)
//Storyboard Layer 1 (Fail)
//Storyboard Layer 2 (Pass)
//Storyboard Layer 3 (Foreground)
//Storyboard Layer 4 (Overlay)
//Storyboard Sound Samples

[TimingPoints]
1705,413.793103448276,4,1,0,100,1,0
107636,-100,4,1,0,100,0,1
160601,-100,4,1,0,100,0,0

[HitObjects]
64,192,1705,5,0,0:0:0:0:
320,192,1705,1,0,0:0:0:0:
448,192,1705,1,0,0:0:0:0:
64,192,1911,1,0,0:0:0:0:
192,192,1911,1,0,0:0:0:0:
320,192,2015,1,0,0:0:0:0:
448,192,2118,128,0,2532:0:0:0:0:
192,192,2118,1,0,0:0:0:0:
64,192,2325,1,0,0:0:0:0:
192,192,2429,1,0,0:0:0:0:
320,192,2532,128,0,2946:0:0:0:0:
64,192,2739,1,0,0:0:0:0:
192,192,2946,128,0,3153:0:0:0:0:
320,192,3153,128,0,3360:0:0:0:0:
64,192,3256,1,0,0:0:0:0:
192,192,3360,128,0,3567:0:0:0:0:
320,192,3567,128,0,3773:0:0:0:0:
448,192,3567,1,0,0:0:0:0:
64,192,3773,128,0,3980:0:0:0:0:
192,192,3773,128,0,3980:0:0:0:0:
448,192,3980,1,0,0:0:0:0:
320,192,4084,1,0,0:0:0:0:
64,192,4187,128,0,4394:0:0:0:0:
448,192,4187,128,0,4394:0:0:0:0:
192,192,4291,1,0,0:0:0:0:
320,192,4394,1,0,0:0:0:0:
320,192,4601,128,0,4808:0:0:0:0:
448,192,4601,128,0,4808:0:0:0:0:
64,192,4808,1,0,0:0:0:0:
192,192,4911,1,0,0:0:0:0:
64,192,5015,1,0,0:0:0:0:
448,192,5015,128,0,5636:0:0:0:0:
192,192,5222,1,0,0:0:0:0:
320,192,5325,1,0,0:0:0:0:
64,192,5429,1,0,0:0:0:0:
192,192,5429,1,0,0:0:0:0:
320,192,5636,1,0,0:0:0:0:
192,192,5739,1,0,0:0:0:0:
64,192,5842,128,0,5946:0:0:0:0:
448,192,5842,1,0,0:0:0:0:
320,192,5946,128,0,6049:0:0:0:0:
192,192,6049,128,0,6153:0:0:0:0:
64,192,6049,1,0,0:0:0:0:
448,192,6153,128,0,6256:0:0:0:0:
192,192,6256,128,0,6360:0:0:0:0:
64,192,6256,1,0,0:0:0:0:
320,192,6360,128,0,6463:0:0:0:0:
64,192,6463,128,0,6567:0:0:0:0:
448,192,6463,1,0,0:0:0:0:
320,192,6567,128,0,6670:0:0:0:0:
448,192,6670,1,0,0:0:0:0:
192,192,6670,128,0,6877:0:0:0:0:
64,192,6670,128,0,6877:0:0:0:0:
320,192,6877,1,0,0:0:0:0:
448,192,6980,1,0,0:0:0:0:
64,192,7084,128,0,7291:0:0:0:0:
320,192,7084,128,0,7291:0:0:0:0:
448,192,7291,1,0,0:0:0:0:
192,192,7394,1,0,0:0:0:0:
320,192,7498,128,0,7705:0:0:0:0:
448,192,7498,128,0,7705:0:0:0:0:
64,192,7601,1,0,0:0:0:0:
192,192,7705,1,0,0:0:0:0:
320,192,7808,1,0,0:0:0:0:
64,192,7911,128,0,8118:0:0:0:0:
448,192,7911,128,0,8118:0:0:0:0:
192,192,8118,1,0,0:0:0:0:
320,192,8222,1,0,0:0:0:0:
64,192,8325,128,0,8532:0:0:0:0:
448,192,8325,128,0,8739:0:0:0:0:
192,192,8325,1,0,0:0:0:0:
320,192,8532,1,0,0:0:0:0:
192,192,8636,1,0,0:0:0:0:
64,192,8739,1,0,0:0:0:0:
320,192,8739,1,0,0:0:0:0:
320,192,8946,1,0,0:0:0:0:
192,192,9049,1,0,0:0:0:0:
448,192,9153,1,0,0:0:0:0:
320,192,9153,128,0,9256:0:0:0:0:
192,192,9256,128,0,9360:0:0:0:0:
448,192,9360,128,0,9463:0:0:0:0:
64,192,9360,1,0,0:0:0:0:
192,192,9463,128,0,9567:0:0:0:0:
320,192,9567,128,0,9670:0:0:0:0:
64,192,9567,1,0,0:0:0:0:
64,192,9670,128,0,9773:0:0:0:0:
320,192,9773,128,0,9877:0:0:0:0:
448,192,9773,1,0,0:0:0:0:
192,192,9877,128,0,9980:0:0:0:0:
64,192,9980,1,0,0:0:0:0:
448,192,9980,128,0,10394:0:0:0:0:
320,192,10187,128,0,10394:0:0:0:0:
64,192,10187,1,0,0:0:0:0:
192,192,10291,1,0,0:0:0:0:
64,192,10394,128,0,10808:0:0:0:0:
192,192,10601,128,0,10808:0:0:0:0:
448,192,10601,1,0,0:0:0:0:
320,192,10705,1,0,0:0:0:0:
448,192,10808,128,0,11222:0:0:0:0:
320,192,11015,128,0,11222:0:0:0:0:
192,192,11015,1,0,0:0:0:0:
64,192,11118,1,0,0:0:0:0:
192,192,11222,128,0,11636:0:0:0:0:
64,192,11429,128,0,11636:0:0:0:0:
320,192,11429,1,0,0:0:0:0:
448,192,11532,1,0,0:0:0:0:
320,192,11636,128,0,11842:0:0:0:0:
64,192,11842,1,0,0:0:0:0:
448,192,11842,1,0,0:0:0:0:
192,192,11946,1,0,0:0:0:0:
320,192,12049,128,0,12153:0:0:0:0:
448,192,12049,1,0,0:0:0:0:
192,192,12153,128,0,12256:0:0:0:0:
448,192,12256,128,0,12360:0:0:0:0:
64,192,12256,1,0,0:0:0:0:
192,192,12360,128,0,12463:0:0:0:0:
64,192,12463,1,0,0:0:0:0:
320,192,12463,128,0,12670:0:0:0:0:
448,192,12670,128,0,12773:0:0:0:0:
64,192,12670,128,0,12773:0:0:0:0:
192,192,12773,128,0,12877:0:0:0:0:
320,192,12877,128,0,12980:0:0:0:0:
448,192,12877,128,0,12980:0:0:0:0:
64,192,12980,128,0,13084:0:0:0:0:
192,192,13084,128,0,13187:0:0:0:0:
320,192,13084,128,0,13187:0:0:0:0:
448,192,13187,128,0,13291:0:0:0:0:
192,192,13291,128,0,13498:0:0:0:0:
320,192,13291,1,0,0:0:0:0:
64,192,13291,128,0,14532:0:0:0:0:
448,192,13498,1,0,0:0:0:0:
320,192,13601,1,0,0:0:0:0:
448,192,13705,128,0,13911:0:0:0:0:
192,192,13808,1,0,0:0:0:0:
320,192,13911,1,0,0:0:0:0:
448,192,14015,1,0,0:0:0:0:
192,192,14118,128,0,14325:0:0:0:0:
320,192,14222,1,0,0:0:0:0:
448,192,14325,1,0,0:0:0:0:
320,192,14429,1,0,0:0:0:0:
448,192,14532,1,0,0:0:0:0:
320,192,14584,1,0,0:0:0:0:
192,192,14636,1,0,0:0:0:0:
64,192,14687,1,0,0:0:0:0:
448,192,14739,1,0,0:0:0:0:
320,192,14739,1,0,0:0:0:0:
192,192,14842,1,0,0:0:0:0:
64,192,14946,5,0,0:0:0:0:
320,192,14946,1,0,0:0:0:0:
448,192,14946,128,0,15153:0:0:0:0:
320,192,15153,1,0,0:0:0:0:
192,192,15256,1,0,0:0:0:0:
64,192,15360,128,0,15773:0:0:0:0:
320,192,15360,1,0,0:0:0:0:
448,192,15567,1,0,0:0:0:0:
320,192,15670,1,0,0:0:0:0:
192,192,15773,128,0,16187:0:0:0:0:
320,192,15980,1,0,0:0:0:0:
64,192,16187,128,0,16394:0:0:0:0:
448,192,16187,1,0,0:0:0:0:
192,192,16394,128,0,16601:0:0:0:0:
320,192,16394,1,0,0:0:0:0:
320,192,16601,128,0,16808:0:0:0:0:
448,192,16808,128,0,17015:0:0:0:0:
64,192,16808,1,0,0:0:0:0:
64,192,17015,128,0,17222:0:0:0:0:
192,192,17015,128,0,17222:0:0:0:0:
448,192,17222,1,0,0:0:0:0:
320,192,17325,1,0,0:0:0:0:
64,192,17429,128,0,17636:0:0:0:0:
448,192,17429,128,0,17636:0:0:0:0:
192,192,17532,1,0,0:0:0:0:
320,192,17636,1,0,0:0:0:0:
192,192,17739,1,0,0:0:0:0:
320,192,17842,128,0,18049:0:0:0:0:
448,192,17842,128,0,18049:0:0:0:0:
64,192,18049,1,0,0:0:0:0:
192,192,18153,1,0,0:0:0:0:
64,192,18256,128,0,18877:0:0:0:0:
448,192,18256,1,0,0:0:0:0:
192,192,18463,1,0,0:0:0:0:
320,192,18567,1,0,0:0:0:0:
448,192,18670,1,0,0:0:0:0:
192,192,18670,1,0,0:0:0:0:
320,192,18877,1,0,0:0:0:0:
192,192,18980,1,0,0:0:0:0:
64,192,19084,128,0,19187:0:0:0:0:
448,192,19084,1,0,0:0:0:0:
320,192,19187,128,0,19291:0:0:0:0:
192,192,19291,128,0,19394:0:0:0:0:
64,192,19291,1,0,0:0:0:0:
448,192,19394,128,0,19498:0:0:0:0:
192,192,19498,128,0,19601:0:0:0:0:
64,192,19498,1,0,0:0:0:0:
320,192,19601,128,0,19705:0:0:0:0:
64,192,19705,128,0,19808:0:0:0:0:
448,192,19705,1,0,0:0:0:0:
320,192,19808,128,0,19911:0:0:0:0:
448,192,19911,1,0,0:0:0:0:
192,192,19911,128,0,20118:0:0:0:0:
64,192,19911,128,0,20118:0:0:0:0:
320,192,20118,1,0,0:0:0:0:
448,192,20222,1,0,0:0:0:0:
320,192,20325,128,0,20532:0:0:0:0:
192,192,20325,128,0,20532:0:0:0:0:
448,192,20532,1,0,0:0:0:0:
64,192,20636,1,0,0:0:0:0:
320,192,20739,128,0,20946:0:0:0:0:
448,192,20739,128,0,20946:0:0:0:0:
64,192,20842,1,0,0:0:0:0:
192,192,20946,1,0,0:0:0:0:
320,192,21049,1,0,0:0:0:0:
64,192,21153,128,0,21360:0:0:0:0:
448,192,21153,128,0,21360:0:0:0:0:
192,192,21360,1,0,0:0:0:0:
320,192,21463,1,0,0:0:0:0:
64,192,21567,128,0,21773:0:0:0:0:
448,192,21567,128,0,21980:0:0:0:0:
192,192,21567,1,0,0:0:0:0:
320,192,21773,1,0,0:0:0:0:
192,192,21877,1,0,0:0:0:0:
64,192,21980,1,0,0:0:0:0:
320,192,21980,1,0,0:0:0:0:
320,192,22187,1,0,0:0:0:0:
192,192,22291,1,0,0:0:0:0:
448,192,22394,1,0,0:0:0:0:
320,192,22394,128,0,22498:0:0:0:0:
192,192,22498,128,0,22601:0:0:0:0:
448,192,22601,128,0,22705:0:0:0:0:
64,192,22601,1,0,0:0:0:0:
192,192,22705,128,0,22808:0:0:0:0:
320,192,22808,128,0,22911:0:0:0:0:
64,192,22808,1,0,0:0:0:0:
64,192,22911,128,0,23015:0:0:0:0:
320,192,23015,128,0,23118:0:0:0:0:
448,192,23015,1,0,0:0:0:0:
192,192,23118,128,0,23222:0:0:0:0:
64,192,23222,1,0,0:0:0:0:
448,192,23222,128,0,23636:0:0:0:0:
320,192,23429,128,0,23636:0:0:0:0:
64,192,23429,1,0,0:0:0:0:
192,192,23532,1,0,0:0:0:0:
64,192,23636,128,0,24049:0:0:0:0:
192,192,23842,128,0,24049:0:0:0:0:
448,192,23842,1,0,0:0:0:0:
320,192,23946,1,0,0:0:0:0:
448,192,24049,128,0,24463:0:0:0:0:
320,192,24256,128,0,24463:0:0:0:0:
192,192,24256,1,0,0:0:0:0:
64,192,24360,1,0,0:0:0:0:
192,192,24463,128,0,24877:0:0:0:0:
64,192,24670,128,0,24877:0:0:0:0:
320,192,24670,1,0,0:0:0:0:
320,192,24877,128,0,25084:0:0:0:0:
448,192,24877,1,0,0:0:0:0:
64,192,25084,1,0,0:0:0:0:
448,192,25084,1,0,0:0:0:0:
192,192,25187,1,0,0:0:0:0:
320,192,25291,128,0,25394:0:0:0:0:
448,192,25291,1,0,0:0:0:0:
64,192,25291,1,0,0:0:0:0:
64,192,25498,1,0,0:0:0:0:
192,192,25498,128,0,25601:0:0:0:0:
448,192,25498,1,0,0:0:0:0:
64,192,25705,1,0,0:0:0:0:
320,192,25705,128,0,25911:0:0:0:0:
448,192,25705,1,0,0:0:0:0:
64,192,25911,1,0,0:0:0:0:
192,192,26015,1,0,0:0:0:0:
320,192,26118,128,0,26222:0:0:0:0:
448,192,26118,128,0,26222:0:0:0:0:
64,192,26118,1,0,0:0:0:0:
64,192,26325,128,0,26429:0:0:0:0:
192,192,26325,128,0,26429:0:0:0:0:
448,192,26325,1,0,0:0:0:0:
192,192,26532,128,0,26739:0:0:0:0:
320,192,26532,1,0,0:0:0:0:
64,192,26532,128,0,27773:0:0:0:0:
448,192,26532,1,0,0:0:0:0:
448,192,26739,1,0,0:0:0:0:
320,192,26842,1,0,0:0:0:0:
448,192,26946,128,0,27153:0:0:0:0:
192,192,26946,1,0,0:0:0:0:
320,192,27153,1,0,0:0:0:0:
448,192,27360,1,0,0:0:0:0:
192,192,27360,128,0,27567:0:0:0:0:
320,192,27567,1,0,0:0:0:0:
448,192,27773,1,0,0:0:0:0:
320,192,27773,128,0,27980:0:0:0:0:
192,192,27773,128,0,27980:0:0:0:0:
64,192,27980,1,0,0:0:0:0:
448,192,27980,1,0,0:0:0:0:
64,192,28187,128,0,28291:0:0:0:0:
192,192,28187,128,0,28291:0:0:0:0:
448,192,28187,1,0,0:0:0:0:
192,192,28394,128,0,28498:0:0:0:0:
448,192,28394,1,0,0:0:0:0:
64,192,28601,128,0,28705:0:0:0:0:
320,192,28601,128,0,28705:0:0:0:0:
192,192,28601,1,0,0:0:0:0:
320,192,28808,128,0,28911:0:0:0:0:
192,192,28808,1,0,0:0:0:0:
448,192,29015,128,0,29118:0:0:0:0:
320,192,29015,128,0,29118:0:0:0:0:
64,192,29015,1,0,0:0:0:0:
320,192,29222,128,0,29325:0:0:0:0:
64,192,29222,1,0,0:0:0:0:
192,192,29429,128,0,29532:0:0:0:0:
448,192,29429,128,0,29532:0:0:0:0:
320,192,29429,1,0,0:0:0:0:
192,192,29636,128,0,29739:0:0:0:0:
320,192,29636,1,0,0:0:0:0:
320,192,29842,128,0,29946:0:0:0:0:
448,192,29842,128,0,29946:0:0:0:0:
64,192,29842,1,0,0:0:0:0:
448,192,30049,128,0,30153:0:0:0:0:
64,192,30049,1,0,0:0:0:0:
320,192,30153,128,0,30256:0:0:0:0:
64,192,30256,128,0,30360:0:0:0:0:
192,192,30256,128,0,30360:0:0:0:0:
448,192,30256,1,0,0:0:0:0:
448,192,30463,1,0,0:0:0:0:
64,192,30463,128,0,30567:0:0:0:0:
192,192,30670,128,0,30773:0:0:0:0:
448,192,30670,128,0,30773:0:0:0:0:
320,192,30670,1,0,0:0:0:0:
448,192,30877,128,0,30980:0:0:0:0:
320,192,30877,1,0,0:0:0:0:
320,192,31084,128,0,31187:0:0:0:0:
64,192,31084,128,0,31187:0:0:0:0:
192,192,31084,1,0,0:0:0:0:
64,192,31291,128,0,31394:0:0:0:0:
192,192,31291,1,0,0:0:0:0:
192,192,31498,128,0,31601:0:0:0:0:
448,192,31498,128,0,31601:0:0:0:0:
64,192,31498,1,0,0:0:0:0:
320,192,31705,128,0,31808:0:0:0:0:
64,192,31705,1,0,0:0:0:0:
64,192,31911,128,0,32015:0:0:0:0:
320,192,31911,128,0,32015:0:0:0:0:
448,192,31911,1,0,0:0:0:0:
192,192,32118,128,0,32222:0:0:0:0:
448,192,32118,1,0,0:0:0:0:
320,192,32325,128,0,32429:0:0:0:0:
192,192,32325,128,0,32429:0:0:0:0:
64,192,32325,1,0,0:0:0:0:
448,192,32532,128,0,32636:0:0:0:0:
64,192,32532,1,0,0:0:0:0:
192,192,32739,128,0,32842:0:0:0:0:
320,192,32739,128,0,32842:0:0:0:0:
448,192,32739,1,0,0:0:0:0:
64,192,32946,128,0,33049:0:0:0:0:
448,192,32946,1,0,0:0:0:0:
320,192,33153,128,0,33256:0:0:0:0:
448,192,33153,128,0,33256:0:0:0:0:
192,192,33153,1,0,0:0:0:0:
192,192,33360,128,0,33463:0:0:0:0:
64,192,33360,1,0,0:0:0:0:
64,192,33567,128,0,33670:0:0:0:0:
448,192,33567,128,0,33670:0:0:0:0:
320,192,33567,1,0,0:0:0:0:
320,192,33773,128,0,33877:0:0:0:0:
192,192,33773,1,0,0:0:0:0:
192,192,33980,128,0,34084:0:0:0:0:
64,192,33980,128,0,34084:0:0:0:0:
320,192,33980,1,0,0:0:0:0:
320,192,34187,128,0,34291:0:0:0:0:
448,192,34187,1,0,0:0:0:0:
192,192,34291,128,0,34394:0:0:0:0:
64,192,34394,128,0,34498:0:0:0:0:
448,192,34394,128,0,34498:0:0:0:0:
320,192,34394,1,0,0:0:0:0:
192,192,34601,128,0,34705:0:0:0:0:
64,192,34601,1,0,0:0:0:0:
320,192,34808,128,0,34911:0:0:0:0:
448,192,34808,128,0,34911:0:0:0:0:
192,192,34808,1,0,0:0:0:0:
320,192,35015,128,0,35118:0:0:0:0:
192,192,35015,1,0,0:0:0:0:
192,192,35222,128,0,35325:0:0:0:0:
64,192,35222,128,0,35325:0:0:0:0:
448,192,35222,1,0,0:0:0:0:
64,192,35429,128,0,35532:0:0:0:0:
448,192,35429,1,0,0:0:0:0:
64,192,35636,128,0,35739:0:0:0:0:
192,192,35636,128,0,35739:0:0:0:0:
320,192,35636,1,0,0:0:0:0:
192,192,35842,128,0,35946:0:0:0:0:
320,192,35842,1,0,0:0:0:0:
320,192,36049,128,0,36153:0:0:0:0:
448,192,36049,128,0,36153:0:0:0:0:
64,192,36049,1,0,0:0:0:0:
448,192,36256,128,0,36360:0:0:0:0:
64,192,36256,1,0,0:0:0:0:
64,192,36463,128,0,36567:0:0:0:0:
320,192,36463,128,0,36567:0:0:0:0:
192,192,36463,1,0,0:0:0:0:
320,192,36670,128,0,36773:0:0:0:0:
192,192,36670,1,0,0:0:0:0:
64,192,36773,128,0,36877:0:0:0:0:
192,192,36877,128,0,36980:0:0:0:0:
448,192,36877,128,0,36980:0:0:0:0:
320,192,36877,1,0,0:0:0:0:
320,192,37084,1,0,0:0:0:0:
192,192,37084,128,0,37187:0:0:0:0:
448,192,37291,128,0,37394:0:0:0:0:
64,192,37291,128,0,37394:0:0:0:0:
320,192,37291,1,0,0:0:0:0:
448,192,37498,128,0,37601:0:0:0:0:
320,192,37498,1,0,0:0:0:0:
64,192,37705,128,0,37808:0:0:0:0:
448,192,37705,128,0,37808:0:0:0:0:
192,192,37705,1,0,0:0:0:0:
64,192,37911,128,0,38015:0:0:0:0:
192,192,37911,1,0,0:0:0:0:
64,192,38118,128,0,38222:0:0:0:0:
192,192,38118,128,0,38222:0:0:0:0:
320,192,38118,1,0,0:0:0:0:
64,192,38325,128,0,38429:0:0:0:0:
320,192,38325,1,0,0:0:0:0:
192,192,38532,128,0,38636:0:0:0:0:
320,192,38532,128,0,38636:0:0:0:0:
448,192,38532,1,0,0:0:0:0:
192,192,38739,128,0,38842:0:0:0:0:
448,192,38739,1,0,0:0:0:0:
320,192,38946,128,0,39049:0:0:0:0:
448,192,38946,128,0,39049:0:0:0:0:
64,192,38946,1,0,0:0:0:0:
320,192,39153,128,0,39256:0:0:0:0:
64,192,39153,1,0,0:0:0:0:
64,192,39360,128,0,39463:0:0:0:0:
448,192,39360,128,0,39463:0:0:0:0:
192,192,39360,1,0,0:0:0:0:
448,192,39567,128,0,39670:0:0:0:0:
192,192,39567,1,0,0:0:0:0:
448,192,39773,128,0,39877:0:0:0:0:
320,192,39773,128,0,39877:0:0:0:0:
192,192,39773,1,0,0:0:0:0:
448,192,39980,128,0,40084:0:0:0:0:
192,192,39980,1,0,0:0:0:0:
320,192,40187,128,0,40291:0:0:0:0:
192,192,40187,128,0,40291:0:0:0:0:
64,192,40187,1,0,0:0:0:0:
320,192,40394,128,0,40498:0:0:0:0:
64,192,40394,1,0,0:0:0:0:
192,192,40601,128,0,40705:0:0:0:0:
64,192,40601,128,0,40705:0:0:0:0:
448,192,40601,1,0,0:0:0:0:
448,192,40808,1,0,0:0:0:0:
192,192,40808,128,0,40911:0:0:0:0:
320,192,40911,128,0,41015:0:0:0:0:
448,192,41015,128,0,41118:0:0:0:0:
64,192,41015,128,0,41118:0:0:0:0:
192,192,41015,1,0,0:0:0:0:
64,192,41222,128,0,41325:0:0:0:0:
320,192,41222,1,0,0:0:0:0:
64,192,41429,128,0,41532:0:0:0:0:
192,192,41429,128,0,41532:0:0:0:0:
448,192,41429,128,0,41480:0:0:0:0:
192,192,41636,128,0,41739:0:0:0:0:
448,192,41636,1,0,0:0:0:0:
64,192,41842,128,0,41946:0:0:0:0:
320,192,41842,128,0,41946:0:0:0:0:
192,192,41842,1,0,0:0:0:0:
320,192,42049,128,0,42153:0:0:0:0:
192,192,42049,1,0,0:0:0:0:
448,192,42256,128,0,42360:0:0:0:0:
320,192,42256,128,0,42360:0:0:0:0:
64,192,42256,1,0,0:0:0:0:
320,192,42463,128,0,42567:0:0:0:0:
64,192,42463,1,0,0:0:0:0:
192,192,42670,128,0,42773:0:0:0:0:
448,192,42670,128,0,42773:0:0:0:0:
320,192,42670,128,0,42722:0:0:0:0:
192,192,42877,128,0,42980:0:0:0:0:
320,192,42877,1,0,0:0:0:0:
320,192,43084,128,0,43187:0:0:0:0:
448,192,43084,128,0,43187:0:0:0:0:
64,192,43084,128,0,43136:0:0:0:0:
448,192,43291,128,0,43394:0:0:0:0:
64,192,43291,1,0,0:0:0:0:
320,192,43394,128,0,43498:0:0:0:0:
64,192,43498,128,0,43601:0:0:0:0:
192,192,43498,128,0,43601:0:0:0:0:
448,192,43498,1,0,0:0:0:0:
448,192,43705,1,0,0:0:0:0:
64,192,43705,128,0,43808:0:0:0:0:
192,192,43911,128,0,44015:0:0:0:0:
448,192,43911,128,0,44015:0:0:0:0:
320,192,43911,128,0,43963:0:0:0:0:
448,192,44118,128,0,44222:0:0:0:0:
320,192,44118,1,0,0:0:0:0:
320,192,44325,128,0,44429:0:0:0:0:
64,192,44325,128,0,44429:0:0:0:0:
192,192,44325,1,0,0:0:0:0:
64,192,44532,128,0,44636:0:0:0:0:
192,192,44532,1,0,0:0:0:0:
192,192,44739,128,0,44842:0:0:0:0:
448,192,44739,128,0,44842:0:0:0:0:
64,192,44739,128,0,44791:0:0:0:0:
320,192,44946,128,0,45049:0:0:0:0:
64,192,44946,1,0,0:0:0:0:
64,192,45153,128,0,45256:0:0:0:0:
320,192,45153,128,0,45256:0:0:0:0:
448,192,45153,1,0,0:0:0:0:
192,192,45360,128,0,45463:0:0:0:0:
448,192,45360,1,0,0:0:0:0:
320,192,45567,128,0,45670:0:0:0:0:
192,192,45567,128,0,45670:0:0:0:0:
64,192,45567,1,0,0:0:0:0:
448,192,45773,128,0,45877:0:0:0:0:
64,192,45773,1,0,0:0:0:0:
192,192,45980,128,0,46084:0:0:0:0:
320,192,45980,128,0,46084:0:0:0:0:
448,192,45980,128,0,46032:0:0:0:0:
64,192,46187,128,0,46291:0:0:0:0:
448,192,46187,1,0,0:0:0:0:
320,192,46394,128,0,46498:0:0:0:0:
448,192,46394,128,0,46498:0:0:0:0:
192,192,46394,128,0,46446:0:0:0:0:
192,192,46601,128,0,46705:0:0:0:0:
64,192,46601,1,0,0:0:0:0:
64,192,46808,128,0,46911:0:0:0:0:
448,192,46808,128,0,46911:0:0:0:0:
320,192,46808,1,0,0:0:0:0:
320,192,47015,128,0,47118:0:0:0:0:
192,192,47015,1,0,0:0:0:0:
192,192,47222,128,0,47325:0:0:0:0:
64,192,47222,128,0,47325:0:0:0:0:
320,192,47222,128,0,47273:0:0:0:0:
320,192,47429,128,0,47532:0:0:0:0:
448,192,47429,1,0,0:0:0:0:
192,192,47532,128,0,47636:0:0:0:0:
64,192,47636,128,0,47739:0:0:0:0:
448,192,47636,128,0,47739:0:0:0:0:
320,192,47636,1,0,0:0:0:0:
192,192,47842,128,0,47946:0:0:0:0:
64,192,47842,1,0,0:0:0:0:
320,192,48049,128,0,48153:0:0:0:0:
448,192,48049,128,0,48153:0:0:0:0:
192,192,48049,1,0,0:0:0:0:
64,192,48049,1,0,0:0:0:0:
320,192,48256,128,0,48360:0:0:0:0:
192,192,48256,1,0,0:0:0:0:
192,192,48463,128,0,48567:0:0:0:0:
64,192,48463,128,0,48567:0:0:0:0:
448,192,48463,1,0,0:0:0:0:
320,192,48463,1,0,0:0:0:0:
64,192,48670,128,0,48773:0:0:0:0:
448,192,48670,1,0,0:0:0:0:
64,192,48877,128,0,48980:0:0:0:0:
192,192,48877,128,0,48980:0:0:0:0:
320,192,48877,1,0,0:0:0:0:
448,192,48877,1,0,0:0:0:0:
192,192,49084,128,0,49187:0:0:0:0:
320,192,49084,1,0,0:0:0:0:
320,192,49291,128,0,49394:0:0:0:0:
448,192,49291,128,0,49394:0:0:0:0:
64,192,49291,1,0,0:0:0:0:
192,192,49291,1,0,0:0:0:0:
448,192,49498,128,0,49601:0:0:0:0:
64,192,49498,1,0,0:0:0:0:
320,192,49601,1,0,0:0:0:0:
64,192,49705,128,0,49808:0:0:0:0:
320,192,49705,128,0,49808:0:0:0:0:
192,192,49705,1,0,0:0:0:0:
448,192,49705,1,0,0:0:0:0:
320,192,49911,128,0,50015:0:0:0:0:
192,192,49911,1,0,0:0:0:0:
64,192,50015,128,0,50118:0:0:0:0:
192,192,50118,128,0,50222:0:0:0:0:
448,192,50118,128,0,50222:0:0:0:0:
320,192,50118,1,0,0:0:0:0:
320,192,50325,1,0,0:0:0:0:
192,192,50325,128,0,50429:0:0:0:0:
448,192,50532,128,0,50636:0:0:0:0:
64,192,50532,128,0,50636:0:0:0:0:
320,192,50532,1,0,0:0:0:0:
192,192,50532,1,0,0:0:0:0:
448,192,50739,128,0,50842:0:0:0:0:
320,192,50739,1,0,0:0:0:0:
64,192,50946,128,0,51049:0:0:0:0:
448,192,50946,128,0,51049:0:0:0:0:
192,192,50946,1,0,0:0:0:0:
320,192,50946,1,0,0:0:0:0:
64,192,51153,128,0,51256:0:0:0:0:
320,192,51153,1,0,0:0:0:0:
192,192,51256,1,0,0:0:0:0:
64,192,51360,1,0,0:0:0:0:
320,192,51360,1,0,0:0:0:0:
448,192,51360,1,0,0:0:0:0:
192,192,51463,1,0,0:0:0:0:
320,192,51567,1,0,0:0:0:0:
448,192,51567,1,0,0:0:0:0:
64,192,51670,1,0,0:0:0:0:
192,192,51773,1,0,0:0:0:0:
320,192,51773,1,0,0:0:0:0:
448,192,51773,1,0,0:0:0:0:
64,192,51877,1,0,0:0:0:0:
320,192,51980,1,0,0:0:0:0:
448,192,51980,1,0,0:0:0:0:
192,192,52084,1,0,0:0:0:0:
64,192,52187,1,0,0:0:0:0:
448,192,52187,1,0,0:0:0:0:
320,192,52239,1,0,0:0:0:0:
192,192,52291,1,0,0:0:0:0:
64,192,52342,1,0,0:0:0:0:
448,192,52394,1,0,0:0:0:0:
320,192,52446,1,0,0:0:0:0:
64,192,52498,1,0,0:0:0:0:
192,192,52549,1,0,0:0:0:0:
320,192,52601,1,0,0:0:0:0:
448,192,52653,1,0,0:0:0:0:
64,192,52705,1,0,0:0:0:0:
192,192,52756,1,0,0:0:0:0:
448,192,52808,1,0,0:0:0:0:
320,192,52860,1,0,0:0:0:0:
192,192,52911,1,0,0:0:0:0:
64,192,52963,1,0,0:0:0:0:
320,192,53015,1,0,0:0:0:0:
448,192,53015,128,0,53222:0:0:0:0:
320,192,53222,128,0,53636:0:0:0:0:
448,192,53429,128,0,53636:0:0:0:0:
64,192,53636,1,0,0:0:0:0:
448,192,53842,1,0,0:0:0:0:
320,192,53894,1,0,0:0:0:0:
64,192,53946,1,0,0:0:0:0:
192,192,53998,1,0,0:0:0:0:
320,192,54049,1,0,0:0:0:0:
448,192,54101,1,0,0:0:0:0:
192,192,54153,1,0,0:0:0:0:
64,192,54205,1,0,0:0:0:0:
320,192,54256,1,0,0:0:0:0:
448,192,54256,1,0,0:0:0:0:
64,192,54670,1,0,0:0:0:0:
448,192,54670,1,0,0:0:0:0:
192,192,54722,1,0,0:0:0:0:
320,192,54773,1,0,0:0:0:0:
448,192,54825,1,0,0:0:0:0:
192,192,54877,1,0,0:0:0:0:
64,192,54929,1,0,0:0:0:0:
320,192,54980,1,0,0:0:0:0:
192,192,55032,1,0,0:0:0:0:
448,192,55084,1,0,0:0:0:0:
320,192,55136,1,0,0:0:0:0:
64,192,55187,1,0,0:0:0:0:
192,192,55239,1,0,0:0:0:0:
320,192,55291,1,0,0:0:0:0:
448,192,55342,1,0,0:0:0:0:
192,192,55394,1,0,0:0:0:0:
64,192,55446,1,0,0:0:0:0:
320,192,55498,1,0,0:0:0:0:
448,192,55498,1,0,0:0:0:0:
64,192,55705,1,0,0:0:0:0:
448,192,55705,1,0,0:0:0:0:
192,192,55756,1,0,0:0:0:0:
320,192,55808,1,0,0:0:0:0:
64,192,55860,1,0,0:0:0:0:
448,192,55911,1,0,0:0:0:0:
448,192,56118,1,0,0:0:0:0:
64,192,56118,1,0,0:0:0:0:
320,192,56170,1,0,0:0:0:0:
192,192,56222,1,0,0:0:0:0:
64,192,56325,1,0,0:0:0:0:
448,192,56325,1,0,0:0:0:0:
192,192,56377,1,0,0:0:0:0:
320,192,56429,1,0,0:0:0:0:
448,192,56480,1,0,0:0:0:0:
64,192,56532,1,0,0:0:0:0:
192,192,56584,1,0,0:0:0:0:
320,192,56636,1,0,0:0:0:0:
448,192,56739,1,0,0:0:0:0:
64,192,56739,1,0,0:0:0:0:
320,192,56791,1,0,0:0:0:0:
192,192,56842,1,0,0:0:0:0:
64,192,56894,1,0,0:0:0:0:
448,192,56946,1,0,0:0:0:0:
320,192,56998,1,0,0:0:0:0:
192,192,57049,1,0,0:0:0:0:
64,192,57101,1,0,0:0:0:0:
320,192,57153,1,0,0:0:0:0:
448,192,57153,1,0,0:0:0:0:
192,192,57360,1,0,0:0:0:0:
64,192,57360,1,0,0:0:0:0:
320,192,57463,1,0,0:0:0:0:
448,192,57463,1,0,0:0:0:0:
192,192,57567,128,0,57670:0:0:0:0:
64,192,57567,128,0,57670:0:0:0:0:
320,192,57773,128,0,57877:0:0:0:0:
448,192,57773,128,0,57877:0:0:0:0:
64,192,57980,1,0,0:0:0:0:
448,192,57980,1,0,0:0:0:0:
320,192,58032,1,0,0:0:0:0:
192,192,58084,1,0,0:0:0:0:
64,192,58136,1,0,0:0:0:0:
320,192,58187,1,0,0:0:0:0:
448,192,58239,1,0,0:0:0:0:
192,192,58291,1,0,0:0:0:0:
320,192,58342,1,0,0:0:0:0:
64,192,58394,1,0,0:0:0:0:
192,192,58446,1,0,0:0:0:0:
448,192,58498,1,0,0:0:0:0:
320,192,58549,1,0,0:0:0:0:
192,192,58601,1,0,0:0:0:0:
64,192,58653,1,0,0:0:0:0:
320,192,58705,1,0,0:0:0:0:
448,192,58756,1,0,0:0:0:0:
192,192,58808,1,0,0:0:0:0:
64,192,58808,1,0,0:0:0:0:
64,192,59015,1,0,0:0:0:0:
448,192,59015,1,0,0:0:0:0:
320,192,59067,1,0,0:0:0:0:
192,192,59118,1,0,0:0:0:0:
448,192,59170,1,0,0:0:0:0:
64,192,59222,1,0,0:0:0:0:
448,192,59429,1,0,0:0:0:0:
64,192,59429,1,0,0:0:0:0:
192,192,59480,1,0,0:0:0:0:
320,192,59532,1,0,0:0:0:0:
64,192,59636,1,0,0:0:0:0:
448,192,59636,1,0,0:0:0:0:
320,192,59687,1,0,0:0:0:0:
192,192,59739,1,0,0:0:0:0:
64,192,59791,1,0,0:0:0:0:
448,192,59842,1,0,0:0:0:0:
320,192,59894,1,0,0:0:0:0:
192,192,59946,1,0,0:0:0:0:
64,192,60049,1,0,0:0:0:0:
448,192,60049,1,0,0:0:0:0:
192,192,60101,1,0,0:0:0:0:
320,192,60153,1,0,0:0:0:0:
448,192,60205,1,0,0:0:0:0:
64,192,60256,1,0,0:0:0:0:
192,192,60308,1,0,0:0:0:0:
320,192,60360,1,0,0:0:0:0:
448,192,60411,1,0,0:0:0:0:
64,192,60463,1,0,0:0:0:0:
192,192,60463,1,0,0:0:0:0:
320,192,60670,1,0,0:0:0:0:
448,192,60670,1,0,0:0:0:0:
320,192,60877,1,0,0:0:0:0:
192,192,60877,1,0,0:0:0:0:
64,192,61084,1,0,0:0:0:0:
192,192,61084,1,0,0:0:0:0:
64,192,61291,1,0,0:0:0:0:
448,192,61291,1,0,0:0:0:0:
192,192,61342,1,0,0:0:0:0:
320,192,61394,1,0,0:0:0:0:
448,192,61446,1,0,0:0:0:0:
192,192,61498,1,0,0:0:0:0:
64,192,61549,1,0,0:0:0:0:
320,192,61601,1,0,0:0:0:0:
192,192,61653,1,0,0:0:0:0:
448,192,61705,1,0,0:0:0:0:
320,192,61756,1,0,0:0:0:0:
64,192,61808,1,0,0:0:0:0:
192,192,61860,1,0,0:0:0:0:
320,192,61911,1,0,0:0:0:0:
448,192,61963,1,0,0:0:0:0:
192,192,62015,1,0,0:0:0:0:
64,192,62067,1,0,0:0:0:0:
320,192,62118,1,0,0:0:0:0:
448,192,62118,1,0,0:0:0:0:
64,192,62325,1,0,0:0:0:0:
448,192,62325,1,0,0:0:0:0:
192,192,62377,1,0,0:0:0:0:
320,192,62429,1,0,0:0:0:0:
64,192,62480,1,0,0:0:0:0:
448,192,62532,1,0,0:0:0:0:
448,192,62739,1,0,0:0:0:0:
64,192,62739,1,0,0:0:0:0:
320,192,62791,1,0,0:0:0:0:
192,192,62842,1,0,0:0:0:0:
64,192,62946,1,0,0:0:0:0:
448,192,62946,1,0,0:0:0:0:
192,192,62998,1,0,0:0:0:0:
320,192,63049,1,0,0:0:0:0:
448,192,63101,1,0,0:0:0:0:
64,192,63153,1,0,0:0:0:0:
192,192,63205,1,0,0:0:0:0:
320,192,63256,1,0,0:0:0:0:
448,192,63360,1,0,0:0:0:0:
64,192,63360,1,0,0:0:0:0:
320,192,63411,1,0,0:0:0:0:
192,192,63463,1,0,0:0:0:0:
64,192,63515,1,0,0:0:0:0:
448,192,63567,1,0,0:0:0:0:
320,192,63618,1,0,0:0:0:0:
192,192,63670,1,0,0:0:0:0:
64,192,63722,1,0,0:0:0:0:
320,192,63773,1,0,0:0:0:0:
448,192,63773,1,0,0:0:0:0:
192,192,63980,1,0,0:0:0:0:
64,192,63980,1,0,0:0:0:0:
320,192,64084,1,0,0:0:0:0:
448,192,64084,1,0,0:0:0:0:
192,192,64187,128,0,64291:0:0:0:0:
64,192,64187,128,0,64291:0:0:0:0:
320,192,64394,128,0,64498:0:0:0:0:
448,192,64394,128,0,64498:0:0:0:0:
64,192,64601,1,0,0:0:0:0:
448,192,64601,1,0,0:0:0:0:
320,192,64653,1,0,0:0:0:0:
192,192,64705,1,0,0:0:0:0:
64,192,64756,1,0,0:0:0:0:
320,192,64808,1,0,0:0:0:0:
448,192,64860,1,0,0:0:0:0:
192,192,64911,1,0,0:0:0:0:
320,192,64963,1,0,0:0:0:0:
64,192,65015,1,0,0:0:0:0:
192,192,65067,1,0,0:0:0:0:
448,192,65118,1,0,0:0:0:0:
320,192,65170,1,0,0:0:0:0:
192,192,65222,1,0,0:0:0:0:
64,192,65273,1,0,0:0:0:0:
320,192,65325,1,0,0:0:0:0:
448,192,65377,1,0,0:0:0:0:
192,192,65429,1,0,0:0:0:0:
64,192,65429,1,0,0:0:0:0:
64,192,65636,1,0,0:0:0:0:
448,192,65636,1,0,0:0:0:0:
320,192,65687,1,0,0:0:0:0:
192,192,65739,1,0,0:0:0:0:
448,192,65791,1,0,0:0:0:0:
64,192,65842,1,0,0:0:0:0:
448,192,66049,1,0,0:0:0:0:
64,192,66049,1,0,0:0:0:0:
192,192,66101,1,0,0:0:0:0:
320,192,66153,1,0,0:0:0:0:
64,192,66256,1,0,0:0:0:0:
448,192,66256,1,0,0:0:0:0:
320,192,66308,1,0,0:0:0:0:
192,192,66360,1,0,0:0:0:0:
64,192,66411,1,0,0:0:0:0:
448,192,66463,1,0,0:0:0:0:
320,192,66515,1,0,0:0:0:0:
192,192,66567,1,0,0:0:0:0:
64,192,66670,1,0,0:0:0:0:
448,192,66670,1,0,0:0:0:0:
192,192,66722,1,0,0:0:0:0:
320,192,66773,1,0,0:0:0:0:
448,192,66825,1,0,0:0:0:0:
64,192,66877,1,0,0:0:0:0:
192,192,66929,1,0,0:0:0:0:
320,192,66980,1,0,0:0:0:0:
448,192,67032,1,0,0:0:0:0:
64,192,67084,1,0,0:0:0:0:
192,192,67084,1,0,0:0:0:0:
320,192,67291,1,0,0:0:0:0:
448,192,67291,1,0,0:0:0:0:
192,192,67498,128,0,67808:0:0:0:0:
320,192,67498,128,0,67808:0:0:0:0:
448,192,67911,1,0,0:0:0:0:
64,192,67911,1,0,0:0:0:0:
192,192,67963,1,0,0:0:0:0:
320,192,68015,1,0,0:0:0:0:
448,192,68067,1,0,0:0:0:0:
192,192,68118,1,0,0:0:0:0:
64,192,68170,1,0,0:0:0:0:
320,192,68222,1,0,0:0:0:0:
192,192,68273,1,0,0:0:0:0:
448,192,68325,1,0,0:0:0:0:
320,192,68377,1,0,0:0:0:0:
64,192,68429,1,0,0:0:0:0:
192,192,68480,1,0,0:0:0:0:
320,192,68532,1,0,0:0:0:0:
448,192,68584,1,0,0:0:0:0:
192,192,68636,1,0,0:0:0:0:
64,192,68687,1,0,0:0:0:0:
448,192,68739,1,0,0:0:0:0:
320,192,68739,1,0,0:0:0:0:
448,192,68946,1,0,0:0:0:0:
64,192,68946,1,0,0:0:0:0:
192,192,68998,1,0,0:0:0:0:
320,192,69049,1,0,0:0:0:0:
64,192,69101,1,0,0:0:0:0:
448,192,69153,1,0,0:0:0:0:
64,192,69360,1,0,0:0:0:0:
448,192,69360,1,0,0:0:0:0:
320,192,69411,1,0,0:0:0:0:
192,192,69463,1,0,0:0:0:0:
448,192,69567,1,0,0:0:0:0:
64,192,69567,1,0,0:0:0:0:
192,192,69618,1,0,0:0:0:0:
320,192,69670,1,0,0:0:0:0:
448,192,69722,1,0,0:0:0:0:
64,192,69773,1,0,0:0:0:0:
192,192,69825,1,0,0:0:0:0:
320,192,69877,1,0,0:0:0:0:
64,192,69980,1,0,0:0:0:0:
448,192,69980,1,0,0:0:0:0:
320,192,70032,1,0,0:0:0:0:
192,192,70084,1,0,0:0:0:0:
64,192,70136,1,0,0:0:0:0:
448,192,70187,1,0,0:0:0:0:
320,192,70239,1,0,0:0:0:0:
192,192,70291,1,0,0:0:0:0:
64,192,70342,1,0,0:0:0:0:
448,192,70394,1,0,0:0:0:0:
320,192,70394,1,0,0:0:0:0:
64,192,70601,1,0,0:0:0:0:
192,192,70601,1,0,0:0:0:0:
448,192,70705,1,0,0:0:0:0:
320,192,70705,1,0,0:0:0:0:
64,192,70808,128,0,70911:0:0:0:0:
192,192,70808,128,0,70911:0:0:0:0:
448,192,71015,128,0,71118:0:0:0:0:
320,192,71015,128,0,71118:0:0:0:0:
448,192,71222,1,0,0:0:0:0:
64,192,71222,1,0,0:0:0:0:
320,192,71273,1,0,0:0:0:0:
192,192,71325,1,0,0:0:0:0:
64,192,71377,1,0,0:0:0:0:
320,192,71429,1,0,0:0:0:0:
448,192,71480,1,0,0:0:0:0:
192,192,71532,1,0,0:0:0:0:
320,192,71584,1,0,0:0:0:0:
64,192,71636,1,0,0:0:0:0:
192,192,71687,1,0,0:0:0:0:
448,192,71739,1,0,0:0:0:0:
320,192,71791,1,0,0:0:0:0:
192,192,71842,1,0,0:0:0:0:
64,192,71894,1,0,0:0:0:0:
320,192,71946,1,0,0:0:0:0:
448,192,71998,1,0,0:0:0:0:
64,192,72049,1,0,0:0:0:0:
192,192,72049,1,0,0:0:0:0:
448,192,72256,1,0,0:0:0:0:
64,192,72256,1,0,0:0:0:0:
320,192,72308,1,0,0:0:0:0:
192,192,72360,1,0,0:0:0:0:
448,192,72411,1,0,0:0:0:0:
64,192,72463,1,0,0:0:0:0:
64,192,72670,1,0,0:0:0:0:
448,192,72670,1,0,0:0:0:0:
192,192,72722,1,0,0:0:0:0:
320,192,72773,1,0,0:0:0:0:
448,192,72877,1,0,0:0:0:0:
64,192,72877,1,0,0:0:0:0:
320,192,72929,1,0,0:0:0:0:
192,192,72980,1,0,0:0:0:0:
64,192,73032,1,0,0:0:0:0:
448,192,73084,1,0,0:0:0:0:
320,192,73136,1,0,0:0:0:0:
192,192,73187,1,0,0:0:0:0:
448,192,73291,1,0,0:0:0:0:
64,192,73291,1,0,0:0:0:0:
192,192,73342,1,0,0:0:0:0:
320,192,73394,1,0,0:0:0:0:
448,192,73446,1,0,0:0:0:0:
64,192,73498,1,0,0:0:0:0:
192,192,73549,1,0,0:0:0:0:
320,192,73601,1,0,0:0:0:0:
448,192,73653,1,0,0:0:0:0:
192,192,73705,1,0,0:0:0:0:
64,192,73705,1,0,0:0:0:0:
448,192,73911,1,0,0:0:0:0:
320,192,73911,1,0,0:0:0:0:
192,192,74118,1,0,0:0:0:0:
320,192,74118,1,0,0:0:0:0:
192,192,74325,1,0,0:0:0:0:
64,192,74325,1,0,0:0:0:0:
64,192,74532,1,0,0:0:0:0:
448,192,74532,1,0,0:0:0:0:
192,192,74584,1,0,0:0:0:0:
320,192,74636,1,0,0:0:0:0:
448,192,74687,1,0,0:0:0:0:
192,192,74739,1,0,0:0:0:0:
64,192,74791,1,0,0:0:0:0:
320,192,74842,1,0,0:0:0:0:
192,192,74894,1,0,0:0:0:0:
448,192,74946,1,0,0:0:0:0:
320,192,74998,1,0,0:0:0:0:
64,192,75049,1,0,0:0:0:0:
192,192,75101,1,0,0:0:0:0:
320,192,75153,1,0,0:0:0:0:
448,192,75205,1,0,0:0:0:0:
192,192,75256,1,0,0:0:0:0:
64,192,75308,1,0,0:0:0:0:
320,192,75360,1,0,0:0:0:0:
448,192,75360,1,0,0:0:0:0:
64,192,75567,1,0,0:0:0:0:
448,192,75567,1,0,0:0:0:0:
192,192,75618,1,0,0:0:0:0:
320,192,75670,1,0,0:0:0:0:
64,192,75722,1,0,0:0:0:0:
448,192,75773,1,0,0:0:0:0:
448,192,75980,1,0,0:0:0:0:
64,192,75980,1,0,0:0:0:0:
320,192,76032,1,0,0:0:0:0:
192,192,76084,1,0,0:0:0:0:
64,192,76187,1,0,0:0:0:0:
448,192,76187,1,0,0:0:0:0:
192,192,76239,1,0,0:0:0:0:
320,192,76291,1,0,0:0:0:0:
448,192,76342,1,0,0:0:0:0:
64,192,76394,1,0,0:0:0:0:
192,192,76446,1,0,0:0:0:0:
320,192,76498,1,0,0:0:0:0:
448,192,76601,1,0,0:0:0:0:
64,192,76601,1,0,0:0:0:0:
320,192,76653,1,0,0:0:0:0:
192,192,76705,1,0,0:0:0:0:
64,192,76756,1,0,0:0:0:0:
448,192,76808,1,0,0:0:0:0:
320,192,76860,1,0,0:0:0:0:
192,192,76911,1,0,0:0:0:0:
64,192,76963,1,0,0:0:0:0:
320,192,77015,1,0,0:0:0:0:
448,192,77015,1,0,0:0:0:0:
192,192,77222,1,0,0:0:0:0:
64,192,77222,1,0,0:0:0:0:
320,192,77325,1,0,0:0:0:0:
448,192,77325,1,0,0:0:0:0:
192,192,77429,128,0,77532:0:0:0:0:
64,192,77429,128,0,77532:0:0:0:0:
320,192,77636,128,0,77739:0:0:0:0:
448,192,77636,128,0,77739:0:0:0:0:
64,192,77842,1,0,0:0:0:0:
448,192,77842,1,0,0:0:0:0:
320,192,77894,1,0,0:0:0:0:
192,192,77946,1,0,0:0:0:0:
64,192,77998,1,0,0:0:0:0:
320,192,78049,1,0,0:0:0:0:
448,192,78101,1,0,0:0:0:0:
192,192,78153,1,0,0:0:0:0:
320,192,78205,1,0,0:0:0:0:
64,192,78256,1,0,0:0:0:0:
192,192,78308,1,0,0:0:0:0:
448,192,78360,1,0,0:0:0:0:
320,192,78411,1,0,0:0:0:0:
192,192,78463,1,0,0:0:0:0:
64,192,78515,1,0,0:0:0:0:
320,192,78567,1,0,0:0:0:0:
448,192,78618,1,0,0:0:0:0:
192,192,78670,1,0,0:0:0:0:
64,192,78670,1,0,0:0:0:0:
64,192,78877,1,0,0:0:0:0:
448,192,78877,1,0,0:0:0:0:
320,192,78929,1,0,0:0:0:0:
192,192,78980,1,0,0:0:0:0:
448,192,79032,1,0,0:0:0:0:
64,192,79084,1,0,0:0:0:0:
448,192,79291,1,0,0:0:0:0:
64,192,79291,1,0,0:0:0:0:
192,192,79342,1,0,0:0:0:0:
320,192,79394,1,0,0:0:0:0:
64,192,79498,1,0,0:0:0:0:
448,192,79498,1,0,0:0:0:0:
320,192,79549,1,0,0:0:0:0:
192,192,79601,1,0,0:0:0:0:
64,192,79653,1,0,0:0:0:0:
448,192,79705,1,0,0:0:0:0:
320,192,79756,1,0,0:0:0:0:
192,192,79808,1,0,0:0:0:0:
64,192,79911,1,0,0:0:0:0:
448,192,79911,1,0,0:0:0:0:
192,192,79963,1,0,0:0:0:0:
320,192,80015,1,0,0:0:0:0:
448,192,80067,1,0,0:0:0:0:
64,192,80118,1,0,0:0:0:0:
192,192,80170,1,0,0:0:0:0:
320,192,80222,1,0,0:0:0:0:
448,192,80273,1,0,0:0:0:0:
64,192,80325,1,0,0:0:0:0:
192,192,80325,1,0,0:0:0:0:
320,192,80532,1,0,0:0:0:0:
448,192,80532,1,0,0:0:0:0:
192,192,80739,128,0,81049:0:0:0:0:
320,192,80739,128,0,81049:0:0:0:0:
448,192,81153,1,0,0:0:0:0:
64,192,81153,1,0,0:0:0:0:
192,192,81360,1,0,0:0:0:0:
320,192,81567,1,0,0:0:0:0:
320,192,81773,1,0,0:0:0:0:
192,192,81980,1,0,0:0:0:0:
192,192,82084,1,0,0:0:0:0:
320,192,82187,1,0,0:0:0:0:
64,192,82187,1,0,0:0:0:0:
192,192,82394,1,0,0:0:0:0:
448,192,82394,1,0,0:0:0:0:
448,192,82808,1,0,0:0:0:0:
64,192,82808,1,0,0:0:0:0:
320,192,83015,1,0,0:0:0:0:
64,192,83222,1,0,0:0:0:0:
192,192,83429,1,0,0:0:0:0:
320,192,83532,1,0,0:0:0:0:
320,192,83636,1,0,0:0:0:0:
192,192,83739,1,0,0:0:0:0:
192,192,83842,1,0,0:0:0:0:
64,192,84049,1,0,0:0:0:0:
448,192,84049,1,0,0:0:0:0:
320,192,84256,1,0,0:0:0:0:
192,192,84463,1,0,0:0:0:0:
64,192,84463,1,0,0:0:0:0:
192,192,84670,1,0,0:0:0:0:
320,192,84670,1,0,0:0:0:0:
320,192,84877,1,0,0:0:0:0:
448,192,84877,1,0,0:0:0:0:
320,192,85084,1,0,0:0:0:0:
192,192,85084,1,0,0:0:0:0:
192,192,85291,1,0,0:0:0:0:
64,192,85291,1,0,0:0:0:0:
64,192,85394,1,0,0:0:0:0:
192,192,85498,1,0,0:0:0:0:
320,192,85498,1,0,0:0:0:0:
448,192,85601,1,0,0:0:0:0:
320,192,85705,1,0,0:0:0:0:
448,192,85705,1,0,0:0:0:0:
64,192,85756,1,0,0:0:0:0:
64,192,85911,1,0,0:0:0:0:
192,192,85911,1,0,0:0:0:0:
448,192,85963,1,0,0:0:0:0:
64,192,86118,128,0,86429:0:0:0:0:
320,192,86118,128,0,86429:0:0:0:0:
192,192,86325,1,0,0:0:0:0:
448,192,86325,1,0,0:0:0:0:
192,192,86532,128,0,86842:0:0:0:0:
448,192,86532,128,0,86842:0:0:0:0:
320,192,86739,1,0,0:0:0:0:
64,192,86739,1,0,0:0:0:0:
192,192,86946,1,0,0:0:0:0:
320,192,86946,1,0,0:0:0:0:
320,192,87049,1,0,0:0:0:0:
192,192,87049,1,0,0:0:0:0:
192,192,87153,1,0,0:0:0:0:
320,192,87153,1,0,0:0:0:0:
320,192,87256,1,0,0:0:0:0:
192,192,87256,1,0,0:0:0:0:
192,192,87360,128,0,87670:0:0:0:0:
320,192,87360,128,0,87670:0:0:0:0:
64,192,87567,128,0,87670:0:0:0:0:
448,192,87567,128,0,87670:0:0:0:0:
64,192,87773,1,0,0:0:0:0:
448,192,87773,1,0,0:0:0:0:
192,192,87825,1,0,0:0:0:0:
320,192,87877,1,0,0:0:0:0:
448,192,87929,1,0,0:0:0:0:
192,192,87980,1,0,0:0:0:0:
64,192,88032,1,0,0:0:0:0:
320,192,88084,1,0,0:0:0:0:
192,192,88136,1,0,0:0:0:0:
448,192,88187,1,0,0:0:0:0:
320,192,88239,1,0,0:0:0:0:
64,192,88291,1,0,0:0:0:0:
192,192,88342,1,0,0:0:0:0:
320,192,88394,1,0,0:0:0:0:
448,192,88446,1,0,0:0:0:0:
192,192,88498,1,0,0:0:0:0:
64,192,88549,1,0,0:0:0:0:
320,192,88601,128,0,88653:0:0:0:0:
448,192,88601,128,0,88653:0:0:0:0:
192,192,88705,128,0,88756:0:0:0:0:
64,192,88705,128,0,88756:0:0:0:0:
320,192,88808,128,0,88860:0:0:0:0:
448,192,88808,128,0,88860:0:0:0:0:
192,192,88911,128,0,88963:0:0:0:0:
64,192,88911,128,0,88963:0:0:0:0:
320,192,89015,128,0,89067:0:0:0:0:
448,192,89015,128,0,89067:0:0:0:0:
64,192,89118,128,0,89170:0:0:0:0:
192,192,89118,128,0,89170:0:0:0:0:
320,192,89222,128,0,89273:0:0:0:0:
448,192,89222,128,0,89273:0:0:0:0:
192,192,89325,1,0,0:0:0:0:
64,192,89325,1,0,0:0:0:0:
64,192,89429,1,0,0:0:0:0:
448,192,89429,1,0,0:0:0:0:
320,192,89480,1,0,0:0:0:0:
192,192,89532,1,0,0:0:0:0:
64,192,89584,1,0,0:0:0:0:
320,192,89636,1,0,0:0:0:0:
448,192,89687,1,0,0:0:0:0:
192,192,89739,1,0,0:0:0:0:
320,192,89791,1,0,0:0:0:0:
64,192,89842,1,0,0:0:0:0:
192,192,89894,1,0,0:0:0:0:
448,192,89946,1,0,0:0:0:0:
320,192,89998,1,0,0:0:0:0:
192,192,90049,1,0,0:0:0:0:
64,192,90101,1,0,0:0:0:0:
320,192,90153,1,0,0:0:0:0:
448,192,90205,1,0,0:0:0:0:
64,192,90256,128,0,90360:0:0:0:0:
192,192,90256,128,0,90360:0:0:0:0:
320,192,90360,128,0,90463:0:0:0:0:
448,192,90360,128,0,90463:0:0:0:0:
64,192,90463,128,0,90567:0:0:0:0:
192,192,90463,128,0,90567:0:0:0:0:
320,192,90567,1,0,0:0:0:0:
448,192,90567,1,0,0:0:0:0:
64,192,90670,128,0,90773:0:0:0:0:
448,192,90670,128,0,90773:0:0:0:0:
320,192,90670,128,0,90773:0:0:0:0:
64,192,90877,128,0,90980:0:0:0:0:
448,192,90877,128,0,90980:0:0:0:0:
192,192,90877,128,0,90980:0:0:0:0:
64,192,91084,1,0,0:0:0:0:
448,192,91084,1,0,0:0:0:0:
192,192,91136,1,0,0:0:0:0:
320,192,91187,1,0,0:0:0:0:
448,192,91239,1,0,0:0:0:0:
192,192,91291,1,0,0:0:0:0:
64,192,91342,1,0,0:0:0:0:
320,192,91394,1,0,0:0:0:0:
192,192,91446,1,0,0:0:0:0:
448,192,91498,1,0,0:0:0:0:
320,192,91549,1,0,0:0:0:0:
64,192,91601,1,0,0:0:0:0:
192,192,91653,1,0,0:0:0:0:
320,192,91705,1,0,0:0:0:0:
448,192,91756,1,0,0:0:0:0:
192,192,91808,1,0,0:0:0:0:
64,192,91860,1,0,0:0:0:0:
320,192,91911,128,0,91963:0:0:0:0:
448,192,91911,128,0,91963:0:0:0:0:
192,192,92015,128,0,92067:0:0:0:0:
64,192,92015,128,0,92067:0:0:0:0:
320,192,92118,128,0,92170:0:0:0:0:
448,192,92118,128,0,92170:0:0:0:0:
64,192,92222,128,0,92273:0:0:0:0:
192,192,92222,128,0,92273:0:0:0:0:
320,192,92325,128,0,92429:0:0:0:0:
448,192,92325,128,0,92429:0:0:0:0:
64,192,92325,128,0,92429:0:0:0:0:
64,192,92532,128,0,92636:0:0:0:0:
192,192,92532,128,0,92636:0:0:0:0:
448,192,92532,128,0,92636:0:0:0:0:
64,192,92739,1,0,0:0:0:0:
448,192,92739,1,0,0:0:0:0:
320,192,92791,1,0,0:0:0:0:
192,192,92842,1,0,0:0:0:0:
64,192,92894,1,0,0:0:0:0:
320,192,92946,1,0,0:0:0:0:
448,192,92998,1,0,0:0:0:0:
192,192,93049,1,0,0:0:0:0:
320,192,93101,1,0,0:0:0:0:
64,192,93153,1,0,0:0:0:0:
192,192,93205,1,0,0:0:0:0:
448,192,93256,1,0,0:0:0:0:
320,192,93308,1,0,0:0:0:0:
192,192,93360,1,0,0:0:0:0:
64,192,93411,1,0,0:0:0:0:
320,192,93463,1,0,0:0:0:0:
448,192,93515,1,0,0:0:0:0:
64,192,93567,128,0,93670:0:0:0:0:
192,192,93567,128,0,93670:0:0:0:0:
320,192,93670,128,0,93773:0:0:0:0:
448,192,93670,128,0,93773:0:0:0:0:
64,192,93773,128,0,93877:0:0:0:0:
192,192,93773,128,0,93877:0:0:0:0:
320,192,93877,1,0,0:0:0:0:
448,192,93877,1,0,0:0:0:0:
64,192,93980,128,0,94084:0:0:0:0:
448,192,93980,128,0,94084:0:0:0:0:
320,192,93980,128,0,94084:0:0:0:0:
64,192,94187,128,0,94291:0:0:0:0:
448,192,94187,128,0,94291:0:0:0:0:
192,192,94187,128,0,94291:0:0:0:0:
64,192,94394,1,0,0:0:0:0:
192,192,94394,1,0,0:0:0:0:
448,192,94394,1,0,0:0:0:0:
64,192,94601,1,0,0:0:0:0:
192,192,94601,1,0,0:0:0:0:
320,192,94705,1,0,0:0:0:0:
448,192,94808,1,0,0:0:0:0:
192,192,94808,1,0,0:0:0:0:
64,192,94808,1,0,0:0:0:0:
64,192,95015,1,0,0:0:0:0:
192,192,95015,1,0,0:0:0:0:
192,192,95222,1,0,0:0:0:0:
320,192,95222,1,0,0:0:0:0:
192,192,95429,1,0,0:0:0:0:
320,192,95429,1,0,0:0:0:0:
320,192,95636,1,0,0:0:0:0:
448,192,95636,1,0,0:0:0:0:
448,192,95842,1,0,0:0:0:0:
320,192,95842,1,0,0:0:0:0:
192,192,95946,1,0,0:0:0:0:
448,192,96049,1,0,0:0:0:0:
64,192,96049,1,0,0:0:0:0:
320,192,96049,1,0,0:0:0:0:
320,192,96256,1,0,0:0:0:0:
448,192,96256,1,0,0:0:0:0:
192,192,96360,1,0,0:0:0:0:
64,192,96463,1,0,0:0:0:0:
320,192,96463,1,0,0:0:0:0:
448,192,96463,1,0,0:0:0:0:
320,192,96670,1,0,0:0:0:0:
448,192,96670,1,0,0:0:0:0:
320,192,96877,1,0,0:0:0:0:
192,192,96877,1,0,0:0:0:0:
192,192,97084,1,0,0:0:0:0:
320,192,97084,1,0,0:0:0:0:
192,192,97291,1,0,0:0:0:0:
64,192,97291,1,0,0:0:0:0:
64,192,97498,1,0,0:0:0:0:
192,192,97498,1,0,0:0:0:0:
320,192,97601,1,0,0:0:0:0:
64,192,97705,1,0,0:0:0:0:
192,192,97705,1,0,0:0:0:0:
448,192,97705,1,0,0:0:0:0:
64,192,97911,1,0,0:0:0:0:
192,192,97911,1,0,0:0:0:0:
320,192,98015,1,0,0:0:0:0:
448,192,98118,1,0,0:0:0:0:
192,192,98118,1,0,0:0:0:0:
64,192,98118,1,0,0:0:0:0:
64,192,98325,1,0,0:0:0:0:
192,192,98325,1,0,0:0:0:0:
192,192,98532,1,0,0:0:0:0:
320,192,98532,1,0,0:0:0:0:
192,192,98739,1,0,0:0:0:0:
320,192,98739,1,0,0:0:0:0:
320,192,98946,1,0,0:0:0:0:
448,192,98946,1,0,0:0:0:0:
448,192,99153,1,0,0:0:0:0:
320,192,99153,1,0,0:0:0:0:
192,192,99256,1,0,0:0:0:0:
448,192,99360,1,0,0:0:0:0:
64,192,99360,1,0,0:0:0:0:
320,192,99360,1,0,0:0:0:0:
320,192,99567,1,0,0:0:0:0:
448,192,99567,1,0,0:0:0:0:
192,192,99670,1,0,0:0:0:0:
64,192,99773,1,0,0:0:0:0:
320,192,99773,1,0,0:0:0:0:
448,192,99773,1,0,0:0:0:0:
320,192,99980,1,0,0:0:0:0:
448,192,99980,1,0,0:0:0:0:
320,192,100187,1,0,0:0:0:0:
192,192,100187,1,0,0:0:0:0:
192,192,100394,1,0,0:0:0:0:
320,192,100394,1,0,0:0:0:0:
192,192,100601,1,0,0:0:0:0:
64,192,100601,1,0,0:0:0:0:
64,192,100808,1,0,0:0:0:0:
192,192,100808,1,0,0:0:0:0:
320,192,100911,1,0,0:0:0:0:
448,192,101015,1,0,0:0:0:0:
192,192,101015,1,0,0:0:0:0:
64,192,101015,1,0,0:0:0:0:
192,192,101222,1,0,0:0:0:0:
64,192,101222,1,0,0:0:0:0:
320,192,101325,1,0,0:0:0:0:
64,192,101429,1,0,0:0:0:0:
192,192,101429,1,0,0:0:0:0:
448,192,101429,1,0,0:0:0:0:
192,192,101636,1,0,0:0:0:0:
64,192,101636,1,0,0:0:0:0:
448,192,101739,1,0,0:0:0:0:
320,192,101842,1,0,0:0:0:0:
192,192,101842,1,0,0:0:0:0:
320,192,102049,1,0,0:0:0:0:
192,192,102049,1,0,0:0:0:0:
64,192,102153,1,0,0:0:0:0:
448,192,102256,1,0,0:0:0:0:
320,192,102256,1,0,0:0:0:0:
320,192,102463,1,0,0:0:0:0:
448,192,102463,1,0,0:0:0:0:
192,192,102567,1,0,0:0:0:0:
320,192,102670,1,0,0:0:0:0:
64,192,102670,1,0,0:0:0:0:
448,192,102670,1,0,0:0:0:0:
448,192,102877,1,0,0:0:0:0:
320,192,102877,1,0,0:0:0:0:
192,192,102980,1,0,0:0:0:0:
448,192,103084,1,0,0:0:0:0:
320,192,103084,1,0,0:0:0:0:
64,192,103084,1,0,0:0:0:0:
448,192,103291,1,0,0:0:0:0:
320,192,103291,1,0,0:0:0:0:
64,192,103394,1,0,0:0:0:0:
192,192,103498,1,0,0:0:0:0:
320,192,103498,1,0,0:0:0:0:
320,192,103705,1,0,0:0:0:0:
192,192,103705,1,0,0:0:0:0:
448,192,103808,1,0,0:0:0:0:
64,192,103911,1,0,0:0:0:0:
192,192,103911,1,0,0:0:0:0:
192,192,104118,1,0,0:0:0:0:
64,192,104118,1,0,0:0:0:0:
320,192,104222,1,0,0:0:0:0:
64,192,104325,1,0,0:0:0:0:
192,192,104325,1,0,0:0:0:0:
448,192,104429,1,0,0:0:0:0:
320,192,104429,1,0,0:0:0:0:
64,192,104532,1,0,0:0:0:0:
192,192,104532,1,0,0:0:0:0:
320,192,104636,1,0,0:0:0:0:
448,192,104636,1,0,0:0:0:0:
64,192,104739,1,0,0:0:0:0:
192,192,104739,1,0,0:0:0:0:
448,192,104842,1,0,0:0:0:0:
320,192,104842,1,0,0:0:0:0:
192,192,104946,1,0,0:0:0:0:
64,192,104946,1,0,0:0:0:0:
448,192,105049,1,0,0:0:0:0:
320,192,105049,1,0,0:0:0:0:
192,192,105153,1,0,0:0:0:0:
64,192,105153,1,0,0:0:0:0:
320,192,105256,1,0,0:0:0:0:
448,192,105256,1,0,0:0:0:0:
64,192,105360,1,0,0:0:0:0:
192,192,105360,1,0,0:0:0:0:
320,192,105463,1,0,0:0:0:0:
448,192,105463,1,0,0:0:0:0:
64,192,105567,1,0,0:0:0:0:
192,192,105567,1,0,0:0:0:0:
448,192,105670,1,0,0:0:0:0:
320,192,105670,1,0,0:0:0:0:
192,192,105773,1,0,0:0:0:0:
64,192,105773,1,0,0:0:0:0:
448,192,105877,1,0,0:0:0:0:
320,192,105877,1,0,0:0:0:0:
64,192,105980,128,0,106394:0:0:0:0:
192,192,105980,128,0,106187:0:0:0:0:
448,192,106187,128,0,106394:0:0:0:0:
320,192,106394,128,0,106808:0:0:0:0:
192,192,106394,128,0,106601:0:0:0:0:
448,192,106601,128,0,106808:0:0:0:0:
64,192,106808,128,0,107429:0:0:0:0:
192,192,106808,128,0,107015:0:0:0:0:
448,192,107015,128,0,107429:0:0:0:0:
320,192,107222,128,0,107429:0:0:0:0:
192,192,107222,128,0,107429:0:0:0:0:
192,192,107636,5,0,0:0:0:0:
448,192,107636,1,0,0:0:0:0:
64,192,107636,128,0,107739:0:0:0:0:
320,192,107739,128,0,107842:0:0:0:0:
64,192,107842,128,0,107946:0:0:0:0:
192,192,107946,128,0,108049:0:0:0:0:
320,192,108049,1,0,0:0:0:0:
448,192,108049,1,0,0:0:0:0:
64,192,108049,128,0,108153:0:0:0:0:
192,192,108153,1,0,0:0:0:0:
448,192,108256,128,0,108360:0:0:0:0:
320,192,108360,1,0,0:0:0:0:
64,192,108463,1,0,0:0:0:0:
448,192,108463,1,0,0:0:0:0:
192,192,108463,128,0,108567:0:0:0:0:
320,192,108567,1,0,0:0:0:0:
64,192,108670,128,0,108773:0:0:0:0:
192,192,108773,1,0,0:0:0:0:
64,192,108877,1,0,0:0:0:0:
448,192,108877,1,0,0:0:0:0:
320,192,108877,128,0,108980:0:0:0:0:
192,192,108980,1,0,0:0:0:0:
448,192,109084,128,0,109187:0:0:0:0:
64,192,109187,1,0,0:0:0:0:
320,192,109291,1,0,0:0:0:0:
448,192,109291,1,0,0:0:0:0:
192,192,109291,128,0,109394:0:0:0:0:
64,192,109394,128,0,109498:0:0:0:0:
192,192,109498,128,0,109601:0:0:0:0:
448,192,109601,128,0,109705:0:0:0:0:
64,192,109705,1,0,0:0:0:0:
192,192,109705,1,0,0:0:0:0:
320,192,109705,128,0,109808:0:0:0:0:
448,192,109808,1,0,0:0:0:0:
320,192,109911,128,0,110015:0:0:0:0:
64,192,110015,1,0,0:0:0:0:
320,192,110118,1,0,0:0:0:0:
448,192,110118,1,0,0:0:0:0:
192,192,110118,128,0,110222:0:0:0:0:
64,192,110222,1,0,0:0:0:0:
192,192,110325,128,0,110429:0:0:0:0:
448,192,110429,128,0,110532:0:0:0:0:
64,192,110532,1,0,0:0:0:0:
192,192,110532,1,0,0:0:0:0:
320,192,110532,128,0,110636:0:0:0:0:
448,192,110636,1,0,0:0:0:0:
192,192,110739,128,0,110842:0:0:0:0:
320,192,110842,1,0,0:0:0:0:
192,192,110946,1,0,0:0:0:0:
448,192,110946,1,0,0:0:0:0:
64,192,110946,128,0,111049:0:0:0:0:
320,192,111049,128,0,111153:0:0:0:0:
64,192,111153,128,0,111256:0:0:0:0:
192,192,111256,128,0,111360:0:0:0:0:
320,192,111360,1,0,0:0:0:0:
448,192,111360,1,0,0:0:0:0:
64,192,111360,128,0,111463:0:0:0:0:
192,192,111463,1,0,0:0:0:0:
448,192,111567,128,0,111670:0:0:0:0:
320,192,111670,1,0,0:0:0:0:
64,192,111773,1,0,0:0:0:0:
448,192,111773,1,0,0:0:0:0:
192,192,111773,128,0,111877:0:0:0:0:
320,192,111877,1,0,0:0:0:0:
64,192,111980,128,0,112084:0:0:0:0:
192,192,112084,1,0,0:0:0:0:
64,192,112187,1,0,0:0:0:0:
448,192,112187,1,0,0:0:0:0:
320,192,112187,128,0,112291:0:0:0:0:
192,192,112291,1,0,0:0:0:0:
448,192,112394,128,0,112498:0:0:0:0:
64,192,112498,1,0,0:0:0:0:
320,192,112601,1,0,0:0:0:0:
448,192,112601,1,0,0:0:0:0:
192,192,112601,128,0,112705:0:0:0:0:
64,192,112705,128,0,112808:0:0:0:0:
192,192,112808,128,0,112911:0:0:0:0:
448,192,112911,128,0,113015:0:0:0:0:
64,192,113015,1,0,0:0:0:0:
192,192,113015,1,0,0:0:0:0:
320,192,113015,128,0,113118:0:0:0:0:
448,192,113118,1,0,0:0:0:0:
320,192,113222,128,0,113325:0:0:0:0:
64,192,113325,128,0,113429:0:0:0:0:
320,192,113429,1,0,0:0:0:0:
448,192,113429,1,0,0:0:0:0:
192,192,113429,128,0,113532:0:0:0:0:
64,192,113532,1,0,0:0:0:0:
192,192,113636,128,0,113739:0:0:0:0:
448,192,113739,128,0,113842:0:0:0:0:
64,192,113842,1,0,0:0:0:0:
192,192,113842,1,0,0:0:0:0:
320,192,113842,128,0,113946:0:0:0:0:
448,192,113946,1,0,0:0:0:0:
192,192,114049,128,0,114153:0:0:0:0:
320,192,114153,1,0,0:0:0:0:
192,192,114256,5,0,0:0:0:0:
448,192,114256,1,0,0:0:0:0:
64,192,114256,128,0,114360:0:0:0:0:
320,192,114360,128,0,114463:0:0:0:0:
64,192,114463,128,0,114567:0:0:0:0:
192,192,114567,128,0,114670:0:0:0:0:
320,192,114670,1,0,0:0:0:0:
448,192,114670,1,0,0:0:0:0:
64,192,114670,128,0,114773:0:0:0:0:
192,192,114773,1,0,0:0:0:0:
448,192,114877,128,0,114980:0:0:0:0:
320,192,114980,1,0,0:0:0:0:
64,192,115084,1,0,0:0:0:0:
448,192,115084,1,0,0:0:0:0:
192,192,115084,128,0,115187:0:0:0:0:
320,192,115187,1,0,0:0:0:0:
64,192,115291,128,0,115394:0:0:0:0:
192,192,115394,1,0,0:0:0:0:
64,192,115498,1,0,0:0:0:0:
448,192,115498,1,0,0:0:0:0:
320,192,115498,128,0,115601:0:0:0:0:
192,192,115601,1,0,0:0:0:0:
448,192,115705,128,0,115808:0:0:0:0:
64,192,115808,1,0,0:0:0:0:
320,192,115911,1,0,0:0:0:0:
448,192,115911,1,0,0:0:0:0:
192,192,115911,128,0,116015:0:0:0:0:
64,192,116015,128,0,116118:0:0:0:0:
192,192,116118,128,0,116222:0:0:0:0:
448,192,116222,128,0,116325:0:0:0:0:
64,192,116325,1,0,0:0:0:0:
192,192,116325,1,0,0:0:0:0:
320,192,116325,128,0,116429:0:0:0:0:
448,192,116429,1,0,0:0:0:0:
320,192,116532,128,0,116636:0:0:0:0:
64,192,116636,1,0,0:0:0:0:
320,192,116739,1,0,0:0:0:0:
192,192,116739,128,0,116842:0:0:0:0:
448,192,116739,128,0,116842:0:0:0:0:
64,192,116842,1,0,0:0:0:0:
192,192,116946,128,0,117049:0:0:0:0:
448,192,117049,1,0,0:0:0:0:
192,192,117153,1,0,0:0:0:0:
320,192,117153,128,0,117256:0:0:0:0:
64,192,117153,128,0,117256:0:0:0:0:
448,192,117256,1,0,0:0:0:0:
192,192,117360,128,0,117463:0:0:0:0:
320,192,117463,1,0,0:0:0:0:
192,192,117567,1,0,0:0:0:0:
448,192,117567,1,0,0:0:0:0:
64,192,117567,128,0,117670:0:0:0:0:
320,192,117670,128,0,117773:0:0:0:0:
64,192,117773,128,0,117877:0:0:0:0:
192,192,117877,128,0,117980:0:0:0:0:
320,192,117980,1,0,0:0:0:0:
448,192,117980,1,0,0:0:0:0:
64,192,117980,128,0,118084:0:0:0:0:
192,192,118084,1,0,0:0:0:0:
448,192,118187,128,0,118291:0:0:0:0:
320,192,118291,1,0,0:0:0:0:
64,192,118394,1,0,0:0:0:0:
448,192,118394,1,0,0:0:0:0:
192,192,118394,128,0,118498:0:0:0:0:
320,192,118498,1,0,0:0:0:0:
64,192,118601,128,0,118705:0:0:0:0:
192,192,118705,1,0,0:0:0:0:
64,192,118808,1,0,0:0:0:0:
448,192,118808,1,0,0:0:0:0:
320,192,118808,128,0,118911:0:0:0:0:
192,192,118911,1,0,0:0:0:0:
448,192,119015,128,0,119118:0:0:0:0:
64,192,119118,1,0,0:0:0:0:
320,192,119222,1,0,0:0:0:0:
448,192,119222,1,0,0:0:0:0:
192,192,119222,128,0,119325:0:0:0:0:
64,192,119325,128,0,119429:0:0:0:0:
192,192,119429,128,0,119532:0:0:0:0:
448,192,119532,128,0,119636:0:0:0:0:
64,192,119636,1,0,0:0:0:0:
192,192,119636,1,0,0:0:0:0:
320,192,119636,128,0,119739:0:0:0:0:
448,192,119739,1,0,0:0:0:0:
320,192,119842,128,0,119946:0:0:0:0:
64,192,119946,128,0,120049:0:0:0:0:
320,192,120049,1,0,0:0:0:0:
448,192,120049,1,0,0:0:0:0:
192,192,120049,128,0,120153:0:0:0:0:
64,192,120153,1,0,0:0:0:0:
192,192,120256,128,0,120360:0:0:0:0:
448,192,120360,128,0,120463:0:0:0:0:
64,192,120463,1,0,0:0:0:0:
192,192,120463,1,0,0:0:0:0:
320,192,120463,128,0,120567:0:0:0:0:
448,192,120567,1,0,0:0:0:0:
192,192,120670,128,0,120773:0:0:0:0:
320,192,120773,1,0,0:0:0:0:
192,192,120877,5,0,0:0:0:0:
64,192,120877,128,0,120980:0:0:0:0:
448,192,120877,128,0,120929:0:0:0:0:
320,192,120980,128,0,121084:0:0:0:0:
64,192,121084,128,0,121187:0:0:0:0:
192,192,121187,128,0,121291:0:0:0:0:
320,192,121291,1,0,0:0:0:0:
448,192,121291,1,0,0:0:0:0:
64,192,121291,128,0,121394:0:0:0:0:
192,192,121394,1,0,0:0:0:0:
448,192,121498,128,0,121601:0:0:0:0:
320,192,121601,1,0,0:0:0:0:
64,192,121705,1,0,0:0:0:0:
448,192,121705,1,0,0:0:0:0:
192,192,121705,128,0,121808:0:0:0:0:
320,192,121808,1,0,0:0:0:0:
64,192,121911,128,0,122015:0:0:0:0:
192,192,122015,1,0,0:0:0:0:
448,192,122118,1,0,0:0:0:0:
320,192,122118,128,0,122222:0:0:0:0:
64,192,122118,128,0,122170:0:0:0:0:
192,192,122222,1,0,0:0:0:0:
448,192,122325,128,0,122429:0:0:0:0:
64,192,122429,1,0,0:0:0:0:
320,192,122532,1,0,0:0:0:0:
192,192,122532,128,0,122636:0:0:0:0:
448,192,122532,128,0,122584:0:0:0:0:
64,192,122636,128,0,122739:0:0:0:0:
192,192,122739,128,0,122842:0:0:0:0:
448,192,122842,128,0,122946:0:0:0:0:
64,192,122946,1,0,0:0:0:0:
192,192,122946,1,0,0:0:0:0:
320,192,122946,128,0,123049:0:0:0:0:
448,192,123049,1,0,0:0:0:0:
320,192,123153,128,0,123256:0:0:0:0:
64,192,123256,1,0,0:0:0:0:
320,192,123360,1,0,0:0:0:0:
192,192,123360,128,0,123463:0:0:0:0:
448,192,123360,128,0,123411:0:0:0:0:
64,192,123463,1,0,0:0:0:0:
192,192,123567,128,0,123670:0:0:0:0:
448,192,123670,128,0,123773:0:0:0:0:
64,192,123773,1,0,0:0:0:0:
192,192,123773,1,0,0:0:0:0:
320,192,123773,128,0,123877:0:0:0:0:
448,192,123877,1,0,0:0:0:0:
192,192,123980,128,0,124084:0:0:0:0:
320,192,124084,1,0,0:0:0:0:
448,192,124187,1,0,0:0:0:0:
64,192,124187,128,0,124291:0:0:0:0:
192,192,124187,128,0,124239:0:0:0:0:
320,192,124291,128,0,124394:0:0:0:0:
64,192,124394,128,0,124498:0:0:0:0:
192,192,124498,128,0,124601:0:0:0:0:
320,192,124601,1,0,0:0:0:0:
448,192,124601,1,0,0:0:0:0:
64,192,124601,128,0,124705:0:0:0:0:
192,192,124705,1,0,0:0:0:0:
448,192,124808,128,0,124911:0:0:0:0:
320,192,124911,1,0,0:0:0:0:
64,192,125015,1,0,0:0:0:0:
448,192,125015,1,0,0:0:0:0:
192,192,125015,128,0,125118:0:0:0:0:
320,192,125118,1,0,0:0:0:0:
64,192,125222,128,0,125325:0:0:0:0:
192,192,125325,1,0,0:0:0:0:
448,192,125429,1,0,0:0:0:0:
320,192,125429,128,0,125532:0:0:0:0:
64,192,125429,128,0,125480:0:0:0:0:
192,192,125532,1,0,0:0:0:0:
448,192,125636,128,0,125739:0:0:0:0:
64,192,125739,1,0,0:0:0:0:
320,192,125842,1,0,0:0:0:0:
192,192,125842,128,0,125946:0:0:0:0:
448,192,125842,128,0,125894:0:0:0:0:
64,192,125946,128,0,126049:0:0:0:0:
192,192,126049,128,0,126153:0:0:0:0:
448,192,126153,128,0,126256:0:0:0:0:
64,192,126256,1,0,0:0:0:0:
192,192,126256,1,0,0:0:0:0:
320,192,126256,128,0,126360:0:0:0:0:
448,192,126360,1,0,0:0:0:0:
320,192,126463,128,0,126567:0:0:0:0:
64,192,126567,128,0,126670:0:0:0:0:
320,192,126670,1,0,0:0:0:0:
192,192,126670,128,0,126773:0:0:0:0:
448,192,126670,128,0,126722:0:0:0:0:
64,192,126773,1,0,0:0:0:0:
192,192,126877,128,0,126980:0:0:0:0:
448,192,126980,128,0,127084:0:0:0:0:
64,192,127084,1,0,0:0:0:0:
192,192,127084,1,0,0:0:0:0:
320,192,127084,128,0,127187:0:0:0:0:
448,192,127187,1,0,0:0:0:0:
192,192,127291,128,0,127394:0:0:0:0:
320,192,127394,1,0,0:0:0:0:
192,192,127498,5,0,0:0:0:0:
64,192,127498,128,0,127601:0:0:0:0:
448,192,127498,128,0,127549:0:0:0:0:
320,192,127601,128,0,127705:0:0:0:0:
64,192,127705,128,0,127808:0:0:0:0:
192,192,127808,128,0,127911:0:0:0:0:
320,192,127911,1,0,0:0:0:0:
448,192,127911,1,0,0:0:0:0:
64,192,127911,128,0,128015:0:0:0:0:
192,192,128015,1,0,0:0:0:0:
448,192,128118,128,0,128222:0:0:0:0:
320,192,128222,1,0,0:0:0:0:
64,192,128325,1,0,0:0:0:0:
448,192,128325,1,0,0:0:0:0:
192,192,128325,128,0,128429:0:0:0:0:
320,192,128429,1,0,0:0:0:0:
64,192,128532,128,0,128636:0:0:0:0:
192,192,128636,1,0,0:0:0:0:
448,192,128739,1,0,0:0:0:0:
320,192,128739,128,0,128842:0:0:0:0:
64,192,128739,128,0,128791:0:0:0:0:
192,192,128842,1,0,0:0:0:0:
448,192,128946,128,0,129049:0:0:0:0:
64,192,129049,1,0,0:0:0:0:
320,192,129153,1,0,0:0:0:0:
192,192,129153,128,0,129256:0:0:0:0:
448,192,129153,128,0,129205:0:0:0:0:
64,192,129256,128,0,129360:0:0:0:0:
192,192,129360,128,0,129463:0:0:0:0:
448,192,129463,128,0,129567:0:0:0:0:
64,192,129567,1,0,0:0:0:0:
192,192,129567,1,0,0:0:0:0:
320,192,129567,128,0,129670:0:0:0:0:
448,192,129670,1,0,0:0:0:0:
320,192,129773,128,0,129877:0:0:0:0:
64,192,129877,1,0,0:0:0:0:
192,192,129980,128,0,130084:0:0:0:0:
448,192,129980,128,0,130084:0:0:0:0:
320,192,129980,128,0,130032:0:0:0:0:
64,192,130084,1,0,0:0:0:0:
192,192,130187,128,0,130291:0:0:0:0:
448,192,130291,1,0,0:0:0:0:
192,192,130394,1,0,0:0:0:0:
320,192,130394,128,0,130498:0:0:0:0:
64,192,130394,128,0,130498:0:0:0:0:
448,192,130498,1,0,0:0:0:0:
192,192,130601,128,0,130705:0:0:0:0:
320,192,130705,1,0,0:0:0:0:
192,192,130808,1,0,0:0:0:0:
64,192,130808,128,0,130911:0:0:0:0:
448,192,130808,128,0,130860:0:0:0:0:
320,192,130911,128,0,131015:0:0:0:0:
64,192,131015,128,0,131118:0:0:0:0:
192,192,131118,128,0,131222:0:0:0:0:
320,192,131222,1,0,0:0:0:0:
448,192,131222,1,0,0:0:0:0:
64,192,131222,128,0,131325:0:0:0:0:
192,192,131325,1,0,0:0:0:0:
448,192,131429,128,0,131532:0:0:0:0:
320,192,131532,1,0,0:0:0:0:
64,192,131636,1,0,0:0:0:0:
448,192,131636,1,0,0:0:0:0:
192,192,131636,128,0,131739:0:0:0:0:
320,192,131739,1,0,0:0:0:0:
64,192,131842,128,0,131946:0:0:0:0:
192,192,131946,1,0,0:0:0:0:
64,192,132049,1,0,0:0:0:0:
320,192,132049,128,0,132153:0:0:0:0:
448,192,132049,128,0,132101:0:0:0:0:
192,192,132153,1,0,0:0:0:0:
448,192,132256,128,0,132360:0:0:0:0:
64,192,132360,1,0,0:0:0:0:
448,192,132463,1,0,0:0:0:0:
192,192,132463,128,0,132567:0:0:0:0:
320,192,132463,128,0,132515:0:0:0:0:
64,192,132567,128,0,132670:0:0:0:0:
192,192,132670,128,0,132773:0:0:0:0:
448,192,132773,128,0,132877:0:0:0:0:
64,192,132877,1,0,0:0:0:0:
192,192,132877,1,0,0:0:0:0:
320,192,132877,128,0,132980:0:0:0:0:
448,192,132980,1,0,0:0:0:0:
320,192,133084,128,0,133187:0:0:0:0:
64,192,133187,128,0,133291:0:0:0:0:
320,192,133291,1,0,0:0:0:0:
192,192,133291,128,0,133394:0:0:0:0:
448,192,133291,1,0,0:0:0:0:
64,192,133394,1,0,0:0:0:0:
192,192,133498,128,0,133601:0:0:0:0:
448,192,133601,128,0,133705:0:0:0:0:
64,192,133705,1,0,0:0:0:0:
192,192,133705,1,0,0:0:0:0:
320,192,133705,128,0,133808:0:0:0:0:
448,192,133808,1,0,0:0:0:0:
192,192,133911,128,0,134015:0:0:0:0:
320,192,134015,1,0,0:0:0:0:
64,192,134118,5,0,0:0:0:0:
320,192,134118,1,0,0:0:0:0:
448,192,134118,1,0,0:0:0:0:
64,192,134325,1,0,0:0:0:0:
192,192,134325,1,0,0:0:0:0:
320,192,134429,1,0,0:0:0:0:
448,192,134532,128,0,134946:0:0:0:0:
192,192,134532,1,0,0:0:0:0:
64,192,134532,1,0,0:0:0:0:
64,192,134739,1,0,0:0:0:0:
192,192,134842,1,0,0:0:0:0:
320,192,134946,128,0,135360:0:0:0:0:
64,192,134946,1,0,0:0:0:0:
64,192,135153,1,0,0:0:0:0:
192,192,135360,128,0,135567:0:0:0:0:
448,192,135360,1,0,0:0:0:0:
320,192,135567,128,0,135773:0:0:0:0:
64,192,135670,1,0,0:0:0:0:
192,192,135773,128,0,135980:0:0:0:0:
320,192,135980,128,0,136187:0:0:0:0:
448,192,135980,1,0,0:0:0:0:
64,192,136187,128,0,136394:0:0:0:0:
192,192,136187,128,0,136394:0:0:0:0:
448,192,136394,1,0,0:0:0:0:
320,192,136498,1,0,0:0:0:0:
64,192,136601,128,0,136808:0:0:0:0:
448,192,136601,128,0,136808:0:0:0:0:
192,192,136705,1,0,0:0:0:0:
320,192,136808,1,0,0:0:0:0:
192,192,136911,1,0,0:0:0:0:
320,192,137015,128,0,137222:0:0:0:0:
448,192,137015,128,0,137222:0:0:0:0:
64,192,137015,1,0,0:0:0:0:
64,192,137222,1,0,0:0:0:0:
192,192,137325,1,0,0:0:0:0:
64,192,137429,1,0,0:0:0:0:
448,192,137429,128,0,138049:0:0:0:0:
320,192,137429,1,0,0:0:0:0:
192,192,137636,1,0,0:0:0:0:
320,192,137739,1,0,0:0:0:0:
64,192,137842,1,0,0:0:0:0:
192,192,137842,1,0,0:0:0:0:
320,192,138049,1,0,0:0:0:0:
192,192,138153,1,0,0:0:0:0:
64,192,138256,128,0,138360:0:0:0:0:
448,192,138256,1,0,0:0:0:0:
320,192,138360,128,0,138463:0:0:0:0:
192,192,138463,128,0,138567:0:0:0:0:
64,192,138463,1,0,0:0:0:0:
448,192,138567,128,0,138670:0:0:0:0:
192,192,138670,128,0,138773:0:0:0:0:
64,192,138670,1,0,0:0:0:0:
320,192,138773,128,0,138877:0:0:0:0:
64,192,138877,128,0,138980:0:0:0:0:
448,192,138877,1,0,0:0:0:0:
320,192,138980,128,0,139084:0:0:0:0:
448,192,139084,1,0,0:0:0:0:
192,192,139084,128,0,139291:0:0:0:0:
64,192,139084,128,0,139291:0:0:0:0:
320,192,139291,1,0,0:0:0:0:
448,192,139394,1,0,0:0:0:0:
64,192,139498,128,0,139705:0:0:0:0:
320,192,139498,128,0,139705:0:0:0:0:
192,192,139498,1,0,0:0:0:0:
448,192,139705,1,0,0:0:0:0:
192,192,139808,1,0,0:0:0:0:
320,192,139911,128,0,140118:0:0:0:0:
448,192,139911,128,0,140118:0:0:0:0:
64,192,139911,1,0,0:0:0:0:
192,192,140015,1,0,0:0:0:0:
64,192,140118,1,0,0:0:0:0:
320,192,140222,1,0,0:0:0:0:
64,192,140325,128,0,140532:0:0:0:0:
448,192,140325,128,0,140532:0:0:0:0:
192,192,140532,1,0,0:0:0:0:
320,192,140636,1,0,0:0:0:0:
64,192,140739,128,0,140946:0:0:0:0:
448,192,140739,128,0,141153:0:0:0:0:
192,192,140739,1,0,0:0:0:0:
320,192,140946,1,0,0:0:0:0:
192,192,141049,1,0,0:0:0:0:
64,192,141153,1,0,0:0:0:0:
320,192,141153,1,0,0:0:0:0:
320,192,141360,1,0,0:0:0:0:
192,192,141463,1,0,0:0:0:0:
448,192,141567,1,0,0:0:0:0:
320,192,141567,128,0,141670:0:0:0:0:
64,192,141567,1,0,0:0:0:0:
192,192,141670,128,0,141773:0:0:0:0:
448,192,141773,128,0,141877:0:0:0:0:
64,192,141773,1,0,0:0:0:0:
192,192,141877,128,0,141980:0:0:0:0:
320,192,141980,128,0,142084:0:0:0:0:
64,192,141980,1,0,0:0:0:0:
64,192,142084,128,0,142187:0:0:0:0:
320,192,142187,128,0,142291:0:0:0:0:
448,192,142187,1,0,0:0:0:0:
192,192,142291,128,0,142394:0:0:0:0:
64,192,142394,1,0,0:0:0:0:
448,192,142394,128,0,142808:0:0:0:0:
320,192,142601,128,0,142808:0:0:0:0:
64,192,142601,1,0,0:0:0:0:
192,192,142705,1,0,0:0:0:0:
64,192,142808,128,0,143222:0:0:0:0:
192,192,143015,128,0,143222:0:0:0:0:
448,192,143015,1,0,0:0:0:0:
320,192,143118,1,0,0:0:0:0:
448,192,143222,128,0,143636:0:0:0:0:
320,192,143429,128,0,143636:0:0:0:0:
192,192,143429,1,0,0:0:0:0:
64,192,143532,1,0,0:0:0:0:
192,192,143636,128,0,144049:0:0:0:0:
64,192,143842,128,0,144049:0:0:0:0:
320,192,143842,1,0,0:0:0:0:
448,192,143946,1,0,0:0:0:0:
320,192,144049,128,0,144256:0:0:0:0:
64,192,144256,1,0,0:0:0:0:
448,192,144256,1,0,0:0:0:0:
192,192,144360,1,0,0:0:0:0:
320,192,144463,128,0,144567:0:0:0:0:
448,192,144463,1,0,0:0:0:0:
192,192,144567,128,0,144670:0:0:0:0:
448,192,144670,128,0,144773:0:0:0:0:
64,192,144670,1,0,0:0:0:0:
192,192,144773,128,0,144877:0:0:0:0:
64,192,144877,1,0,0:0:0:0:
320,192,144877,128,0,145084:0:0:0:0:
448,192,145084,128,0,145187:0:0:0:0:
64,192,145084,128,0,145187:0:0:0:0:
192,192,145187,128,0,145291:0:0:0:0:
320,192,145291,128,0,145394:0:0:0:0:
448,192,145291,128,0,145394:0:0:0:0:
64,192,145394,128,0,145498:0:0:0:0:
192,192,145498,128,0,145601:0:0:0:0:
320,192,145498,128,0,145601:0:0:0:0:
448,192,145601,128,0,145705:0:0:0:0:
192,192,145705,128,0,145911:0:0:0:0:
320,192,145705,1,0,0:0:0:0:
64,192,145705,128,0,146946:0:0:0:0:
448,192,145911,1,0,0:0:0:0:
320,192,146015,1,0,0:0:0:0:
448,192,146118,128,0,146325:0:0:0:0:
192,192,146222,1,0,0:0:0:0:
320,192,146325,1,0,0:0:0:0:
448,192,146429,1,0,0:0:0:0:
192,192,146532,1,0,0:0:0:0:
320,192,146636,1,0,0:0:0:0:
192,192,146739,128,0,146842:0:0:0:0:
320,192,146739,128,0,146842:0:0:0:0:
448,192,146739,128,0,146842:0:0:0:0:
192,192,146946,128,0,147049:0:0:0:0:
320,192,146946,128,0,147049:0:0:0:0:
448,192,146946,128,0,147049:0:0:0:0:
448,192,147153,1,0,0:0:0:0:
320,192,147153,1,0,0:0:0:0:
64,192,147153,1,0,0:0:0:0:
192,192,147256,1,0,0:0:0:0:
64,192,147360,5,0,0:0:0:0:
320,192,147360,1,0,0:0:0:0:
448,192,147360,128,0,147567:0:0:0:0:
320,192,147567,1,0,0:0:0:0:
192,192,147670,1,0,0:0:0:0:
64,192,147773,128,0,148187:0:0:0:0:
320,192,147773,1,0,0:0:0:0:
448,192,147773,1,0,0:0:0:0:
448,192,147980,1,0,0:0:0:0:
320,192,148084,1,0,0:0:0:0:
192,192,148187,128,0,148601:0:0:0:0:
448,192,148187,1,0,0:0:0:0:
320,192,148394,1,0,0:0:0:0:
64,192,148601,128,0,148808:0:0:0:0:
448,192,148601,1,0,0:0:0:0:
192,192,148808,128,0,149015:0:0:0:0:
320,192,148808,1,0,0:0:0:0:
320,192,149015,128,0,149222:0:0:0:0:
448,192,149015,1,0,0:0:0:0:
448,192,149222,128,0,149429:0:0:0:0:
64,192,149222,1,0,0:0:0:0:
64,192,149429,128,0,149636:0:0:0:0:
192,192,149429,128,0,149636:0:0:0:0:
320,192,149429,1,0,0:0:0:0:
448,192,149636,1,0,0:0:0:0:
320,192,149739,1,0,0:0:0:0:
64,192,149842,128,0,150049:0:0:0:0:
448,192,149842,128,0,150049:0:0:0:0:
192,192,149946,1,0,0:0:0:0:
320,192,150049,1,0,0:0:0:0:
192,192,150153,1,0,0:0:0:0:
320,192,150256,128,0,150463:0:0:0:0:
448,192,150256,128,0,150463:0:0:0:0:
64,192,150256,1,0,0:0:0:0:
64,192,150463,1,0,0:0:0:0:
192,192,150567,1,0,0:0:0:0:
64,192,150670,128,0,151291:0:0:0:0:
448,192,150670,1,0,0:0:0:0:
320,192,150670,1,0,0:0:0:0:
192,192,150877,1,0,0:0:0:0:
320,192,150980,1,0,0:0:0:0:
448,192,151084,1,0,0:0:0:0:
192,192,151084,1,0,0:0:0:0:
320,192,151291,1,0,0:0:0:0:
192,192,151394,1,0,0:0:0:0:
64,192,151498,128,0,151601:0:0:0:0:
448,192,151498,1,0,0:0:0:0:
320,192,151601,128,0,151705:0:0:0:0:
192,192,151705,128,0,151808:0:0:0:0:
64,192,151705,1,0,0:0:0:0:
448,192,151808,128,0,151911:0:0:0:0:
192,192,151911,128,0,152015:0:0:0:0:
64,192,151911,1,0,0:0:0:0:
320,192,152015,128,0,152118:0:0:0:0:
64,192,152118,128,0,152222:0:0:0:0:
448,192,152118,1,0,0:0:0:0:
320,192,152222,128,0,152325:0:0:0:0:
448,192,152325,1,0,0:0:0:0:
192,192,152325,128,0,152532:0:0:0:0:
64,192,152325,128,0,152532:0:0:0:0:
320,192,152532,1,0,0:0:0:0:
448,192,152636,1,0,0:0:0:0:
320,192,152739,128,0,152946:0:0:0:0:
192,192,152739,128,0,152946:0:0:0:0:
64,192,152739,1,0,0:0:0:0:
448,192,152946,1,0,0:0:0:0:
64,192,153049,1,0,0:0:0:0:
320,192,153153,128,0,153360:0:0:0:0:
448,192,153153,128,0,153360:0:0:0:0:
192,192,153153,1,0,0:0:0:0:
64,192,153256,1,0,0:0:0:0:
192,192,153360,1,0,0:0:0:0:
320,192,153463,1,0,0:0:0:0:
64,192,153567,128,0,153773:0:0:0:0:
448,192,153567,128,0,153773:0:0:0:0:
192,192,153567,1,0,0:0:0:0:
192,192,153773,1,0,0:0:0:0:
320,192,153877,1,0,0:0:0:0:
64,192,153980,128,0,154187:0:0:0:0:
448,192,153980,128,0,154394:0:0:0:0:
192,192,153980,1,0,0:0:0:0:
320,192,154187,1,0,0:0:0:0:
192,192,154291,1,0,0:0:0:0:
64,192,154394,1,0,0:0:0:0:
320,192,154394,1,0,0:0:0:0:
320,192,154601,1,0,0:0:0:0:
192,192,154705,1,0,0:0:0:0:
448,192,154808,1,0,0:0:0:0:
320,192,154808,128,0,154911:0:0:0:0:
64,192,154808,1,0,0:0:0:0:
192,192,154911,128,0,155015:0:0:0:0:
448,192,155015,128,0,155118:0:0:0:0:
64,192,155015,1,0,0:0:0:0:
192,192,155118,128,0,155222:0:0:0:0:
320,192,155222,128,0,155325:0:0:0:0:
64,192,155222,1,0,0:0:0:0:
64,192,155325,128,0,155429:0:0:0:0:
320,192,155429,128,0,155532:0:0:0:0:
448,192,155429,1,0,0:0:0:0:
192,192,155532,128,0,155636:0:0:0:0:
64,192,155636,1,0,0:0:0:0:
448,192,155636,128,0,156049:0:0:0:0:
320,192,155842,128,0,156049:0:0:0:0:
64,192,155842,1,0,0:0:0:0:
192,192,155946,1,0,0:0:0:0:
64,192,156049,128,0,156463:0:0:0:0:
192,192,156256,128,0,156463:0:0:0:0:
448,192,156256,1,0,0:0:0:0:
320,192,156360,1,0,0:0:0:0:
448,192,156463,128,0,156877:0:0:0:0:
320,192,156670,128,0,156877:0:0:0:0:
192,192,156670,1,0,0:0:0:0:
64,192,156773,1,0,0:0:0:0:
192,192,156877,128,0,157291:0:0:0:0:
64,192,157084,128,0,157291:0:0:0:0:
320,192,157084,1,0,0:0:0:0:
320,192,157291,128,0,157498:0:0:0:0:
448,192,157291,1,0,0:0:0:0:
64,192,157498,1,0,0:0:0:0:
448,192,157498,1,0,0:0:0:0:
192,192,157601,1,0,0:0:0:0:
320,192,157705,128,0,157808:0:0:0:0:
448,192,157705,1,0,0:0:0:0:
64,192,157705,1,0,0:0:0:0:
64,192,157911,1,0,0:0:0:0:
192,192,157911,128,0,158015:0:0:0:0:
448,192,157911,1,0,0:0:0:0:
64,192,158118,1,0,0:0:0:0:
320,192,158118,128,0,158325:0:0:0:0:
448,192,158118,1,0,0:0:0:0:
64,192,158325,1,0,0:0:0:0:
192,192,158429,1,0,0:0:0:0:
320,192,158532,128,0,158636:0:0:0:0:
448,192,158532,128,0,158636:0:0:0:0:
64,192,158532,1,0,0:0:0:0:
64,192,158739,128,0,158842:0:0:0:0:
192,192,158739,128,0,158842:0:0:0:0:
448,192,158739,1,0,0:0:0:0:
192,192,158946,128,0,159153:0:0:0:0:
320,192,158946,1,0,0:0:0:0:
64,192,158946,128,0,160187:0:0:0:0:
448,192,158946,1,0,0:0:0:0:
448,192,159153,1,0,0:0:0:0:
320,192,159256,1,0,0:0:0:0:
448,192,159360,128,0,159567:0:0:0:0:
192,192,159360,1,0,0:0:0:0:
320,192,159567,5,0,0:0:0:0:
448,192,159773,1,0,0:0:0:0:
192,192,159773,128,0,159980:0:0:0:0:
320,192,159980,1,0,0:0:0:0:
192,192,160187,128,0,160394:0:0:0:0:
320,192,160187,128,0,160601:0:0:0:0:
448,192,160187,128,0,160394:0:0:0:0:
64,192,160601,128,0,160705:0:0:0:0:
192,192,160601,128,0,160705:0:0:0:0:
448,192,160601,1,0,0:0:0:0:
192,192,160808,128,0,160911:0:0:0:0:
448,192,160808,1,0,0:0:0:0:
64,192,161015,128,0,161118:0:0:0:0:
320,192,161015,128,0,161118:0:0:0:0:
192,192,161015,1,0,0:0:0:0:
320,192,161222,128,0,161325:0:0:0:0:
192,192,161222,1,0,0:0:0:0:
448,192,161429,128,0,161532:0:0:0:0:
320,192,161429,128,0,161532:0:0:0:0:
64,192,161429,1,0,0:0:0:0:
320,192,161636,128,0,161739:0:0:0:0:
64,192,161636,1,0,0:0:0:0:
192,192,161842,128,0,161946:0:0:0:0:
448,192,161842,128,0,161946:0:0:0:0:
320,192,161842,1,0,0:0:0:0:
192,192,162049,128,0,162153:0:0:0:0:
320,192,162049,1,0,0:0:0:0:
320,192,162256,128,0,162360:0:0:0:0:
448,192,162256,128,0,162360:0:0:0:0:
64,192,162256,1,0,0:0:0:0:
448,192,162463,128,0,162567:0:0:0:0:
64,192,162463,1,0,0:0:0:0:
320,192,162567,128,0,162670:0:0:0:0:
64,192,162670,128,0,162773:0:0:0:0:
192,192,162670,128,0,162773:0:0:0:0:
448,192,162670,1,0,0:0:0:0:
448,192,162877,1,0,0:0:0:0:
64,192,162877,128,0,162980:0:0:0:0:
192,192,163084,128,0,163187:0:0:0:0:
448,192,163084,128,0,163187:0:0:0:0:
320,192,163084,1,0,0:0:0:0:
448,192,163291,128,0,163394:0:0:0:0:
320,192,163291,1,0,0:0:0:0:
320,192,163498,128,0,163601:0:0:0:0:
64,192,163498,128,0,163601:0:0:0:0:
192,192,163498,1,0,0:0:0:0:
64,192,163705,128,0,163808:0:0:0:0:
192,192,163705,1,0,0:0:0:0:
192,192,163911,128,0,164015:0:0:0:0:
448,192,163911,128,0,164015:0:0:0:0:
64,192,163911,1,0,0:0:0:0:
320,192,164118,128,0,164222:0:0:0:0:
64,192,164118,1,0,0:0:0:0:
64,192,164325,128,0,164429:0:0:0:0:
320,192,164325,128,0,164429:0:0:0:0:
448,192,164325,1,0,0:0:0:0:
192,192,164532,128,0,164636:0:0:0:0:
448,192,164532,1,0,0:0:0:0:
320,192,164739,128,0,164842:0:0:0:0:
192,192,164739,128,0,164842:0:0:0:0:
64,192,164739,1,0,0:0:0:0:
448,192,164946,128,0,165049:0:0:0:0:
64,192,164946,1,0,0:0:0:0:
192,192,165153,128,0,165256:0:0:0:0:
320,192,165153,128,0,165256:0:0:0:0:
448,192,165153,1,0,0:0:0:0:
64,192,165360,128,0,165463:0:0:0:0:
448,192,165360,1,0,0:0:0:0:
320,192,165567,128,0,165670:0:0:0:0:
448,192,165567,128,0,165670:0:0:0:0:
192,192,165567,1,0,0:0:0:0:
192,192,165773,128,0,165877:0:0:0:0:
64,192,165773,1,0,0:0:0:0:
64,192,165980,128,0,166084:0:0:0:0:
448,192,165980,128,0,166084:0:0:0:0:
320,192,165980,1,0,0:0:0:0:
320,192,166187,128,0,166291:0:0:0:0:
192,192,166187,1,0,0:0:0:0:
192,192,166394,128,0,166498:0:0:0:0:
64,192,166394,128,0,166498:0:0:0:0:
320,192,166394,1,0,0:0:0:0:
320,192,166601,128,0,166705:0:0:0:0:
448,192,166601,1,0,0:0:0:0:
192,192,166705,128,0,166808:0:0:0:0:
64,192,166808,128,0,166911:0:0:0:0:
448,192,166808,128,0,166911:0:0:0:0:
320,192,166808,1,0,0:0:0:0:
192,192,167015,128,0,167118:0:0:0:0:
64,192,167015,1,0,0:0:0:0:
320,192,167222,128,0,167325:0:0:0:0:
448,192,167222,128,0,167325:0:0:0:0:
192,192,167222,1,0,0:0:0:0:
320,192,167429,128,0,167532:0:0:0:0:
192,192,167429,1,0,0:0:0:0:
192,192,167636,128,0,167739:0:0:0:0:
64,192,167636,128,0,167739:0:0:0:0:
448,192,167636,1,0,0:0:0:0:
64,192,167842,128,0,167946:0:0:0:0:
448,192,167842,1,0,0:0:0:0:
64,192,168049,128,0,168153:0:0:0:0:
192,192,168049,128,0,168153:0:0:0:0:
320,192,168049,1,0,0:0:0:0:
192,192,168256,128,0,168360:0:0:0:0:
320,192,168256,1,0,0:0:0:0:
320,192,168463,128,0,168567:0:0:0:0:
448,192,168463,128,0,168567:0:0:0:0:
64,192,168463,1,0,0:0:0:0:
448,192,168670,128,0,168773:0:0:0:0:
64,192,168670,1,0,0:0:0:0:
64,192,168877,128,0,168980:0:0:0:0:
320,192,168877,128,0,168980:0:0:0:0:
192,192,168877,1,0,0:0:0:0:
320,192,169084,128,0,169187:0:0:0:0:
192,192,169084,1,0,0:0:0:0:
64,192,169187,128,0,169291:0:0:0:0:
192,192,169291,128,0,169394:0:0:0:0:
448,192,169291,128,0,169394:0:0:0:0:
320,192,169291,1,0,0:0:0:0:
320,192,169498,1,0,0:0:0:0:
192,192,169498,128,0,169601:0:0:0:0:
448,192,169705,128,0,169808:0:0:0:0:
64,192,169705,128,0,169808:0:0:0:0:
320,192,169705,1,0,0:0:0:0:
448,192,169911,128,0,170015:0:0:0:0:
320,192,169911,1,0,0:0:0:0:
64,192,170118,128,0,170222:0:0:0:0:
448,192,170118,128,0,170222:0:0:0:0:
192,192,170118,1,0,0:0:0:0:
64,192,170325,128,0,170429:0:0:0:0:
192,192,170325,1,0,0:0:0:0:
64,192,170532,128,0,170636:0:0:0:0:
192,192,170532,128,0,170636:0:0:0:0:
320,192,170532,1,0,0:0:0:0:
64,192,170739,128,0,170842:0:0:0:0:
320,192,170739,1,0,0:0:0:0:
192,192,170946,128,0,171049:0:0:0:0:
320,192,170946,128,0,171049:0:0:0:0:
448,192,170946,1,0,0:0:0:0:
192,192,171153,128,0,171256:0:0:0:0:
448,192,171153,1,0,0:0:0:0:
320,192,171360,128,0,171463:0:0:0:0:
448,192,171360,128,0,171463:0:0:0:0:
64,192,171360,1,0,0:0:0:0:
320,192,171567,128,0,171670:0:0:0:0:
64,192,171567,1,0,0:0:0:0:
64,192,171773,128,0,171877:0:0:0:0:
448,192,171773,128,0,171877:0:0:0:0:
192,192,171773,1,0,0:0:0:0:
448,192,171980,128,0,172084:0:0:0:0:
192,192,171980,1,0,0:0:0:0:
448,192,172187,128,0,172291:0:0:0:0:
320,192,172187,128,0,172291:0:0:0:0:
192,192,172187,1,0,0:0:0:0:
448,192,172394,128,0,172498:0:0:0:0:
192,192,172394,1,0,0:0:0:0:
320,192,172601,128,0,172705:0:0:0:0:
192,192,172601,128,0,172705:0:0:0:0:
64,192,172601,1,0,0:0:0:0:
320,192,172808,128,0,172911:0:0:0:0:
64,192,172808,1,0,0:0:0:0:
192,192,173015,128,0,173118:0:0:0:0:
64,192,173015,128,0,173118:0:0:0:0:
448,192,173015,1,0,0:0:0:0:
448,192,173222,1,0,0:0:0:0:
192,192,173222,128,0,173325:0:0:0:0:
320,192,173325,128,0,173429:0:0:0:0:
448,192,173429,128,0,173532:0:0:0:0:
64,192,173429,128,0,173532:0:0:0:0:
192,192,173429,1,0,0:0:0:0:
64,192,173636,128,0,173739:0:0:0:0:
320,192,173636,1,0,0:0:0:0:
64,192,173842,128,0,173946:0:0:0:0:
192,192,173842,128,0,173946:0:0:0:0:
448,192,173842,128,0,173894:0:0:0:0:
192,192,174049,128,0,174153:0:0:0:0:
448,192,174049,1,0,0:0:0:0:
64,192,174256,128,0,174360:0:0:0:0:
320,192,174256,128,0,174360:0:0:0:0:
192,192,174256,1,0,0:0:0:0:
320,192,174463,128,0,174567:0:0:0:0:
192,192,174463,1,0,0:0:0:0:
448,192,174670,128,0,174773:0:0:0:0:
320,192,174670,128,0,174773:0:0:0:0:
64,192,174670,1,0,0:0:0:0:
320,192,174877,128,0,174980:0:0:0:0:
64,192,174877,1,0,0:0:0:0:
192,192,175084,128,0,175187:0:0:0:0:
448,192,175084,128,0,175187:0:0:0:0:
320,192,175084,128,0,175136:0:0:0:0:
192,192,175291,128,0,175394:0:0:0:0:
320,192,175291,1,0,0:0:0:0:
320,192,175498,128,0,175601:0:0:0:0:
448,192,175498,128,0,175601:0:0:0:0:
64,192,175498,128,0,175549:0:0:0:0:
448,192,175705,128,0,175808:0:0:0:0:
64,192,175705,1,0,0:0:0:0:
320,192,175808,128,0,175911:0:0:0:0:
64,192,175911,128,0,176015:0:0:0:0:
192,192,175911,128,0,176015:0:0:0:0:
448,192,175911,1,0,0:0:0:0:
448,192,176118,1,0,0:0:0:0:
64,192,176118,128,0,176222:0:0:0:0:
192,192,176325,128,0,176429:0:0:0:0:
448,192,176325,128,0,176429:0:0:0:0:
320,192,176325,128,0,176377:0:0:0:0:
448,192,176532,128,0,176636:0:0:0:0:
320,192,176532,1,0,0:0:0:0:
320,192,176739,128,0,176842:0:0:0:0:
64,192,176739,128,0,176842:0:0:0:0:
192,192,176739,1,0,0:0:0:0:
64,192,176946,128,0,177049:0:0:0:0:
192,192,176946,1,0,0:0:0:0:
192,192,177153,128,0,177256:0:0:0:0:
448,192,177153,128,0,177256:0:0:0:0:
64,192,177153,128,0,177205:0:0:0:0:
320,192,177360,128,0,177463:0:0:0:0:
64,192,177360,1,0,0:0:0:0:
64,192,177567,128,0,177670:0:0:0:0:
320,192,177567,128,0,177670:0:0:0:0:
448,192,177567,1,0,0:0:0:0:
192,192,177773,128,0,177877:0:0:0:0:
448,192,177773,1,0,0:0:0:0:
320,192,177980,128,0,178084:0:0:0:0:
192,192,177980,128,0,178084:0:0:0:0:
64,192,177980,1,0,0:0:0:0:
448,192,178187,128,0,178291:0:0:0:0:
64,192,178187,1,0,0:0:0:0:
192,192,178394,128,0,178498:0:0:0:0:
320,192,178394,128,0,178498:0:0:0:0:
448,192,178394,128,0,178446:0:0:0:0:
64,192,178601,128,0,178705:0:0:0:0:
448,192,178601,1,0,0:0:0:0:
320,192,178808,128,0,178911:0:0:0:0:
448,192,178808,128,0,178911:0:0:0:0:
192,192,178808,128,0,178860:0:0:0:0:
192,192,179015,128,0,179118:0:0:0:0:
64,192,179015,1,0,0:0:0:0:
64,192,179222,128,0,179325:0:0:0:0:
448,192,179222,128,0,179325:0:0:0:0:
320,192,179222,1,0,0:0:0:0:
320,192,179429,128,0,179532:0:0:0:0:
192,192,179429,1,0,0:0:0:0:
192,192,179636,128,0,179739:0:0:0:0:
64,192,179636,128,0,179739:0:0:0:0:
320,192,179636,128,0,179687:0:0:0:0:
320,192,179842,128,0,179946:0:0:0:0:
448,192,179842,1,0,0:0:0:0:
192,192,179946,128,0,180049:0:0:0:0:
64,192,180049,128,0,180153:0:0:0:0:
448,192,180049,128,0,180153:0:0:0:0:
320,192,180049,1,0,0:0:0:0:
192,192,180256,128,0,180360:0:0:0:0:
64,192,180256,1,0,0:0:0:0:
320,192,180463,128,0,180567:0:0:0:0:
448,192,180463,128,0,180567:0:0:0:0:
192,192,180463,128,0,180515:0:0:0:0:
320,192,180670,128,0,180773:0:0:0:0:
192,192,180670,1,0,0:0:0:0:
192,192,180877,128,0,180980:0:0:0:0:
64,192,180877,128,0,180980:0:0:0:0:
448,192,180877,1,0,0:0:0:0:
64,192,181084,128,0,181187:0:0:0:0:
448,192,181084,1,0,0:0:0:0:
64,192,181291,128,0,181394:0:0:0:0:
192,192,181291,128,0,181394:0:0:0:0:
320,192,181291,1,0,0:0:0:0:
192,192,181498,128,0,181601:0:0:0:0:
320,192,181498,1,0,0:0:0:0:
320,192,181705,128,0,181808:0:0:0:0:
448,192,181705,128,0,181808:0:0:0:0:
64,192,181705,128,0,181756:0:0:0:0:
448,192,181911,128,0,182015:0:0:0:0:
64,192,181911,1,0,0:0:0:0:
64,192,182118,128,0,182222:0:0:0:0:
320,192,182118,128,0,182222:0:0:0:0:
192,192,182118,128,0,182170:0:0:0:0:
320,192,182325,128,0,182429:0:0:0:0:
192,192,182325,1,0,0:0:0:0:
64,192,182429,128,0,182532:0:0:0:0:
192,192,182532,128,0,182636:0:0:0:0:
448,192,182532,128,0,182636:0:0:0:0:
320,192,182532,1,0,0:0:0:0:
320,192,182739,1,0,0:0:0:0:
192,192,182739,128,0,182842:0:0:0:0:
448,192,182946,128,0,183049:0:0:0:0:
64,192,182946,128,0,183049:0:0:0:0:
320,192,182946,128,0,182998:0:0:0:0:
448,192,183153,128,0,183256:0:0:0:0:
320,192,183153,1,0,0:0:0:0:
64,192,183360,128,0,183463:0:0:0:0:
448,192,183360,128,0,183463:0:0:0:0:
192,192,183360,1,0,0:0:0:0:
64,192,183567,128,0,183670:0:0:0:0:
192,192,183567,1,0,0:0:0:0:
64,192,183773,128,0,183877:0:0:0:0:
192,192,183773,128,0,183877:0:0:0:0:
320,192,183773,128,0,183825:0:0:0:0:
64,192,183980,128,0,184084:0:0:0:0:
320,192,183980,1,0,0:0:0:0:
192,192,184187,128,0,184291:0:0:0:0:
320,192,184187,128,0,184291:0:0:0:0:
448,192,184187,1,0,0:0:0:0:
192,192,184394,128,0,184498:0:0:0:0:
448,192,184394,1,0,0:0:0:0:
320,192,184601,128,0,184705:0:0:0:0:
448,192,184601,128,0,184705:0:0:0:0:
64,192,184601,1,0,0:0:0:0:
320,192,184808,128,0,184911:0:0:0:0:
64,192,184808,1,0,0:0:0:0:
64,192,185015,128,0,185118:0:0:0:0:
448,192,185015,128,0,185118:0:0:0:0:
192,192,185015,128,0,185067:0:0:0:0:
448,192,185222,128,0,185325:0:0:0:0:
192,192,185222,1,0,0:0:0:0:
448,192,185429,128,0,185532:0:0:0:0:
320,192,185429,128,0,185532:0:0:0:0:
64,192,185429,128,0,185480:0:0:0:0:
448,192,185636,128,0,185739:0:0:0:0:
192,192,185636,1,0,0:0:0:0:
320,192,185842,128,0,185946:0:0:0:0:
192,192,185842,128,0,185946:0:0:0:0:
64,192,185842,1,0,0:0:0:0:
320,192,186049,128,0,186153:0:0:0:0:
64,192,186049,1,0,0:0:0:0:
64,192,186256,1,0,0:0:0:0:
192,192,186308,1,0,0:0:0:0:
448,192,186360,1,0,0:0:0:0:
320,192,186411,1,0,0:0:0:0:
192,192,186463,1,0,0:0:0:0:
64,192,186515,1,0,0:0:0:0:
320,192,186567,1,0,0:0:0:0:
448,192,186618,1,0,0:0:0:0:
192,192,186670,1,0,0:0:0:0:
64,192,186670,1,0,0:0:0:0:
192,192,186877,1,0,0:0:0:0:
320,192,186877,1,0,0:0:0:0:
64,192,187084,1,0,0:0:0:0:
448,192,187084,1,0,0:0:0:0:
192,192,187187,1,0,0:0:0:0:
320,192,187291,1,0,0:0:0:0:
64,192,187394,1,0,0:0:0:0:
192,192,187498,1,0,0:0:0:0:
320,192,187498,1,0,0:0:0:0:
448,192,187498,1,0,0:0:0:0:
64,192,187601,1,0,0:0:0:0:
192,192,187705,1,0,0:0:0:0:
320,192,187808,1,0,0:0:0:0:
448,192,187911,1,0,0:0:0:0:
64,192,187911,1,0,0:0:0:0:
320,192,188015,1,0,0:0:0:0:
192,192,188118,1,0,0:0:0:0:
448,192,188222,1,0,0:0:0:0:
64,192,188325,1,0,0:0:0:0:
192,192,188325,1,0,0:0:0:0:
320,192,188325,1,0,0:0:0:0:
448,192,188429,1,0,0:0:0:0:
320,192,188532,1,0,0:0:0:0:
192,192,188636,1,0,0:0:0:0:
64,192,188739,1,0,0:0:0:0:
448,192,188739,1,0,0:0:0:0:
192,192,188842,1,0,0:0:0:0:
320,192,188946,1,0,0:0:0:0:
64,192,189049,1,0,0:0:0:0:
192,192,189153,1,0,0:0:0:0:
320,192,189153,1,0,0:0:0:0:
448,192,189153,1,0,0:0:0:0:
64,192,189256,1,0,0:0:0:0:
192,192,189360,1,0,0:0:0:0:
320,192,189463,1,0,0:0:0:0:
448,192,189567,1,0,0:0:0:0:
64,192,189567,1,0,0:0:0:0:
320,192,189670,1,0,0:0:0:0:
192,192,189773,1,0,0:0:0:0:
448,192,189877,1,0,0:0:0:0:
64,192,189980,1,0,0:0:0:0:
192,192,189980,1,0,0:0:0:0:
320,192,189980,1,0,0:0:0:0:
448,192,190084,1,0,0:0:0:0:
320,192,190187,1,0,0:0:0:0:
192,192,190291,1,0,0:0:0:0:
448,192,190394,1,0,0:0:0:0:
64,192,190394,1,0,0:0:0:0:
192,192,190498,1,0,0:0:0:0:
320,192,190601,1,0,0:0:0:0:
64,192,190705,1,0,0:0:0:0:
448,192,190808,1,0,0:0:0:0:
320,192,190808,1,0,0:0:0:0:
192,192,190808,1,0,0:0:0:0:
64,192,190911,1,0,0:0:0:0:
192,192,191015,1,0,0:0:0:0:
320,192,191118,1,0,0:0:0:0:
64,192,191222,1,0,0:0:0:0:
448,192,191222,1,0,0:0:0:0:
320,192,191325,1,0,0:0:0:0:
192,192,191429,1,0,0:0:0:0:
448,192,191532,1,0,0:0:0:0:
320,192,191636,1,0,0:0:0:0:
192,192,191636,1,0,0:0:0:0:
64,192,191636,1,0,0:0:0:0:
448,192,191739,1,0,0:0:0:0:
320,192,191842,1,0,0:0:0:0:
192,192,191946,1,0,0:0:0:0:
64,192,192049,1,0,0:0:0:0:
448,192,192049,1,0,0:0:0:0:
192,192,192153,1,0,0:0:0:0:
320,192,192256,1,0,0:0:0:0:
64,192,192360,1,0,0:0:0:0:
192,192,192463,1,0,0:0:0:0:
320,192,192463,1,0,0:0:0:0:
448,192,192463,1,0,0:0:0:0:
64,192,192567,1,0,0:0:0:0:
192,192,192670,1,0,0:0:0:0:
320,192,192773,1,0,0:0:0:0:
448,192,192877,1,0,0:0:0:0:
64,192,192877,1,0,0:0:0:0:
320,192,192980,1,0,0:0:0:0:
192,192,193084,1,0,0:0:0:0:
448,192,193187,1,0,0:0:0:0:
64,192,193291,1,0,0:0:0:0:
192,192,193291,1,0,0:0:0:0:
320,192,193291,1,0,0:0:0:0:
448,192,193394,1,0,0:0:0:0:
320,192,193498,1,0,0:0:0:0:
192,192,193601,1,0,0:0:0:0:
448,192,193705,1,0,0:0:0:0:
64,192,193705,1,0,0:0:0:0:
192,192,193808,1,0,0:0:0:0:
320,192,193911,1,0,0:0:0:0:
64,192,194015,1,0,0:0:0:0:
448,192,194118,1,0,0:0:0:0:
320,192,194118,1,0,0:0:0:0:
192,192,194118,1,0,0:0:0:0:
64,192,194222,1,0,0:0:0:0:
192,192,194325,1,0,0:0:0:0:
320,192,194429,1,0,0:0:0:0:
64,192,194532,1,0,0:0:0:0:
448,192,194532,1,0,0:0:0:0:
320,192,194636,1,0,0:0:0:0:
192,192,194739,1,0,0:0:0:0:
448,192,194842,1,0,0:0:0:0:
320,192,194946,1,0,0:0:0:0:
192,192,194946,1,0,0:0:0:0:
64,192,194946,1,0,0:0:0:0:
448,192,195049,1,0,0:0:0:0:
320,192,195153,1,0,0:0:0:0:
192,192,195256,1,0,0:0:0:0:
64,192,195360,1,0,0:0:0:0:
448,192,195360,1,0,0:0:0:0:
192,192,195463,1,0,0:0:0:0:
320,192,195567,1,0,0:0:0:0:
64,192,195670,1,0,0:0:0:0:
192,192,195773,1,0,0:0:0:0:
320,192,195773,1,0,0:0:0:0:
448,192,195773,1,0,0:0:0:0:
64,192,195877,1,0,0:0:0:0:
192,192,195980,1,0,0:0:0:0:
320,192,196084,1,0,0:0:0:0:
448,192,196187,1,0,0:0:0:0:
64,192,196187,1,0,0:0:0:0:
320,192,196291,1,0,0:0:0:0:
192,192,196394,1,0,0:0:0:0:
448,192,196498,1,0,0:0:0:0:
64,192,196601,1,0,0:0:0:0:
192,192,196601,1,0,0:0:0:0:
320,192,196601,1,0,0:0:0:0:
448,192,196705,1,0,0:0:0:0:
320,192,196808,1,0,0:0:0:0:
192,192,196911,1,0,0:0:0:0:
448,192,197015,1,0,0:0:0:0:
64,192,197015,1,0,0:0:0:0:
192,192,197118,1,0,0:0:0:0:
320,192,197222,1,0,0:0:0:0:
64,192,197325,1,0,0:0:0:0:
448,192,197429,1,0,0:0:0:0:
320,192,197429,1,0,0:0:0:0:
192,192,197429,1,0,0:0:0:0:
64,192,197532,1,0,0:0:0:0:
192,192,197636,1,0,0:0:0:0:
320,192,197739,1,0,0:0:0:0:
64,192,197842,1,0,0:0:0:0:
448,192,197842,1,0,0:0:0:0:
320,192,197946,1,0,0:0:0:0:
192,192,198049,1,0,0:0:0:0:
448,192,198153,1,0,0:0:0:0:
320,192,198256,1,0,0:0:0:0:
192,192,198256,1,0,0:0:0:0:
64,192,198256,1,0,0:0:0:0:
448,192,198360,1,0,0:0:0:0:
320,192,198463,1,0,0:0:0:0:
192,192,198567,1,0,0:0:0:0:
64,192,198670,1,0,0:0:0:0:
448,192,198670,1,0,0:0:0:0:
320,192,198670,1,0,0:0:0:0:
192,192,198773,1,0,0:0:0:0:
320,192,198877,1,0,0:0:0:0:
448,192,198877,1,0,0:0:0:0:
64,192,198980,1,0,0:0:0:0:
192,192,199084,1,0,0:0:0:0:
320,192,199084,1,0,0:0:0:0:
64,192,199187,1,0,0:0:0:0:
448,192,199187,1,0,0:0:0:0:
64,192,199291,1,0,0:0:0:0:
320,192,199291,1,0,0:0:0:0:
448,192,199394,1,0,0:0:0:0:
192,192,199394,1,0,0:0:0:0:
64,192,199498,1,0,0:0:0:0:
192,192,199498,1,0,0:0:0:0:
448,192,199498,1,0,0:0:0:0:
320,192,199601,1,0,0:0:0:0:
192,192,199705,1,0,0:0:0:0:
64,192,199705,1,0,0:0:0:0:
448,192,199808,1,0,0:0:0:0:
448,192,199911,128,0,200325:0:0:0:0:
320,192,199911,128,0,200325:0:0:0:0:
192,192,199911,128,0,200325:0:0:0:0:
64,192,199911,128,0,200325:0:0:0:0:
