osu file format v14

[General]
AudioFilename: audio.mp3
AudioLeadIn: 0
PreviewTime: 80879
Countdown: 0
SampleSet: Normal
StackLeniency: 0.7
Mode: 1
LetterboxInBreaks: 0
WidescreenStoryboard: 0

[Editor]
Bookmarks: 3293,9913,16534,23155,29775,36396,43017,49637,56258,62879,69499,76120,82741,95568,95982,109224,115844,122051
DistanceSpacing: 0.4
BeatDivisor: 4
GridSize: 32
TimelineZoom: 1.7

[Metadata]
Title:FULi AUTO BUSTER
TitleUnicode:FULi AUTO BUSTER
Artist:MYUKKE.
ArtistUnicode:MYUKKE.
Creator:eiri-
Version:Kantan
Source:osu!
Tags:Ayyri Featured Artist FA Electronic Instrumental WE LOVE EP
BeatmapID:2797803
BeatmapSetID:1337543

[Difficulty]
HPDrainRate:8
CircleSize:2
OverallDifficulty:3
ApproachRate:10
SliderMultiplier:1.4
SliderTickRate:1

[Events]
//Background and Video events
0,0,"FULi AUTO BUSTER.jpg",0,20
//Break Periods
//Storyboard Layer 0 (Background)
//Storyboard Layer 1 (Fail)
//Storyboard Layer 2 (Pass)
//Storyboard Layer 3 (Foreground)
//Storyboard Layer 4 (Overlay)
//Storyboard Sound Samples

[TimingPoints]
3293,413.793103448276,4,1,0,50,1,0
3293,-100,4,1,0,75,0,0
9861,-100,4,1,0,80,0,0
16482,-100,4,1,0,85,0,0
23103,-100,4,1,0,90,0,0
29724,-100,4,1,0,75,0,0
42965,-100,4,1,0,80,0,0
56206,-100,4,1,0,70,0,0
62827,-100,4,1,0,60,0,0
69448,-100,4,1,0,80,0,0
76068,-100,4,1,0,90,0,0
82741,-100,4,1,0,100,0,1
95568,-100,4,1,0,100,0,0
95982,-100,4,1,0,100,0,1
109224,-100,4,1,0,85,0,0
115793,-100,4,1,0,90,0,0
121999,-100,4,1,0,100,0,0

[HitObjects]
256,192,3293,5,12,0:0:0:0:
256,192,3913,1,8,0:0:0:0:
256,192,4741,1,0,0:0:0:0:
256,192,5568,1,8,0:0:0:0:
256,192,6189,1,8,0:0:0:0:
256,192,6603,1,0,0:0:0:0:
256,192,7844,1,8,0:0:0:0:
256,192,8672,1,8,0:0:0:0:
256,192,9086,1,0,0:0:0:0:
256,192,9499,1,8,0:0:0:0:
256,192,9913,1,0,0:0:0:0:
256,192,10741,1,8,0:0:0:0:
256,192,11155,1,8,0:0:0:0:
256,192,11568,1,0,0:0:0:0:
256,192,12396,1,8,0:0:0:0:
256,192,13224,1,0,0:0:0:0:
256,192,13637,1,8,0:0:0:0:
256,192,14051,1,0,0:0:0:0:
256,192,14672,1,12,0:0:0:0:
256,192,15499,1,12,0:0:0:0:
256,192,16120,1,12,0:0:0:0:
256,192,16534,1,4,0:0:0:0:
256,192,17361,1,8,0:0:0:0:
256,192,18189,1,0,0:0:0:0:
256,192,18603,1,8,0:0:0:0:
256,192,19017,1,0,0:0:0:0:
256,192,19844,1,0,0:0:0:0:
256,192,21499,1,8,0:0:0:0:
256,192,22327,1,0,0:0:0:0:
256,192,23155,1,8,0:0:0:0:
256,192,23982,1,8,0:0:0:0:
256,192,24396,1,8,0:0:0:0:
256,192,24810,1,8,0:0:0:0:
256,192,25637,1,8,0:0:0:0:
256,192,26051,1,8,0:0:0:0:
256,192,26465,1,8,0:0:0:0:
256,192,26879,1,0,0:0:0:0:
256,192,27293,1,8,0:0:0:0:
256,192,28120,1,0,0:0:0:0:
256,192,29361,1,12,0:0:0:0:
256,192,29775,1,4,0:0:0:0:
256,192,30603,1,8,0:0:0:0:
256,192,31224,1,4,0:0:0:0:
256,192,31844,1,8,0:0:0:0:
256,192,32672,1,4,0:0:0:0:
256,192,33086,1,4,0:0:0:0:
256,192,33913,1,8,0:0:0:0:
256,192,34534,1,4,0:0:0:0:
256,192,35982,1,4,0:0:0:0:
256,192,36396,1,4,0:0:0:0:
256,192,37224,1,8,0:0:0:0:
256,192,37844,1,4,0:0:0:0:
256,192,38465,1,8,0:0:0:0:
256,192,39293,1,4,0:0:0:0:
256,192,39706,1,4,0:0:0:0:
256,192,40534,1,8,0:0:0:0:
256,192,41155,1,4,0:0:0:0:
256,192,41775,1,8,0:0:0:0:
256,192,42603,1,4,0:0:0:0:
256,192,43017,1,4,0:0:0:0:
256,192,43844,1,8,0:0:0:0:
256,192,44465,1,4,0:0:0:0:
256,192,45086,1,8,0:0:0:0:
256,192,45913,1,4,0:0:0:0:
256,192,46327,1,4,0:0:0:0:
256,192,47155,1,8,0:0:0:0:
256,192,47775,1,4,0:0:0:0:
256,192,49224,1,4,0:0:0:0:
256,192,49637,1,4,0:0:0:0:
256,192,50465,1,8,0:0:0:0:
256,192,51086,1,4,0:0:0:0:
256,192,51706,1,8,0:0:0:0:
256,192,52534,1,4,0:0:0:0:
256,192,52948,1,4,0:0:0:0:
256,192,53775,1,8,0:0:0:0:
256,192,54396,1,4,0:0:0:0:
256,192,55017,1,8,0:0:0:0:
256,192,55844,1,4,0:0:0:0:
256,192,56258,1,12,0:0:0:0:
256,192,57706,1,0,0:0:0:0:
256,192,58534,1,8,0:0:0:0:
256,192,59568,1,0,0:0:0:0:
256,192,60189,1,8,0:0:0:0:
256,192,61017,1,0,0:0:0:0:
256,192,61637,1,0,0:0:0:0:
256,192,62051,1,0,0:0:0:0:
256,192,62879,1,0,0:0:0:0:
256,192,64327,1,8,0:0:0:0:
256,192,64948,1,0,0:0:0:0:
256,192,65361,1,8,0:0:0:0:
256,192,66189,1,0,0:0:0:0:
256,192,67017,1,8,0:0:0:0:
256,192,67637,1,0,0:0:0:0:
256,192,69086,1,12,0:0:0:0:
256,192,69499,1,4,0:0:0:0:
256,192,69913,1,8,0:0:0:0:
256,192,70327,1,0,0:0:0:0:
256,192,71155,1,0,0:0:0:0:
256,192,71568,1,0,0:0:0:0:
256,192,71982,1,8,0:0:0:0:
256,192,72810,1,0,0:0:0:0:
256,192,73224,1,8,0:0:0:0:
256,192,73637,1,0,0:0:0:0:
256,192,74465,1,0,0:0:0:0:
256,192,74879,1,0,0:0:0:0:
256,192,75293,1,8,0:0:0:0:
256,192,76120,1,8,0:0:0:0:
256,192,76534,1,8,0:0:0:0:
256,192,76948,1,0,0:0:0:0:
256,192,77775,1,8,0:0:0:0:
256,192,78189,1,8,0:0:0:0:
256,192,78603,1,0,0:0:0:0:
256,192,79430,1,8,0:0:0:0:
256,192,79844,1,8,0:0:0:0:
256,192,80258,1,8,0:0:0:0:
256,192,80879,1,8,0:0:0:0:
256,192,82327,1,12,0:0:0:0:
256,192,82741,1,4,0:0:0:0:
256,192,83155,1,8,0:0:0:0:
256,192,83568,1,0,0:0:0:0:
256,192,84396,1,0,0:0:0:0:
256,192,84810,1,8,0:0:0:0:
256,192,85224,1,8,0:0:0:0:
256,192,86051,1,0,0:0:0:0:
256,192,86465,1,0,0:0:0:0:
256,192,86879,1,8,0:0:0:0:
256,192,87706,1,0,0:0:0:0:
256,192,89361,1,0,0:0:0:0:
256,192,89775,1,8,0:0:0:0:
256,192,90189,1,0,0:0:0:0:
256,192,91017,1,0,0:0:0:0:
256,192,91430,1,8,0:0:0:0:
256,192,91844,1,8,0:0:0:0:
256,192,92672,1,0,0:0:0:0:
256,192,93086,1,0,0:0:0:0:
256,192,93499,1,8,0:0:0:0:
256,192,94327,1,0,0:0:0:0:
256,192,95568,1,12,0:0:0:0:
256,192,95982,1,4,0:0:0:0:
256,192,96603,1,8,0:0:0:0:
256,192,97430,1,0,0:0:0:0:
256,192,98258,1,0,0:0:0:0:
256,192,98879,1,8,0:0:0:0:
256,192,99293,1,0,0:0:0:0:
256,192,100120,1,0,0:0:0:0:
256,192,100534,1,8,0:0:0:0:
256,192,101361,1,8,0:0:0:0:
256,192,102603,1,8,0:0:0:0:
256,192,103430,1,8,0:0:0:0:
256,192,103844,1,8,0:0:0:0:
256,192,104258,1,8,0:0:0:0:
256,192,105086,1,8,0:0:0:0:
256,192,105499,1,8,0:0:0:0:
256,192,105913,1,8,0:0:0:0:
256,192,106327,1,0,0:0:0:0:
256,192,106741,1,8,0:0:0:0:
256,192,107361,1,12,0:0:0:0:
256,192,108189,1,12,0:0:0:0:
256,192,108810,1,12,0:0:0:0:
256,192,109224,1,4,0:0:0:0:
256,192,110051,1,8,0:0:0:0:
256,192,110879,1,0,0:0:0:0:
256,192,111293,1,8,0:0:0:0:
256,192,111706,1,0,0:0:0:0:
256,192,112534,1,0,0:0:0:0:
256,192,114189,1,8,0:0:0:0:
256,192,115017,1,0,0:0:0:0:
256,192,115844,1,8,0:0:0:0:
256,192,116672,1,8,0:0:0:0:
256,192,117086,1,8,0:0:0:0:
256,192,117499,1,8,0:0:0:0:
256,192,118327,1,8,0:0:0:0:
256,192,118741,1,8,0:0:0:0:
256,192,119155,1,8,0:0:0:0:
256,192,119568,1,0,0:0:0:0:
256,192,119982,1,8,0:0:0:0:
256,192,120810,1,0,0:0:0:0:
256,192,122051,1,12,0:0:0:0:
