osu file format v14

[General]
AudioFilename: audio.mp3
AudioLeadIn: 0
PreviewTime: 79984
Countdown: 0
SampleSet: Normal
StackLeniency: 0.7
Mode: 1
LetterboxInBreaks: 0
WidescreenStoryboard: 1

[Editor]
DistanceSpacing: 0.4
BeatDivisor: 4
GridSize: 16
TimelineZoom: 3.099999

[Metadata]
Title:BUNA*SYNERGY!!!
TitleUnicode:BUNA☆SYNERGY!!!
Artist:MYUKKE.
ArtistUnicode:MYUKKE.
Creator:Boaz
Version:Oni
Source:osu!
Tags:we love myukke complextro folk instrumental electronic fa featured artist
BeatmapID:3096664
BeatmapSetID:1512343

[Difficulty]
HPDrainRate:5
CircleSize:5
OverallDifficulty:5
ApproachRate:5
SliderMultiplier:1.4
SliderTickRate:1

[Events]
//Background and Video events
0,0,"bg.jpg",0,0
//Break Periods
//Storyboard Layer 0 (Background)
//Storyboard Layer 1 (Fail)
//Storyboard Layer 2 (Pass)
//Storyboard Layer 3 (Foreground)
//Storyboard Layer 4 (Overlay)
//Storyboard Sound Samples

[TimingPoints]
3184,400,4,1,0,80,1,0
3184,-111.111111111111,4,1,0,80,0,0
15984,-111.111111111111,4,1,0,85,0,0
22384,-111.111111111111,4,1,0,85,0,0
22584,-110.238755095786,4,1,0,85,0,0
22684,-109.807814363301,4,1,0,85,0,0
22784,-109.380110102019,4,1,0,85,0,0
22984,-108.53461983036,4,1,0,85,0,0
23184,-107.702100298658,4,1,0,85,0,0
23384,-106.88236953938,4,1,0,85,0,0
23584,-106.074910101514,4,1,0,85,0,0
23784,-105.279559341876,4,1,0,85,0,0
23884,-104.886449929307,4,1,0,85,0,0
23984,-104.496156108898,4,1,0,85,0,0
24184,-103.724218049051,4,1,0,85,0,0
24384,-102.963601337291,4,1,0,85,0,0
24584,-102.21416320331,4,1,0,85,0,0
24784,-101.475453087898,4,1,0,85,0,0
24984,-100.747343796281,4,1,0,85,0,0
25084,-100.38729418095,4,1,0,85,0,0
25184,-100,4,1,0,85,0,0
25584,-96.7957696376837,4,1,0,85,0,0
25784,-95.2693980403085,4,1,0,85,0,0
25884,-94.5241230288176,4,1,0,85,0,0
25984,-93.7904178081742,4,1,0,85,0,0
26184,-92.3566555438468,4,1,0,85,0,0
26384,-90.9661514950287,4,1,0,85,0,0
26484,-88.9292034611246,4,1,0,85,0,0
26584,-87.0337168619123,4,1,0,85,0,0
26684,-85.2174194631473,4,1,0,85,0,0
26784,-83.4753109246644,4,1,0,85,0,0
26984,-80,4,1,0,85,0,0
27184,-86.9565217391304,4,1,0,85,0,0
27584,-90.9090909090909,4,1,0,85,0,0
27984,-95.2380952380952,4,1,0,85,0,0
28384,-100,4,1,0,85,0,0
28784,-105.243992409803,4,1,0,85,0,0
41584,-100,4,1,0,87,0,0
41684,-102.564102564103,4,1,0,87,0,0
41784,-105.263157894737,4,1,0,87,0,0
41984,-111.111111111111,4,1,0,87,0,0
42384,-111.111111111111,4,1,0,87,0,0
42484,-108.108108108108,4,1,0,87,0,0
42584,-105.263157894737,4,1,0,87,0,0
42784,-100,4,1,0,87,0,0
43184,-100,4,1,0,87,0,0
43284,-102.564102564103,4,1,0,87,0,0
43384,-105.263157894737,4,1,0,87,0,0
43584,-111.111111111111,4,1,0,87,0,0
43984,-111.111111111111,4,1,0,87,0,0
44084,-108.108108108108,4,1,0,87,0,0
44184,-105.263157894737,4,1,0,87,0,0
44384,-100,4,1,0,87,0,0
47984,-100,4,1,0,87,0,0
48084,-102.564102564103,4,1,0,87,0,0
48184,-105.263157894737,4,1,0,87,0,0
48384,-111.111111111111,4,1,0,87,0,0
48784,-111.111111111111,4,1,0,87,0,0
48884,-108.108108108108,4,1,0,87,0,0
48984,-105.263157894737,4,1,0,87,0,0
49184,-100,4,1,0,87,0,0
49584,-100,4,1,0,87,0,0
49684,-102.564102564103,4,1,0,87,0,0
49784,-105.263157894737,4,1,0,87,0,0
49984,-111.111111111111,4,1,0,87,0,0
50384,-111.111111111111,4,1,0,87,0,0
50484,-108.108108108108,4,1,0,87,0,0
50584,-105.263157894737,4,1,0,87,0,0
50784,-100,4,1,0,87,0,0
54384,-111.111111111111,4,1,0,80,0,0
67184,-125,4,1,0,75,0,0
73584,-125,4,1,0,75,0,0
73784,-124.03223845942,4,1,0,76,0,0
73884,-123.553955394551,4,1,0,77,0,0
73984,-123.079346793291,4,1,0,78,0,0
74184,-122.140984896046,4,1,0,79,0,0
74384,-121.216969890917,4,1,0,80,0,0
74584,-120.30668580345,4,1,0,81,0,0
74784,-119.409971449076,4,1,0,82,0,0
74984,-118.526525643806,4,1,0,83,0,0
75084,-118.089686755297,4,1,0,84,0,0
75184,-117.656056051345,4,1,0,85,0,0
75384,-116.798278860563,4,1,0,85,0,0
75584,-115.952918476982,4,1,0,85,0,0
75784,-115.119707227561,4,1,0,85,0,0
75984,-114.298515719475,4,1,0,85,0,0
76184,-113.488828159756,4,1,0,85,0,0
76284,-113.088271049968,4,1,0,85,0,0
76384,-112.690531516161,4,1,0,85,0,0
76584,-111.90338709172,4,1,0,85,0,0
76784,-111.127162812406,4,1,0,85,0,0
76984,-110.361632999011,4,1,0,85,0,0
77084,-109.982809686846,4,1,0,85,0,0
77184,-109.606578148394,4,1,0,85,0,0
77384,-108.861784723643,4,1,0,85,0,0
77584,-108.127161867443,4,1,0,85,0,0
77684,-107.763497916932,4,1,0,85,0,0
77784,-107.402271987662,4,1,0,85,0,0
77884,-107.043459644616,4,1,0,85,0,0
77984,-106.687036778222,4,1,0,85,0,0
78184,-95.2380952380952,4,1,0,85,0,0
78584,-100,4,1,0,85,0,0
78784,-101.010101010101,4,1,0,85,0,0
78984,-102.040816326531,4,1,0,85,0,0
79184,-102.58809239494,4,1,0,85,0,0
79584,-101.290850600047,4,1,0,85,0,0
79984,-100,4,1,0,90,0,1
84784,-95.2380952380952,4,1,0,90,0,1
84884,-93.1098696461825,4,1,0,90,0,1
84984,-91.0746812386157,4,1,0,90,0,1
85184,-90.9090909090909,4,1,0,90,0,1
85284,-92.9368029739777,4,1,0,90,0,1
85384,-95.0570342205323,4,1,0,90,0,1
85684,-94.1402407165955,4,1,0,90,0,1
85784,-93.0674087241389,4,1,0,90,0,1
85884,-92.0187534219474,4,1,0,90,0,1
85984,-91.0746812386157,4,1,0,90,0,1
86384,-99.8456386426584,4,1,0,90,0,1
87984,-100,4,1,0,90,0,1
88184,-103.399464183977,4,1,0,90,0,1
88384,-107.038074513485,4,1,0,90,0,1
88584,-110.9422323796,4,1,0,90,0,1
88684,-109.89010989011,4,1,0,90,0,1
88784,-108.695652173913,4,1,0,90,0,1
88984,-106.406297550314,4,1,0,90,0,1
89084,-105.297407261941,4,1,0,90,0,1
89184,-104.211390721851,4,1,0,90,0,1
89584,-100.082568118698,4,1,0,90,0,1
91184,-100,4,1,0,90,0,1
91284,-102.459016393443,4,1,0,90,0,1
91384,-105.042016806723,4,1,0,90,0,1
91584,-105.263157894737,4,1,0,90,0,1
91684,-102.669404517454,4,1,0,90,0,1
91784,-100.200400801603,4,1,0,90,0,1
92784,-100,4,1,0,90,0,1
92984,-100.715178482404,4,1,0,90,0,1
93084,-101.076566509897,4,1,0,90,0,1
93184,-101.440557354998,4,1,0,90,0,1
93384,-102.176565191714,4,1,0,90,0,1
93584,-102.923225449208,4,1,0,90,0,1
93684,-103.300769487432,4,1,0,90,0,1
93784,-103.68098604765,4,1,0,90,0,1
93984,-104.449987257102,4,1,0,90,0,1
94184,-105.230370326719,4,1,0,90,0,1
94384,-105.263157894737,4,1,0,90,0,1
94584,-104.354069182574,4,1,0,90,0,1
94684,-103.905387909985,4,1,0,90,0,1
94784,-103.460548423675,4,1,0,90,0,1
94984,-102.582199116152,4,1,0,90,0,1
95084,-102.148593516016,4,1,0,90,0,1
95284,-101.292389598892,4,1,0,90,0,1
95384,-100.869596793961,4,1,0,90,0,1
95584,-100.034511906608,4,1,0,90,0,1
95984,-100,4,1,0,90,0,1
96184,-100.715178482404,4,1,0,90,0,1
96384,-101.440557354998,4,1,0,90,0,1
96584,-102.176565191714,4,1,0,90,0,1
96784,-102.923225449208,4,1,0,90,0,1
96884,-103.300769487432,4,1,0,90,0,1
96984,-103.68098604765,4,1,0,90,0,1
97184,-104.449987257102,4,1,0,90,0,1
97384,-105.230370326719,4,1,0,90,0,1
97584,-105.263157894737,4,1,0,90,0,1
97784,-104.354069182574,4,1,0,90,0,1
97884,-103.905387909985,4,1,0,90,0,1
97984,-103.460548423675,4,1,0,90,0,1
98184,-102.582199116152,4,1,0,90,0,1
98284,-102.148593516016,4,1,0,90,0,1
98484,-101.292389598892,4,1,0,90,0,1
98584,-100.869596793961,4,1,0,90,0,1
98784,-100.034511906608,4,1,0,90,0,1
99184,-100,4,1,0,90,0,1
99384,-100.715178482404,4,1,0,90,0,1
99484,-101.076566509897,4,1,0,90,0,1
99584,-101.440557354998,4,1,0,90,0,1
99784,-102.176565191714,4,1,0,90,0,1
99984,-102.923225449208,4,1,0,90,0,1
100084,-103.300769487432,4,1,0,90,0,1
100184,-103.68098604765,4,1,0,90,0,1
100384,-104.449987257102,4,1,0,90,0,1
100584,-105.230370326719,4,1,0,90,0,1
100784,-105.263157894737,4,1,0,90,0,1
100984,-104.354069182574,4,1,0,90,0,1
101084,-103.905387909985,4,1,0,90,0,1
101184,-103.460548423675,4,1,0,90,0,1
101384,-102.582199116152,4,1,0,90,0,1
101484,-102.148593516016,4,1,0,90,0,1
101684,-101.292389598892,4,1,0,90,0,1
101784,-100.869596793961,4,1,0,90,0,1
101984,-100.034511906608,4,1,0,90,0,1
102384,-100,4,1,0,90,0,1
102584,-100.715178482404,4,1,0,90,0,1
102684,-101.076566509897,4,1,0,90,0,1
102784,-101.440557354998,4,1,0,90,0,1
102984,-102.176565191714,4,1,0,90,0,1
103184,-102.923225449208,4,1,0,90,0,1
103284,-103.300769487432,4,1,0,90,0,1
103384,-103.68098604765,4,1,0,90,0,1
103584,-104.449987257102,4,1,0,90,0,1
103784,-105.230370326719,4,1,0,90,0,1
103984,-105.263157894737,4,1,0,90,0,1
104184,-104.482181086427,4,1,0,90,0,1
104284,-104.09607651478,4,1,0,90,0,1
104384,-103.712815066568,4,1,0,90,0,1
104584,-102.954590848161,4,1,0,90,0,1
104684,-102.57967363251,4,1,0,90,0,1
104884,-101.837868003866,4,1,0,90,0,1
104984,-101.471025456036,4,1,0,90,0,1
105184,-100.745110839771,4,1,0,90,0,1
105384,-100.029608764194,4,1,0,90,0,1
105584,-100,4,1,0,85,0,0
118984,-100,4,1,0,65,0,0

[HitObjects]
238,175,3184,5,12,0:0:0:0:
265,200,3984,1,12,0:0:0:0:
206,199,4184,1,0,0:0:0:0:
230,195,4384,1,0,0:0:0:0:
265,200,4584,1,12,0:0:0:0:
217,164,4984,1,8,0:0:0:0:
217,164,5184,1,0,0:0:0:0:
329,114,5384,1,0,0:0:0:0:
278,183,5484,1,8,0:0:0:0:
282,170,5584,1,8,0:0:0:0:
208,193,5784,1,0,0:0:0:0:
242,171,5984,1,8,0:0:0:0:
282,170,6384,1,12,0:0:0:0:
282,170,7184,1,12,0:0:0:0:
205,191,7384,1,0,0:0:0:0:
242,171,7584,1,0,0:0:0:0:
282,170,7784,1,12,0:0:0:0:
252,169,8184,1,0,0:0:0:0:
344,198,8284,1,0,0:0:0:0:
252,169,8384,1,8,0:0:0:0:
327,86,8584,1,0,0:0:0:0:
282,170,8784,1,8,0:0:0:0:
206,178,8984,1,8,0:0:0:0:
372,167,9184,1,0,0:0:0:0:
282,170,9584,1,12,0:0:0:0:
282,170,10384,1,12,0:0:0:0:
205,191,10584,1,0,0:0:0:0:
205,191,10784,1,0,0:0:0:0:
282,170,10984,1,12,0:0:0:0:
300,157,11384,1,0,0:0:0:0:
300,157,11584,1,8,0:0:0:0:
169,181,11784,1,0,0:0:0:0:
169,181,11884,1,8,0:0:0:0:
331,170,11984,1,8,0:0:0:0:
246,180,12184,1,0,0:0:0:0:
246,180,12384,1,8,0:0:0:0:
196,187,12584,1,0,0:0:0:0:
280,170,12784,1,12,0:0:0:0:
280,170,13584,1,12,0:0:0:0:
380,191,13784,1,0,0:0:0:0:
315,148,13984,1,0,0:0:0:0:
331,170,14184,1,12,0:0:0:0:
296,175,14584,1,0,0:0:0:0:
296,175,14784,1,8,0:0:0:0:
374,170,14984,1,8,0:0:0:0:
226,177,15184,1,0,0:0:0:0:
297,193,15584,1,0,0:0:0:0:
374,170,15984,1,8,0:0:0:0:
328,191,16184,1,0,0:0:0:0:
269,181,16384,1,8,0:0:0:0:
247,137,16584,1,8,0:0:0:0:
371,194,16784,1,0,0:0:0:0:
371,194,16984,1,0,0:0:0:0:
280,165,17184,1,8,0:0:0:0:
259,180,17384,1,0,0:0:0:0:
197,206,17484,1,0,0:0:0:0:
255,233,17584,1,8,0:0:0:0:
206,193,17784,1,0,0:0:0:0:
259,180,17984,1,0,0:0:0:0:
206,193,18184,1,8,0:0:0:0:
255,233,18384,1,8,0:0:0:0:
164,165,18584,1,0,0:0:0:0:
328,191,18684,1,0,0:0:0:0:
255,233,18784,1,8,0:0:0:0:
179,200,18984,1,8,0:0:0:0:
371,85,19184,1,0,0:0:0:0:
186,200,19384,1,0,0:0:0:0:
368,165,19584,1,8,0:0:0:0:
166,202,19784,1,8,0:0:0:0:
162,204,19884,1,0,0:0:0:0:
272,170,19984,1,0,0:0:0:0:
194,173,20184,1,8,0:0:0:0:
368,165,20384,1,8,0:0:0:0:
370,85,20584,1,0,0:0:0:0:
272,170,20984,1,0,0:0:0:0:
370,85,21184,1,8,0:0:0:0:
159,154,21384,1,8,0:0:0:0:
370,85,21584,1,0,0:0:0:0:
167,186,21784,1,8,0:0:0:0:
167,186,21884,1,8,0:0:0:0:
317,188,21984,1,0,0:0:0:0:
177,207,22184,1,0,0:0:0:0:
376,169,22384,1,8,0:0:0:0:
216,186,22584,1,0,0:0:0:0:
216,186,22684,1,0,0:0:0:0:
247,89,22784,1,8,0:0:0:0:
167,186,22984,1,0,0:0:0:0:
370,85,23184,1,8,0:0:0:0:
243,177,23384,1,0,0:0:0:0:
247,89,23584,1,8,0:0:0:0:
183,170,23784,1,8,0:0:0:0:
211,147,23884,1,0,0:0:0:0:
370,85,23984,1,8,0:0:0:0:
195,168,24184,1,0,0:0:0:0:
247,89,24384,1,0,0:0:0:0:
196,167,24584,1,0,0:0:0:0:
370,85,24784,1,8,0:0:0:0:
240,176,24984,1,8,0:0:0:0:
195,168,25084,1,8,0:0:0:0:
261,169,25184,5,0,0:0:0:0:
325,174,25584,1,0,0:0:0:0:
260,154,25784,1,0,0:0:0:0:
186,172,25884,1,0,0:0:0:0:
370,85,25984,1,8,0:0:0:0:
260,154,26184,1,0,0:0:0:0:
370,85,26384,1,8,0:0:0:0:
152,169,26484,1,8,0:0:0:0:
260,154,26584,1,8,0:0:0:0:
192,175,26684,1,8,0:0:0:0:
229,199,26784,1,0,0:0:0:0:
230,170,26984,1,12,0:0:0:0:
340,171,27584,1,0,0:0:0:0:
340,171,27984,1,8,0:0:0:0:
248,156,28384,1,0,0:0:0:0:
340,171,28784,1,8,0:0:0:0:
154,197,28984,1,8,0:0:0:0:
207,88,29184,1,0,0:0:0:0:
302,243,29284,1,0,0:0:0:0:
207,88,29384,1,8,0:0:0:0:
370,85,29584,1,8,0:0:0:0:
197,171,29784,1,0,0:0:0:0:
340,171,29984,1,8,0:0:0:0:
226,191,30184,1,8,0:0:0:0:
211,187,30284,1,8,0:0:0:0:
207,88,30384,1,0,0:0:0:0:
200,99,30584,1,0,0:0:0:0:
370,85,30784,1,8,0:0:0:0:
370,85,31184,1,0,0:0:0:0:
211,187,31384,1,0,0:0:0:0:
241,197,31584,1,8,0:0:0:0:
197,171,31784,1,0,0:0:0:0:
197,171,31884,1,0,0:0:0:0:
245,184,31984,1,8,0:0:0:0:
241,197,32384,1,0,0:0:0:0:
241,197,32584,1,0,0:0:0:0:
370,85,32784,1,8,0:0:0:0:
174,214,32884,1,8,0:0:0:0:
174,214,32984,1,0,0:0:0:0:
241,197,33184,1,8,0:0:0:0:
210,187,33384,1,0,0:0:0:0:
351,154,33584,1,12,0:0:0:0:
241,197,33784,1,0,0:0:0:0:
351,154,33984,1,12,0:0:0:0:
266,246,34184,1,0,0:0:0:0:
291,180,34284,1,8,0:0:0:0:
351,154,34384,1,0,0:0:0:0:
243,169,34584,1,0,0:0:0:0:
241,197,34684,1,12,0:0:0:0:
351,154,35184,1,12,0:0:0:0:
190,166,35384,1,0,0:0:0:0:
370,85,35584,1,8,0:0:0:0:
216,192,35684,1,0,0:0:0:0:
216,192,35784,1,8,0:0:0:0:
157,158,35984,1,8,0:0:0:0:
370,85,36384,1,0,0:0:0:0:
210,187,36584,1,0,0:0:0:0:
370,85,36784,1,8,0:0:0:0:
292,166,36984,1,0,0:0:0:0:
210,187,37084,1,0,0:0:0:0:
292,166,37184,1,8,0:0:0:0:
210,187,37384,1,0,0:0:0:0:
370,85,37584,1,8,0:0:0:0:
370,85,37884,1,8,0:0:0:0:
380,57,38184,1,0,0:0:0:0:
393,54,38384,1,8,0:0:0:0:
209,274,38684,1,8,0:0:0:0:
263,113,38984,1,0,0:0:0:0:
357,159,39184,1,8,0:0:0:0:
357,159,39484,1,0,0:0:0:0:
263,113,39784,1,0,0:0:0:0:
357,159,39984,1,8,0:0:0:0:
357,159,40284,1,8,0:0:0:0:
263,113,40584,1,0,0:0:0:0:
357,159,40784,1,8,0:0:0:0:
172,171,41184,1,0,0:0:0:0:
116,169,41384,1,0,0:0:0:0:
239,177,41584,1,8,0:0:0:0:
271,164,41684,1,8,0:0:0:0:
271,164,41784,1,0,0:0:0:0:
203,134,41984,1,8,0:0:0:0:
214,170,42184,1,0,0:0:0:0:
214,170,42384,1,0,0:0:0:0:
165,127,42484,1,0,0:0:0:0:
165,127,42584,1,8,0:0:0:0:
203,134,42784,1,0,0:0:0:0:
197,174,42984,1,8,0:0:0:0:
194,164,43184,1,8,0:0:0:0:
200,177,43284,1,8,0:0:0:0:
200,177,43384,1,0,0:0:0:0:
165,127,43584,1,8,0:0:0:0:
209,170,43784,1,0,0:0:0:0:
241,172,43984,1,0,0:0:0:0:
197,174,44084,1,0,0:0:0:0:
304,166,44184,1,8,0:0:0:0:
241,172,44384,1,0,0:0:0:0:
241,172,44784,1,8,0:0:0:0:
209,170,44984,1,0,0:0:0:0:
209,170,45084,1,0,0:0:0:0:
316,125,45184,1,8,0:0:0:0:
316,125,45384,1,8,0:0:0:0:
241,172,45484,1,0,0:0:0:0:
105,196,45684,1,0,0:0:0:0:
180,171,45784,1,8,0:0:0:0:
241,172,45984,1,8,0:0:0:0:
259,177,46184,1,0,0:0:0:0:
241,172,46384,1,8,0:0:0:0:
85,189,46584,1,0,0:0:0:0:
85,189,46784,1,8,0:0:0:0:
296,107,46984,1,8,0:0:0:0:
241,172,47084,1,0,0:0:0:0:
149,163,47284,1,0,0:0:0:0:
188,164,47384,1,8,0:0:0:0:
241,172,47584,1,8,0:0:0:0:
241,172,47984,1,8,0:0:0:0:
208,169,48084,1,8,0:0:0:0:
178,186,48184,1,0,0:0:0:0:
289,199,48384,1,0,0:0:0:0:
236,168,48584,1,8,0:0:0:0:
241,172,48784,1,0,0:0:0:0:
193,166,48884,1,0,0:0:0:0:
289,199,48984,1,8,0:0:0:0:
241,172,49184,1,0,0:0:0:0:
177,186,49384,1,0,0:0:0:0:
289,199,49584,1,8,0:0:0:0:
252,192,49684,1,8,0:0:0:0:
252,192,49784,1,0,0:0:0:0:
241,172,49984,1,8,0:0:0:0:
236,168,50184,1,0,0:0:0:0:
241,172,50384,1,0,0:0:0:0:
278,145,50484,1,0,0:0:0:0:
286,198,50584,1,8,0:0:0:0:
177,182,50784,1,8,0:0:0:0:
98,199,50984,1,0,0:0:0:0:
241,172,51184,1,4,0:0:0:0:
256,132,51584,1,4,0:0:0:0:
256,132,51884,1,12,0:0:0:0:
286,198,52184,1,12,0:0:0:0:
256,132,52384,1,4,0:0:0:0:
326,141,52784,1,12,0:0:0:0:
326,141,53184,1,4,0:0:0:0:
326,141,53484,1,4,0:0:0:0:
286,198,53784,1,4,0:0:0:0:
326,141,53984,1,12,0:0:0:0:
326,141,54384,1,8,0:0:0:0:
286,198,54584,1,0,0:0:0:0:
286,198,54784,1,0,0:0:0:0:
101,162,54984,1,0,0:0:0:0:
326,141,55184,1,8,0:0:0:0:
286,198,55284,1,8,0:0:0:0:
224,184,55384,1,8,0:0:0:0:
286,198,55584,1,0,0:0:0:0:
286,198,55784,1,0,0:0:0:0:
326,141,55984,1,8,0:0:0:0:
242,165,56184,1,0,0:0:0:0:
286,198,56384,1,8,0:0:0:0:
326,141,56584,1,0,0:0:0:0:
286,198,56984,1,0,0:0:0:0:
326,132,57184,1,8,0:0:0:0:
242,165,57384,1,8,0:0:0:0:
247,134,57484,1,0,0:0:0:0:
320,128,57584,1,0,0:0:0:0:
286,198,57984,1,8,0:0:0:0:
286,198,58184,1,0,0:0:0:0:
320,128,58384,1,8,0:0:0:0:
215,207,58584,1,0,0:0:0:0:
371,175,58784,1,0,0:0:0:0:
215,207,58984,1,0,0:0:0:0:
320,128,59184,1,8,0:0:0:0:
371,175,59784,1,8,0:0:0:0:
207,149,59884,1,8,0:0:0:0:
273,185,59984,1,0,0:0:0:0:
280,141,60384,1,8,0:0:0:0:
273,185,60784,1,0,0:0:0:0:
132,248,60984,1,8,0:0:0:0:
280,141,61184,1,0,0:0:0:0:
212,161,61384,1,8,0:0:0:0:
273,185,61584,1,8,0:0:0:0:
280,141,61684,1,0,0:0:0:0:
273,185,61784,1,0,0:0:0:0:
91,131,61984,1,8,0:0:0:0:
280,141,62184,1,0,0:0:0:0:
273,185,62384,1,8,0:0:0:0:
280,141,62784,1,0,0:0:0:0:
273,185,63184,1,8,0:0:0:0:
280,141,63384,1,0,0:0:0:0:
168,159,63484,1,8,0:0:0:0:
273,185,63584,1,0,0:0:0:0:
280,141,63784,1,0,0:0:0:0:
273,185,63984,1,8,0:0:0:0:
280,141,64384,1,0,0:0:0:0:
273,185,64784,1,8,0:0:0:0:
280,141,64984,1,0,0:0:0:0:
273,185,65184,1,8,0:0:0:0:
280,141,65384,1,0,0:0:0:0:
273,185,65584,1,8,0:0:0:0:
280,141,65984,1,0,0:0:0:0:
273,185,66384,1,0,0:0:0:0:
280,141,66584,1,0,0:0:0:0:
177,154,66684,1,0,0:0:0:0:
273,185,66784,1,8,0:0:0:0:
241,149,67184,1,8,0:0:0:0:
285,201,67384,1,0,0:0:0:0:
285,201,67484,1,8,0:0:0:0:
280,141,67584,1,8,0:0:0:0:
285,201,67784,1,0,0:0:0:0:
285,201,67984,1,8,0:0:0:0:
316,227,68084,1,8,0:0:0:0:
199,163,68184,1,0,0:0:0:0:
316,227,68284,1,0,0:0:0:0:
241,149,68384,1,8,0:0:0:0:
143,134,68584,1,0,0:0:0:0:
241,149,68984,1,8,0:0:0:0:
181,180,69084,1,0,0:0:0:0:
303,193,69184,1,8,0:0:0:0:
198,166,69384,1,0,0:0:0:0:
303,193,69584,1,8,0:0:0:0:
280,141,69784,1,8,0:0:0:0:
187,144,69884,1,8,0:0:0:0:
280,141,69984,1,0,0:0:0:0:
203,159,70184,1,0,0:0:0:0:
303,193,70384,1,8,0:0:0:0:
280,141,70584,1,0,0:0:0:0:
212,193,70684,1,0,0:0:0:0:
280,141,70784,1,8,0:0:0:0:
203,159,70984,1,0,0:0:0:0:
303,193,71184,1,8,0:0:0:0:
280,141,71384,1,8,0:0:0:0:
280,141,71584,1,8,0:0:0:0:
383,178,71784,1,0,0:0:0:0:
308,152,72184,1,0,0:0:0:0:
308,152,72384,1,8,0:0:0:0:
280,141,72584,1,8,0:0:0:0:
308,152,72784,1,0,0:0:0:0:
280,141,72984,1,0,0:0:0:0:
308,152,73184,1,8,0:0:0:0:
308,152,73584,5,8,0:0:0:0:
406,153,73784,1,0,0:0:0:0:
406,153,73884,1,0,0:0:0:0:
280,141,73984,1,8,0:0:0:0:
280,141,74184,1,0,0:0:0:0:
308,152,74384,1,8,0:0:0:0:
406,153,74584,1,0,0:0:0:0:
308,152,74784,1,8,0:0:0:0:
406,153,74984,1,8,0:0:0:0:
406,153,75084,1,0,0:0:0:0:
185,170,75184,1,0,0:0:0:0:
207,179,75384,1,0,0:0:0:0:
332,153,75584,1,8,0:0:0:0:
266,168,75784,1,0,0:0:0:0:
157,165,75984,1,8,0:0:0:0:
207,179,76184,1,8,0:0:0:0:
207,179,76284,1,0,0:0:0:0:
266,168,76384,1,8,0:0:0:0:
207,179,76584,1,0,0:0:0:0:
157,165,76784,1,8,0:0:0:0:
329,177,76984,1,0,0:0:0:0:
207,179,77084,1,0,0:0:0:0:
207,179,77184,1,8,0:0:0:0:
329,177,77384,1,0,0:0:0:0:
157,165,77584,1,8,0:0:0:0:
197,181,77684,1,8,0:0:0:0:
197,181,77784,1,8,0:0:0:0:
167,173,77884,1,8,0:0:0:0:
329,177,77984,1,0,0:0:0:0:
157,165,78184,1,8,0:0:0:0:
329,177,78584,1,8,0:0:0:0:
157,165,78784,1,0,0:0:0:0:
199,161,78984,1,0,0:0:0:0:
157,165,79184,1,8,0:0:0:0:
327,167,79584,1,0,0:0:0:0:
157,165,79984,1,12,0:0:0:0:
327,167,80184,1,0,0:0:0:0:
111,163,80284,1,0,0:0:0:0:
327,167,80384,1,0,0:0:0:0:
271,165,80584,1,8,0:0:0:0:
288,215,80784,1,0,0:0:0:0:
199,161,80984,1,0,0:0:0:0:
271,165,81184,1,8,0:0:0:0:
271,165,81384,1,0,0:0:0:0:
288,215,81584,1,8,0:0:0:0:
199,161,81784,1,0,0:0:0:0:
199,161,81884,1,0,0:0:0:0:
288,215,81984,1,0,0:0:0:0:
298,225,82184,1,8,0:0:0:0:
288,215,82384,1,8,0:0:0:0:
267,143,82584,1,0,0:0:0:0:
177,165,82684,1,0,0:0:0:0:
267,143,82784,1,8,0:0:0:0:
199,161,82884,1,8,0:0:0:0:
199,161,82984,1,0,0:0:0:0:
288,215,83184,1,0,0:0:0:0:
202,192,83384,1,0,0:0:0:0:
221,188,83584,1,8,0:0:0:0:
202,192,83784,1,0,0:0:0:0:
288,215,83984,1,0,0:0:0:0:
168,204,84184,1,8,0:0:0:0:
239,192,84384,1,8,0:0:0:0:
239,192,84584,1,0,0:0:0:0:
256,189,84784,1,8,0:0:0:0:
223,189,84884,1,8,0:0:0:0:
202,192,84984,1,0,0:0:0:0:
256,189,85184,1,0,0:0:0:0:
202,192,85284,1,8,0:0:0:0:
202,192,85384,1,8,0:0:0:0:
256,189,85584,1,8,0:0:0:0:
239,192,85684,1,8,0:0:0:0:
237,177,85784,1,0,0:0:0:0:
167,186,85884,1,0,0:0:0:0:
256,189,85984,1,8,0:0:0:0:
256,189,86384,1,8,0:0:0:0:
202,192,86584,1,0,0:0:0:0:
202,192,86684,1,0,0:0:0:0:
320,184,86784,1,0,0:0:0:0:
202,192,86984,1,0,0:0:0:0:
256,189,87184,1,0,0:0:0:0:
320,184,87384,1,8,0:0:0:0:
320,184,87584,1,0,0:0:0:0:
202,192,87784,1,0,0:0:0:0:
256,189,87984,1,8,0:0:0:0:
168,202,88184,1,0,0:0:0:0:
256,189,88384,1,8,0:0:0:0:
168,202,88584,1,8,0:0:0:0:
202,192,88684,1,0,0:0:0:0:
256,189,88784,1,0,0:0:0:0:
320,184,88984,1,8,0:0:0:0:
254,172,89084,1,8,0:0:0:0:
256,189,89184,1,0,0:0:0:0:
256,189,89584,1,8,0:0:0:0:
202,192,89784,1,0,0:0:0:0:
320,184,89984,1,0,0:0:0:0:
202,192,90184,1,0,0:0:0:0:
256,189,90384,1,8,0:0:0:0:
320,184,90584,1,0,0:0:0:0:
320,184,90784,1,0,0:0:0:0:
202,192,90984,1,0,0:0:0:0:
256,189,91184,1,8,0:0:0:0:
166,199,91284,1,8,0:0:0:0:
202,192,91384,1,0,0:0:0:0:
256,189,91584,1,0,0:0:0:0:
234,204,91684,1,8,0:0:0:0:
202,192,91784,1,8,0:0:0:0:
256,189,91984,1,8,0:0:0:0:
320,184,92184,1,8,0:0:0:0:
256,189,92384,1,8,0:0:0:0:
202,192,92484,1,8,0:0:0:0:
202,192,92584,1,0,0:0:0:0:
256,189,92784,1,8,0:0:0:0:
471,273,92984,1,0,0:0:0:0:
471,273,93084,1,0,0:0:0:0:
320,184,93184,1,8,0:0:0:0:
471,273,93384,1,0,0:0:0:0:
256,189,93584,1,8,0:0:0:0:
471,273,93684,1,0,0:0:0:0:
320,184,93784,1,8,0:0:0:0:
320,184,93984,1,8,0:0:0:0:
471,273,94184,1,0,0:0:0:0:
256,189,94384,1,8,0:0:0:0:
276,162,94584,1,8,0:0:0:0:
276,162,94684,1,8,0:0:0:0:
256,189,94784,1,0,0:0:0:0:
320,184,94984,1,8,0:0:0:0:
471,273,95084,1,0,0:0:0:0:
146,185,95284,1,0,0:0:0:0:
320,184,95384,1,8,0:0:0:0:
277,189,95584,1,0,0:0:0:0:
287,192,95984,1,8,0:0:0:0:
320,184,96184,1,8,0:0:0:0:
320,184,96384,1,0,0:0:0:0:
276,162,96584,1,0,0:0:0:0:
287,192,96784,1,8,0:0:0:0:
102,176,96884,1,0,0:0:0:0:
350,186,96984,1,0,0:0:0:0:
355,188,97184,1,8,0:0:0:0:
350,186,97384,1,0,0:0:0:0:
287,192,97584,1,8,0:0:0:0:
169,188,97784,1,0,0:0:0:0:
169,188,97884,1,0,0:0:0:0:
287,192,97984,1,8,0:0:0:0:
350,186,98184,1,8,0:0:0:0:
350,186,98284,1,0,0:0:0:0:
169,188,98484,1,0,0:0:0:0:
230,194,98584,1,8,0:0:0:0:
290,216,98784,1,8,0:0:0:0:
169,188,98984,1,0,0:0:0:0:
169,188,99084,1,0,0:0:0:0:
290,216,99184,1,8,0:0:0:0:
314,171,99384,1,8,0:0:0:0:
215,175,99484,1,8,0:0:0:0:
314,171,99584,1,0,0:0:0:0:
161,149,99784,1,8,0:0:0:0:
290,216,99984,1,8,0:0:0:0:
169,188,100084,1,0,0:0:0:0:
169,188,100184,1,0,0:0:0:0:
320,187,100384,1,8,0:0:0:0:
320,187,100584,1,0,0:0:0:0:
290,216,100784,1,8,0:0:0:0:
165,163,100984,1,8,0:0:0:0:
165,163,101084,1,8,0:0:0:0:
290,216,101184,1,0,0:0:0:0:
320,187,101384,1,8,0:0:0:0:
320,187,101484,1,0,0:0:0:0:
169,188,101684,1,0,0:0:0:0:
210,178,101784,1,8,0:0:0:0:
290,216,101984,1,8,0:0:0:0:
290,216,102384,1,8,0:0:0:0:
169,188,102584,1,0,0:0:0:0:
169,188,102684,1,0,0:0:0:0:
320,187,102784,1,8,0:0:0:0:
320,187,102984,1,0,0:0:0:0:
290,216,103184,1,8,0:0:0:0:
169,188,103284,1,0,0:0:0:0:
189,178,103384,1,8,0:0:0:0:
320,187,103584,1,8,0:0:0:0:
205,175,103784,1,0,0:0:0:0:
290,216,103984,1,0,0:0:0:0:
227,165,104184,1,8,0:0:0:0:
227,165,104284,1,8,0:0:0:0:
290,216,104384,1,0,0:0:0:0:
205,175,104584,1,8,0:0:0:0:
290,216,104684,1,0,0:0:0:0:
205,175,104884,1,0,0:0:0:0:
320,187,104984,1,8,0:0:0:0:
363,175,105184,1,8,0:0:0:0:
320,187,105384,1,0,0:0:0:0:
273,170,105584,1,12,0:0:0:0:
273,170,106384,1,12,0:0:0:0:
320,187,106584,1,0,0:0:0:0:
320,187,106784,1,0,0:0:0:0:
273,170,106984,1,12,0:0:0:0:
315,158,107384,1,0,0:0:0:0:
315,158,107584,1,8,0:0:0:0:
315,158,107784,1,0,0:0:0:0:
241,184,107984,1,8,0:0:0:0:
184,214,108084,1,0,0:0:0:0:
315,158,108184,1,0,0:0:0:0:
177,171,108284,1,0,0:0:0:0:
315,158,108384,1,8,0:0:0:0:
267,176,108584,1,0,0:0:0:0:
241,184,108784,1,12,0:0:0:0:
205,175,108984,1,0,0:0:0:0:
299,215,109184,1,0,0:0:0:0:
303,212,109384,1,0,0:0:0:0:
241,184,109584,1,12,0:0:0:0:
313,153,109784,1,0,0:0:0:0:
313,153,109984,1,0,0:0:0:0:
241,184,110184,1,12,0:0:0:0:
313,153,110584,1,0,0:0:0:0:
313,153,110784,1,8,0:0:0:0:
313,153,110984,1,0,0:0:0:0:
366,151,111184,1,8,0:0:0:0:
297,212,111284,1,0,0:0:0:0:
303,212,111384,1,0,0:0:0:0:
303,212,111484,1,0,0:0:0:0:
293,174,111584,1,8,0:0:0:0:
303,212,111784,1,0,0:0:0:0:
350,138,111984,1,12,0:0:0:0:
293,174,112384,1,0,0:0:0:0:
293,174,112584,1,0,0:0:0:0:
350,138,112784,1,8,0:0:0:0:
265,172,112984,1,8,0:0:0:0:
265,172,113084,1,8,0:0:0:0:
293,174,113184,1,0,0:0:0:0:
350,138,113384,1,8,0:0:0:0:
303,212,113584,1,0,0:0:0:0:
288,204,113684,1,0,0:0:0:0:
293,174,113784,1,8,0:0:0:0:
293,174,113984,1,8,0:0:0:0:
293,174,114184,1,0,0:0:0:0:
356,164,114384,1,8,0:0:0:0:
293,174,114584,1,0,0:0:0:0:
265,172,114684,1,0,0:0:0:0:
293,174,114784,1,8,0:0:0:0:
217,176,114984,1,0,0:0:0:0:
265,138,115184,1,12,0:0:0:0:
303,212,115384,1,0,0:0:0:0:
293,174,115584,1,0,0:0:0:0:
303,212,115784,1,0,0:0:0:0:
265,138,115984,1,12,0:0:0:0:
293,174,116184,1,0,0:0:0:0:
260,159,116384,1,0,0:0:0:0:
265,138,116584,1,12,0:0:0:0:
260,159,116984,1,0,0:0:0:0:
254,191,117184,1,8,0:0:0:0:
260,159,117384,1,8,0:0:0:0:
249,187,117584,1,0,0:0:0:0:
227,184,117784,1,0,0:0:0:0:
227,184,117884,1,0,0:0:0:0:
249,187,117984,1,8,0:0:0:0:
260,159,118384,1,0,0:0:0:0:
237,180,118484,1,0,0:0:0:0:
260,159,118584,1,0,0:0:0:0:
285,249,118684,1,0,0:0:0:0:
183,159,118784,1,12,0:0:0:0:
256,192,118984,12,0,120384,0:0:0:0:
