osu file format v14

[General]
AudioFilename: audio.mp3
AudioLeadIn: 0
PreviewTime: 79984
Countdown: 0
SampleSet: Normal
StackLeniency: 0.7
Mode: 1
LetterboxInBreaks: 0
WidescreenStoryboard: 1

[Editor]
DistanceSpacing: 0.4
BeatDivisor: 4
GridSize: 16
TimelineZoom: 3.099999

[Metadata]
Title:BUNA*SYNERGY!!!
TitleUnicode:BUNA☆SYNERGY!!!
Artist:MYUKKE.
ArtistUnicode:MYUKKE.
Creator:Boaz
Version:Inner Oni
Source:osu!
Tags:we love myukke complextro folk instrumental electronic fa featured artist
BeatmapID:3096661
BeatmapSetID:1512343

[Difficulty]
HPDrainRate:6
CircleSize:5
OverallDifficulty:6
ApproachRate:5
SliderMultiplier:1.4
SliderTickRate:1

[Events]
//Background and Video events
0,0,"bg.jpg",0,0
//Break Periods
//Storyboard Layer 0 (Background)
//Storyboard Layer 1 (Fail)
//Storyboard Layer 2 (Pass)
//Storyboard Layer 3 (Foreground)
//Storyboard Layer 4 (Overlay)
//Storyboard Sound Samples

[TimingPoints]
3184,400,4,1,0,80,1,0
3184,-111.111111111111,4,1,0,80,0,0
15984,-111.111111111111,4,1,0,85,0,0
22384,-111.111111111111,4,1,0,85,0,0
22584,-110.346775777559,4,1,0,85,0,0
22684,-109.968538001278,4,1,0,85,0,0
22784,-109.592884353205,4,1,0,85,0,0
22984,-108.849342713244,4,1,0,85,0,0
23184,-108.115705427949,4,1,0,85,0,0
23384,-107.391891267858,4,1,0,85,0,0
23584,-106.677704253133,4,1,0,85,0,0
23784,-105.973065885575,4,1,0,85,0,0
23884,-105.624170190113,4,1,0,85,0,0
23984,-105.277564298272,4,1,0,85,0,0
24184,-104.591132345435,4,1,0,85,0,0
24384,-103.91359376851,4,1,0,85,0,0
24584,-103.244883441689,4,1,0,85,0,0
24784,-102.584619488,4,1,0,85,0,0
24884,-102.257644270197,4,1,0,85,0,0
24984,-101.932746812308,4,1,0,85,0,0
25084,-101.609907372408,4,1,0,85,0,0
25184,-101.28910645789,4,1,0,85,0,0
25384,-100.653644769131,4,1,0,85,0,0
25584,-100.026006761758,4,1,0,85,0,0
25684,-97.9263124084389,4,1,0,85,0,0
25784,-95.9367891683527,4,1,0,85,0,0
25884,-94.0265850766646,4,1,0,85,0,0
25984,-92.190879371922,4,1,0,85,0,0
26084,-90.4255607741151,4,1,0,85,0,0
26184,-88.7264996774792,4,1,0,85,0,0
26284,-87.0901862423633,4,1,0,85,0,0
26384,-86.9565217391304,4,1,0,85,0,0
26450,-85.7392480839422,4,1,0,85,0,0
26517,-84.555655800983,4,1,0,85,0,0
26584,-83.4042269262206,4,1,0,85,0,0
26650,-82.2838034207023,4,1,0,85,0,0
26717,-81.1930177252477,4,1,0,85,0,0
26784,-80.130837631685,4,1,0,85,0,0
26984,-76.9230769230769,4,1,0,85,0,0
27184,-83.3333333333333,4,1,0,85,0,0
27584,-90.9090909090909,4,1,0,85,0,0
27984,-95.2380952380952,4,1,0,85,0,0
28384,-100,4,1,0,85,0,0
28784,-105.243992409803,4,1,0,85,0,0
41584,-100,4,1,0,87,0,0
41684,-102.564102564103,4,1,0,87,0,0
41784,-105.263157894737,4,1,0,87,0,0
41884,-108.108108108108,4,1,0,87,0,0
41984,-111.111111111111,4,1,0,87,0,0
42384,-111.111111111111,4,1,0,87,0,0
42484,-109.090869421502,4,1,0,87,0,0
42584,-107.142895408177,4,1,0,87,0,0
42684,-105.263157894737,4,1,0,87,0,0
42784,-103.448240190262,4,1,0,87,0,0
42884,-101.694949727102,4,1,0,87,0,0
42984,-100,4,1,0,87,0,0
43184,-100,4,1,0,87,0,0
43284,-102.564102564103,4,1,0,87,0,0
43384,-105.263157894737,4,1,0,87,0,0
43484,-108.108108108108,4,1,0,87,0,0
43584,-111.111111111111,4,1,0,87,0,0
43984,-111.111111111111,4,1,0,87,0,0
44084,-109.090869421502,4,1,0,87,0,0
44184,-107.142895408177,4,1,0,87,0,0
44284,-105.263157894737,4,1,0,87,0,0
44384,-103.448240190262,4,1,0,87,0,0
44484,-101.694949727102,4,1,0,87,0,0
44584,-100,4,1,0,87,0,0
47984,-100,4,1,0,87,0,0
48084,-102.564102564103,4,1,0,87,0,0
48184,-105.263157894737,4,1,0,87,0,0
48284,-108.108108108108,4,1,0,87,0,0
48384,-111.111111111111,4,1,0,87,0,0
48784,-111.111111111111,4,1,0,87,0,0
48884,-109.090869421502,4,1,0,87,0,0
48984,-107.142895408177,4,1,0,87,0,0
49084,-105.263157894737,4,1,0,87,0,0
49184,-103.448240190262,4,1,0,87,0,0
49284,-101.694949727102,4,1,0,87,0,0
49384,-100,4,1,0,87,0,0
49584,-100,4,1,0,87,0,0
49684,-102.564102564103,4,1,0,87,0,0
49784,-105.263157894737,4,1,0,87,0,0
49884,-108.108108108108,4,1,0,87,0,0
49984,-111.111111111111,4,1,0,87,0,0
50384,-111.111111111111,4,1,0,87,0,0
50484,-109.090869421502,4,1,0,87,0,0
50584,-107.142895408177,4,1,0,87,0,0
50684,-105.263157894737,4,1,0,87,0,0
50784,-103.448240190262,4,1,0,87,0,0
50884,-101.694949727102,4,1,0,87,0,0
50984,-100,4,1,0,87,0,0
54384,-111.111111111111,4,1,0,80,0,0
66984,-111.111111111111,4,1,0,80,0,0
67084,-117.647058823529,4,1,0,80,0,0
67184,-125,4,1,0,75,0,0
73584,-125,4,1,0,75,0,0
73784,-124.03223845942,4,1,0,76,0,0
73884,-123.553955394551,4,1,0,77,0,0
73984,-123.079346793291,4,1,0,78,0,0
74184,-122.140984896046,4,1,0,79,0,0
74384,-121.216969890917,4,1,0,80,0,0
74584,-120.30668580345,4,1,0,81,0,0
74784,-119.409971449076,4,1,0,82,0,0
74984,-118.526525643806,4,1,0,83,0,0
75084,-118.089686755297,4,1,0,84,0,0
75184,-117.656056051345,4,1,0,85,0,0
75384,-116.798278860563,4,1,0,85,0,0
75584,-115.952918476982,4,1,0,85,0,0
75784,-115.119707227561,4,1,0,85,0,0
75984,-114.298515719475,4,1,0,85,0,0
76184,-113.488828159756,4,1,0,85,0,0
76284,-113.088271049968,4,1,0,85,0,0
76384,-112.690531516161,4,1,0,85,0,0
76584,-111.90338709172,4,1,0,85,0,0
76784,-111.127162812406,4,1,0,85,0,0
76884,-110.743074958665,4,1,0,85,0,0
76984,-110.361632999011,4,1,0,85,0,0
77084,-109.982809686846,4,1,0,85,0,0
77184,-109.606578148394,4,1,0,85,0,0
77284,-109.232911876348,4,1,0,85,0,0
77384,-108.861784723643,4,1,0,85,0,0
77484,-108.493170897358,4,1,0,85,0,0
77584,-108.127161867443,4,1,0,85,0,0
77650,-107.884408329539,4,1,0,85,0,0
77717,-107.642742349561,4,1,0,85,0,0
77784,-107.402271987662,4,1,0,85,0,0
77850,-107.162758798062,4,1,0,85,0,0
77917,-106.924311487627,4,1,0,85,0,0
77984,-106.687036778222,4,1,0,85,0,0
78184,-95.2380952380952,4,1,0,85,0,0
78584,-100,4,1,0,85,0,0
78784,-101.010101010101,4,1,0,85,0,0
78984,-102.040816326531,4,1,0,85,0,0
79184,-103.092783505155,4,1,0,85,0,0
79584,-101.290850600047,4,1,0,85,0,0
79984,-100,4,1,0,90,0,1
84784,-100,4,1,0,90,0,1
84884,-99.1791929987424,4,1,0,90,0,1
84984,-98.3717507810717,4,1,0,90,0,1
85084,-97.5773495650002,4,1,0,90,0,1
85184,-96.7957696376837,4,1,0,90,0,1
85284,-96.0265186833996,4,1,0,90,0,1
85384,-95.2693980403085,4,1,0,90,0,1
85484,-94.5241230288176,4,1,0,90,0,1
85584,-93.7904178081742,4,1,0,90,0,1
85684,-93.0680150360685,4,1,0,90,0,1
85784,-92.3566555438468,4,1,0,90,0,1
85884,-91.6561720349687,4,1,0,90,0,1
85984,-90.9661514950287,4,1,0,90,0,1
86184,-95.2380952380952,4,1,0,90,0,1
86384,-100,4,1,0,90,0,1
87984,-100,4,1,0,90,0,1
88084,-99.1791929987424,4,1,0,90,0,1
88184,-98.3717507810717,4,1,0,90,0,1
88284,-97.5773495650002,4,1,0,90,0,1
88384,-96.7957696376837,4,1,0,90,0,1
88484,-96.0265186833996,4,1,0,90,0,1
88584,-95.2693980403085,4,1,0,90,0,1
88684,-94.5241230288176,4,1,0,90,0,1
88784,-93.7904178081742,4,1,0,90,0,1
88884,-93.0680150360685,4,1,0,90,0,1
88984,-92.3566555438468,4,1,0,90,0,1
89084,-91.6561720349687,4,1,0,90,0,1
89184,-90.9661514950287,4,1,0,90,0,1
89384,-95.2380952380952,4,1,0,90,0,1
89584,-100,4,1,0,90,0,1
91184,-100,4,1,0,90,0,1
91284,-102.459016393443,4,1,0,90,0,1
91384,-105.042016806723,4,1,0,90,0,1
91584,-105.263157894737,4,1,0,90,0,1
91684,-102.669404517454,4,1,0,90,0,1
91784,-100.200400801603,4,1,0,90,0,1
92784,-100,4,1,0,90,0,1
92984,-101.440557354998,4,1,0,90,0,1
93084,-102.176565191714,4,1,0,90,0,1
93184,-102.923225449208,4,1,0,90,0,1
93384,-104.449987257102,4,1,0,90,0,1
93584,-106.022614623699,4,1,0,90,0,1
93684,-106.826764377547,4,1,0,90,0,1
93784,-107.643321700678,4,1,0,90,0,1
93984,-109.314347617439,4,1,0,90,0,1
94184,-111.038072734379,4,1,0,90,0,1
94384,-111.111111111111,4,1,0,90,0,1
94584,-108.715149999728,4,1,0,90,0,1
94684,-107.555563203951,4,1,0,90,0,1
94734,-106.984939730034,4,1,0,90,0,1
94784,-106.420452308206,4,1,0,90,0,1
94884,-105.308939570571,4,1,0,90,0,1
94984,-104.220513932198,4,1,0,90,0,1
95084,-103.154357085312,4,1,0,90,0,1
95284,-101.086068722353,4,1,0,90,0,1
95384,-100.082668284003,4,1,0,90,0,1
95984,-100,4,1,0,90,0,1
96184,-101.440557354998,4,1,0,90,0,1
96284,-102.176565191714,4,1,0,90,0,1
96384,-102.923225449208,4,1,0,90,0,1
96584,-104.449987257102,4,1,0,90,0,1
96784,-106.022614623699,4,1,0,90,0,1
96884,-106.826764377547,4,1,0,90,0,1
96984,-107.643321700678,4,1,0,90,0,1
97184,-109.314347617439,4,1,0,90,0,1
97384,-111.038072734379,4,1,0,90,0,1
97584,-111.111111111111,4,1,0,90,0,1
97784,-108.715149999728,4,1,0,90,0,1
97884,-107.555563203951,4,1,0,90,0,1
97934,-106.984939730034,4,1,0,90,0,1
97984,-106.420452308206,4,1,0,90,0,1
98084,-105.308939570571,4,1,0,90,0,1
98184,-104.220513932198,4,1,0,90,0,1
98284,-103.154357085312,4,1,0,90,0,1
98484,-101.086068722353,4,1,0,90,0,1
98584,-100.082668284003,4,1,0,90,0,1
99184,-100,4,1,0,90,0,1
99384,-101.440557354998,4,1,0,90,0,1
99484,-102.176565191714,4,1,0,90,0,1
99584,-102.923225449208,4,1,0,90,0,1
99784,-104.449987257102,4,1,0,90,0,1
99984,-106.022614623699,4,1,0,90,0,1
100084,-106.826764377547,4,1,0,90,0,1
100184,-107.643321700678,4,1,0,90,0,1
100384,-109.314347617439,4,1,0,90,0,1
100584,-111.038072734379,4,1,0,90,0,1
100784,-111.111111111111,4,1,0,90,0,1
100984,-108.715149999728,4,1,0,90,0,1
101084,-107.555563203951,4,1,0,90,0,1
101134,-106.984939730034,4,1,0,90,0,1
101184,-106.420452308206,4,1,0,90,0,1
101284,-105.308939570571,4,1,0,90,0,1
101384,-104.220513932198,4,1,0,90,0,1
101484,-103.154357085312,4,1,0,90,0,1
101684,-101.086068722353,4,1,0,90,0,1
101784,-100.082668284003,4,1,0,90,0,1
102384,-100,4,1,0,90,0,1
102584,-101.440557354998,4,1,0,90,0,1
102684,-102.176565191714,4,1,0,90,0,1
102784,-102.923225449208,4,1,0,90,0,1
102984,-104.449987257102,4,1,0,90,0,1
103184,-106.022614623699,4,1,0,90,0,1
103284,-106.826764377547,4,1,0,90,0,1
103384,-107.643321700678,4,1,0,90,0,1
103584,-109.314347617439,4,1,0,90,0,1
103784,-111.038072734379,4,1,0,90,0,1
103984,-111.111111111111,4,1,0,90,0,1
104184,-108.715149999728,4,1,0,90,0,1
104284,-107.555563203951,4,1,0,90,0,1
104334,-106.984939730034,4,1,0,90,0,1
104384,-106.420452308206,4,1,0,90,0,1
104484,-105.308939570571,4,1,0,90,0,1
104584,-104.220513932198,4,1,0,90,0,1
104684,-103.154357085312,4,1,0,90,0,1
104884,-101.086068722353,4,1,0,90,0,1
104984,-100.082668284003,4,1,0,90,0,1
105584,-100,4,1,0,85,0,0
118984,-100,4,1,0,65,0,0

[HitObjects]
238,175,3184,5,12,0:0:0:0:
265,200,3984,1,12,0:0:0:0:
256,197,4184,1,0,0:0:0:0:
230,195,4384,1,0,0:0:0:0:
265,200,4584,1,12,0:0:0:0:
217,164,4984,1,8,0:0:0:0:
217,164,5184,1,0,0:0:0:0:
329,114,5384,1,8,0:0:0:0:
278,183,5484,1,0,0:0:0:0:
282,170,5584,1,8,0:0:0:0:
252,205,5650,1,8,0:0:0:0:
252,205,5717,1,8,0:0:0:0:
208,193,5784,1,0,0:0:0:0:
242,171,5984,1,8,0:0:0:0:
279,188,6184,1,0,0:0:0:0:
282,170,6384,1,12,0:0:0:0:
282,170,7184,1,12,0:0:0:0:
279,188,7384,1,0,0:0:0:0:
242,171,7584,1,0,0:0:0:0:
282,170,7784,1,12,0:0:0:0:
252,169,8184,1,0,0:0:0:0:
344,198,8284,1,0,0:0:0:0:
252,169,8384,1,8,0:0:0:0:
327,86,8584,1,0,0:0:0:0:
282,170,8784,1,8,0:0:0:0:
202,187,8850,1,0,0:0:0:0:
199,193,8917,1,0,0:0:0:0:
206,178,8984,1,8,0:0:0:0:
209,184,9084,1,0,0:0:0:0:
372,167,9184,1,8,0:0:0:0:
282,170,9584,1,12,0:0:0:0:
336,181,9784,1,0,0:0:0:0:
336,181,9884,1,0,0:0:0:0:
336,181,9984,1,8,0:0:0:0:
342,172,10184,1,0,0:0:0:0:
282,170,10384,1,12,0:0:0:0:
279,188,10584,1,0,0:0:0:0:
275,187,10784,1,0,0:0:0:0:
282,170,10984,1,12,0:0:0:0:
206,170,11184,1,0,0:0:0:0:
206,170,11250,1,0,0:0:0:0:
206,170,11317,1,0,0:0:0:0:
300,157,11384,1,8,0:0:0:0:
300,157,11584,1,8,0:0:0:0:
169,181,11784,1,8,0:0:0:0:
169,181,11884,1,0,0:0:0:0:
331,170,11984,1,8,0:0:0:0:
127,169,12050,1,8,0:0:0:0:
127,169,12117,1,8,0:0:0:0:
246,180,12184,1,0,0:0:0:0:
246,180,12384,1,8,0:0:0:0:
196,187,12584,1,0,0:0:0:0:
280,170,12784,1,12,0:0:0:0:
304,183,12984,1,0,0:0:0:0:
304,183,13184,1,0,0:0:0:0:
304,183,13384,1,0,0:0:0:0:
280,170,13584,1,8,0:0:0:0:
95,207,13650,1,0,0:0:0:0:
93,212,13717,1,0,0:0:0:0:
380,191,13784,1,8,0:0:0:0:
135,222,13884,1,0,0:0:0:0:
315,148,13984,1,8,0:0:0:0:
331,170,14184,1,12,0:0:0:0:
296,175,14584,1,0,0:0:0:0:
296,175,14784,1,8,0:0:0:0:
374,170,14984,1,8,0:0:0:0:
226,177,15184,1,0,0:0:0:0:
141,224,15384,1,8,0:0:0:0:
163,222,15484,1,0,0:0:0:0:
297,193,15584,1,8,0:0:0:0:
374,170,15984,1,8,0:0:0:0:
328,191,16184,1,0,0:0:0:0:
269,181,16384,1,8,0:0:0:0:
247,137,16584,1,8,0:0:0:0:
238,167,16684,1,8,0:0:0:0:
371,194,16784,1,0,0:0:0:0:
371,194,16984,1,0,0:0:0:0:
280,165,17184,1,8,0:0:0:0:
259,180,17384,1,0,0:0:0:0:
197,206,17484,1,0,0:0:0:0:
255,233,17584,1,8,0:0:0:0:
206,193,17784,1,0,0:0:0:0:
259,180,17984,1,0,0:0:0:0:
206,193,18184,1,8,0:0:0:0:
255,233,18384,1,8,0:0:0:0:
164,165,18584,1,0,0:0:0:0:
328,191,18684,1,0,0:0:0:0:
255,233,18784,1,8,0:0:0:0:
179,200,18984,1,8,0:0:0:0:
371,85,19184,1,0,0:0:0:0:
186,200,19384,1,0,0:0:0:0:
368,165,19584,1,8,0:0:0:0:
166,202,19784,1,8,0:0:0:0:
162,204,19884,1,0,0:0:0:0:
272,170,20084,1,0,0:0:0:0:
194,173,20184,1,8,0:0:0:0:
368,165,20384,1,8,0:0:0:0:
370,85,20584,1,8,0:0:0:0:
172,155,20650,1,8,0:0:0:0:
172,155,20717,1,8,0:0:0:0:
172,155,20784,1,0,0:0:0:0:
171,178,20884,1,0,0:0:0:0:
272,170,20984,1,8,0:0:0:0:
370,85,21184,1,8,0:0:0:0:
123,164,21384,1,0,0:0:0:0:
370,85,21584,1,0,0:0:0:0:
123,164,21784,1,0,0:0:0:0:
123,164,21850,1,0,0:0:0:0:
310,223,21917,1,0,0:0:0:0:
317,188,21984,1,8,0:0:0:0:
182,182,22184,1,0,0:0:0:0:
376,169,22384,5,8,0:0:0:0:
216,186,22584,1,0,0:0:0:0:
216,186,22684,1,0,0:0:0:0:
247,89,22784,1,8,0:0:0:0:
167,186,22984,1,0,0:0:0:0:
370,85,23184,1,8,0:0:0:0:
243,177,23384,1,0,0:0:0:0:
247,89,23584,1,8,0:0:0:0:
183,170,23784,1,8,0:0:0:0:
211,147,23884,1,0,0:0:0:0:
370,85,23984,1,8,0:0:0:0:
195,168,24184,1,0,0:0:0:0:
247,89,24384,1,0,0:0:0:0:
196,167,24584,1,0,0:0:0:0:
370,85,24784,1,8,0:0:0:0:
196,214,24884,1,8,0:0:0:0:
240,176,24984,1,8,0:0:0:0:
195,168,25084,1,8,0:0:0:0:
261,169,25184,5,0,0:0:0:0:
231,136,25384,1,0,0:0:0:0:
231,136,25584,1,8,0:0:0:0:
231,136,25684,1,0,0:0:0:0:
260,154,25784,1,8,0:0:0:0:
186,172,25884,1,8,0:0:0:0:
370,85,25984,1,0,0:0:0:0:
231,136,26084,1,0,0:0:0:0:
260,154,26184,1,8,0:0:0:0:
231,136,26284,1,0,0:0:0:0:
370,85,26384,1,8,0:0:0:0:
152,169,26450,1,8,0:0:0:0:
185,115,26517,1,8,0:0:0:0:
260,154,26584,1,8,0:0:0:0:
192,175,26650,1,8,0:0:0:0:
114,112,26717,1,8,0:0:0:0:
229,199,26784,1,0,0:0:0:0:
230,170,26984,1,12,0:0:0:0:
340,171,27584,1,0,0:0:0:0:
340,171,27984,1,8,0:0:0:0:
248,156,28384,1,0,0:0:0:0:
340,171,28784,1,8,0:0:0:0:
154,197,28984,1,8,0:0:0:0:
207,88,29184,1,0,0:0:0:0:
207,88,29384,1,0,0:0:0:0:
189,175,29484,1,8,0:0:0:0:
370,85,29584,1,8,0:0:0:0:
176,191,29684,1,0,0:0:0:0:
231,163,29784,1,8,0:0:0:0:
191,195,29884,1,0,0:0:0:0:
340,171,29984,1,8,0:0:0:0:
226,191,30184,1,8,0:0:0:0:
177,197,30250,1,8,0:0:0:0:
211,187,30317,1,8,0:0:0:0:
207,88,30384,1,0,0:0:0:0:
224,178,30484,1,8,0:0:0:0:
200,99,30584,1,0,0:0:0:0:
231,183,30684,1,0,0:0:0:0:
370,85,30784,1,8,0:0:0:0:
211,187,30984,1,0,0:0:0:0:
245,192,31084,1,0,0:0:0:0:
370,85,31184,1,0,0:0:0:0:
211,187,31384,1,0,0:0:0:0:
241,197,31584,1,8,0:0:0:0:
290,180,31784,1,0,0:0:0:0:
245,184,31984,1,8,0:0:0:0:
241,197,32384,1,0,0:0:0:0:
241,197,32584,1,0,0:0:0:0:
370,85,32784,1,8,0:0:0:0:
174,214,32884,1,8,0:0:0:0:
174,214,32984,1,0,0:0:0:0:
210,187,33084,1,0,0:0:0:0:
241,197,33184,1,8,0:0:0:0:
210,187,33384,1,0,0:0:0:0:
351,154,33584,1,12,0:0:0:0:
241,197,33784,1,0,0:0:0:0:
351,154,33984,1,12,0:0:0:0:
291,180,34284,1,8,0:0:0:0:
148,197,34334,1,8,0:0:0:0:
351,154,34384,1,0,0:0:0:0:
243,169,34584,1,0,0:0:0:0:
241,197,34684,1,12,0:0:0:0:
209,182,34984,1,0,0:0:0:0:
209,182,35084,1,0,0:0:0:0:
351,154,35184,1,12,0:0:0:0:
190,166,35384,1,0,0:0:0:0:
370,85,35584,1,8,0:0:0:0:
216,192,35684,1,8,0:0:0:0:
216,192,35784,1,0,0:0:0:0:
340,206,35884,1,0,0:0:0:0:
157,158,35984,1,8,0:0:0:0:
340,206,36084,1,0,0:0:0:0:
210,187,36184,1,8,0:0:0:0:
370,85,36384,1,0,0:0:0:0:
147,169,36484,1,0,0:0:0:0:
210,187,36584,1,8,0:0:0:0:
370,85,36784,1,8,0:0:0:0:
292,166,36984,1,8,0:0:0:0:
210,187,37084,1,8,0:0:0:0:
292,166,37184,1,0,0:0:0:0:
210,187,37384,1,0,0:0:0:0:
206,223,37484,1,0,0:0:0:0:
370,85,37584,1,8,0:0:0:0:
186,201,37784,1,0,0:0:0:0:
370,85,37884,1,8,0:0:0:0:
380,57,38184,1,0,0:0:0:0:
393,54,38384,1,8,0:0:0:0:
203,186,38584,1,0,0:0:0:0:
209,274,38684,1,8,0:0:0:0:
263,113,38984,1,0,0:0:0:0:
357,159,39184,1,8,0:0:0:0:
203,186,39384,1,0,0:0:0:0:
357,159,39484,1,8,0:0:0:0:
263,113,39784,1,0,0:0:0:0:
357,159,39984,1,8,0:0:0:0:
220,180,40184,1,0,0:0:0:0:
357,159,40284,1,8,0:0:0:0:
263,113,40584,1,0,0:0:0:0:
357,159,40784,1,8,0:0:0:0:
179,207,40984,1,8,0:0:0:0:
195,213,41084,1,0,0:0:0:0:
172,171,41184,1,8,0:0:0:0:
116,169,41384,1,0,0:0:0:0:
239,177,41584,1,8,0:0:0:0:
271,164,41684,1,8,0:0:0:0:
271,164,41784,1,0,0:0:0:0:
214,170,41884,1,0,0:0:0:0:
203,134,41984,1,8,0:0:0:0:
214,170,42184,1,8,0:0:0:0:
214,170,42384,5,8,0:0:0:0:
165,127,42484,1,0,0:0:0:0:
165,127,42584,1,8,0:0:0:0:
197,174,42684,1,8,0:0:0:0:
203,134,42784,1,0,0:0:0:0:
192,164,42884,1,0,0:0:0:0:
197,174,42984,1,8,0:0:0:0:
194,164,43184,1,8,0:0:0:0:
200,177,43284,1,8,0:0:0:0:
200,177,43384,1,0,0:0:0:0:
202,185,43484,1,0,0:0:0:0:
165,127,43584,1,8,0:0:0:0:
209,170,43784,1,8,0:0:0:0:
241,172,43984,5,0,0:0:0:0:
197,174,44084,1,0,0:0:0:0:
304,166,44184,1,8,0:0:0:0:
188,193,44284,1,8,0:0:0:0:
241,172,44384,1,0,0:0:0:0:
305,190,44484,1,8,0:0:0:0:
191,193,44584,1,0,0:0:0:0:
241,172,44784,1,8,0:0:0:0:
209,170,44984,1,8,0:0:0:0:
209,170,45050,1,0,0:0:0:0:
222,215,45117,1,0,0:0:0:0:
316,125,45184,1,8,0:0:0:0:
316,125,45384,1,8,0:0:0:0:
241,172,45484,1,0,0:0:0:0:
433,170,45584,1,8,0:0:0:0:
105,196,45684,1,8,0:0:0:0:
180,171,45784,1,0,0:0:0:0:
259,177,45884,1,0,0:0:0:0:
241,172,45984,1,8,0:0:0:0:
259,177,46184,1,0,0:0:0:0:
241,172,46384,1,8,0:0:0:0:
85,189,46584,1,8,0:0:0:0:
387,111,46650,1,0,0:0:0:0:
130,208,46717,1,0,0:0:0:0:
85,189,46784,1,8,0:0:0:0:
296,107,46984,1,8,0:0:0:0:
241,172,47084,1,0,0:0:0:0:
94,176,47184,1,0,0:0:0:0:
188,164,47384,1,8,0:0:0:0:
149,163,47484,1,0,0:0:0:0:
241,172,47584,1,8,0:0:0:0:
222,177,47784,1,0,0:0:0:0:
241,172,47984,1,0,0:0:0:0:
208,169,48084,1,0,0:0:0:0:
178,186,48184,1,8,0:0:0:0:
234,167,48284,1,8,0:0:0:0:
289,199,48384,1,0,0:0:0:0:
236,168,48584,1,8,0:0:0:0:
241,172,48784,1,8,0:0:0:0:
193,166,48884,1,0,0:0:0:0:
289,199,48984,1,0,0:0:0:0:
272,171,49084,1,8,0:0:0:0:
241,172,49184,1,0,0:0:0:0:
297,160,49284,1,8,0:0:0:0:
177,186,49384,1,0,0:0:0:0:
289,199,49584,1,0,0:0:0:0:
252,192,49684,1,0,0:0:0:0:
252,192,49784,1,8,0:0:0:0:
121,198,49884,1,8,0:0:0:0:
241,172,49984,1,0,0:0:0:0:
236,168,50184,1,8,0:0:0:0:
297,160,50384,1,0,0:0:0:0:
278,145,50484,1,0,0:0:0:0:
286,198,50584,1,8,0:0:0:0:
286,198,50684,1,8,0:0:0:0:
177,182,50784,1,0,0:0:0:0:
297,160,50884,1,8,0:0:0:0:
98,199,50984,1,8,0:0:0:0:
176,213,51084,1,8,0:0:0:0:
241,172,51184,1,4,0:0:0:0:
256,132,51584,1,4,0:0:0:0:
256,132,51884,1,12,0:0:0:0:
286,198,52184,1,12,0:0:0:0:
256,132,52384,1,12,0:0:0:0:
330,169,52584,1,0,0:0:0:0:
330,169,52650,1,0,0:0:0:0:
254,214,52717,1,0,0:0:0:0:
326,141,52784,1,12,0:0:0:0:
326,141,53184,1,12,0:0:0:0:
326,141,53484,1,4,0:0:0:0:
326,141,53784,1,4,0:0:0:0:
286,198,53984,1,12,0:0:0:0:
326,141,54384,1,8,0:0:0:0:
286,198,54584,1,0,0:0:0:0:
286,198,54784,1,0,0:0:0:0:
101,162,54984,1,0,0:0:0:0:
326,141,55184,1,8,0:0:0:0:
286,198,55284,1,8,0:0:0:0:
224,184,55384,1,8,0:0:0:0:
286,198,55584,1,0,0:0:0:0:
286,198,55784,1,0,0:0:0:0:
150,212,55884,1,0,0:0:0:0:
326,141,55984,1,8,0:0:0:0:
242,165,56184,1,0,0:0:0:0:
286,198,56384,1,8,0:0:0:0:
326,141,56584,1,0,0:0:0:0:
332,169,56784,1,0,0:0:0:0:
332,169,56884,1,8,0:0:0:0:
286,198,56984,1,0,0:0:0:0:
326,132,57184,1,8,0:0:0:0:
242,165,57384,1,8,0:0:0:0:
247,134,57484,1,0,0:0:0:0:
320,128,57584,1,0,0:0:0:0:
286,198,57984,1,8,0:0:0:0:
286,198,58184,1,0,0:0:0:0:
320,128,58384,1,8,0:0:0:0:
332,169,58484,1,0,0:0:0:0:
215,207,58584,1,0,0:0:0:0:
371,175,58784,1,0,0:0:0:0:
215,207,58984,1,0,0:0:0:0:
320,128,59184,1,8,0:0:0:0:
371,175,59784,1,8,0:0:0:0:
207,149,59884,1,8,0:0:0:0:
273,185,59984,1,0,0:0:0:0:
280,141,60384,1,8,0:0:0:0:
273,185,60784,1,8,0:0:0:0:
332,169,60850,1,8,0:0:0:0:
332,169,60917,1,8,0:0:0:0:
332,169,60984,1,0,0:0:0:0:
332,169,61084,1,0,0:0:0:0:
280,141,61184,1,8,0:0:0:0:
161,211,61284,1,0,0:0:0:0:
332,169,61384,1,8,0:0:0:0:
273,185,61584,1,8,0:0:0:0:
139,249,61650,1,0,0:0:0:0:
139,249,61717,1,0,0:0:0:0:
280,141,61784,1,8,0:0:0:0:
273,185,61984,1,8,0:0:0:0:
280,141,62184,1,0,0:0:0:0:
130,196,62250,1,0,0:0:0:0:
130,196,62317,1,0,0:0:0:0:
273,185,62384,1,8,0:0:0:0:
185,208,62584,1,8,0:0:0:0:
280,141,62784,1,0,0:0:0:0:
285,182,62984,1,0,0:0:0:0:
273,185,63184,1,8,0:0:0:0:
280,141,63384,1,0,0:0:0:0:
194,179,63434,1,0,0:0:0:0:
168,159,63484,1,8,0:0:0:0:
273,185,63584,1,0,0:0:0:0:
280,141,63784,1,0,0:0:0:0:
273,185,63984,1,8,0:0:0:0:
332,169,64050,1,8,0:0:0:0:
332,169,64117,1,8,0:0:0:0:
332,169,64184,1,0,0:0:0:0:
332,169,64284,1,0,0:0:0:0:
280,141,64384,1,8,0:0:0:0:
132,183,64484,1,0,0:0:0:0:
332,169,64584,1,8,0:0:0:0:
273,185,64784,1,8,0:0:0:0:
280,141,64984,1,0,0:0:0:0:
273,185,65184,1,8,0:0:0:0:
129,171,65250,1,0,0:0:0:0:
129,171,65317,1,0,0:0:0:0:
280,141,65384,1,0,0:0:0:0:
273,185,65584,1,8,0:0:0:0:
332,169,65784,1,0,0:0:0:0:
280,141,65984,1,0,0:0:0:0:
332,169,66184,1,0,0:0:0:0:
273,185,66384,1,8,0:0:0:0:
280,141,66584,1,0,0:0:0:0:
177,154,66684,1,0,0:0:0:0:
273,185,66784,1,8,0:0:0:0:
254,165,66984,1,8,0:0:0:0:
254,165,67084,1,8,0:0:0:0:
241,149,67184,1,0,0:0:0:0:
285,201,67384,1,0,0:0:0:0:
285,201,67484,1,8,0:0:0:0:
280,141,67584,1,8,0:0:0:0:
285,201,67784,1,0,0:0:0:0:
285,201,67984,1,8,0:0:0:0:
188,192,68034,1,8,0:0:0:0:
188,192,68084,1,0,0:0:0:0:
199,163,68184,1,0,0:0:0:0:
162,178,68284,1,8,0:0:0:0:
241,149,68384,1,0,0:0:0:0:
166,192,68484,1,0,0:0:0:0:
143,134,68584,1,8,0:0:0:0:
241,149,68984,1,8,0:0:0:0:
181,180,69084,1,0,0:0:0:0:
303,193,69184,1,8,0:0:0:0:
198,166,69384,1,0,0:0:0:0:
171,175,69484,1,0,0:0:0:0:
303,193,69584,1,8,0:0:0:0:
280,141,69784,1,8,0:0:0:0:
190,184,69834,1,8,0:0:0:0:
187,144,69884,1,8,0:0:0:0:
280,141,69984,1,0,0:0:0:0:
203,159,70184,1,0,0:0:0:0:
303,193,70384,1,8,0:0:0:0:
280,141,70584,1,8,0:0:0:0:
210,175,70634,1,8,0:0:0:0:
228,164,70684,1,0,0:0:0:0:
280,141,70784,1,8,0:0:0:0:
203,159,70984,1,0,0:0:0:0:
303,193,71184,1,8,0:0:0:0:
280,141,71384,1,8,0:0:0:0:
280,141,71584,1,8,0:0:0:0:
383,178,71784,1,0,0:0:0:0:
308,152,72184,1,0,0:0:0:0:
308,152,72384,1,8,0:0:0:0:
280,141,72584,1,8,0:0:0:0:
308,152,72784,1,0,0:0:0:0:
280,141,72984,1,0,0:0:0:0:
203,241,73084,1,8,0:0:0:0:
308,152,73184,1,8,0:0:0:0:
206,178,73384,1,0,0:0:0:0:
308,152,73584,5,8,0:0:0:0:
406,153,73784,1,0,0:0:0:0:
406,153,73884,1,0,0:0:0:0:
280,141,73984,1,8,0:0:0:0:
280,141,74184,1,0,0:0:0:0:
308,152,74384,1,8,0:0:0:0:
406,153,74584,1,0,0:0:0:0:
308,152,74784,1,8,0:0:0:0:
406,153,74984,1,8,0:0:0:0:
406,153,75084,1,0,0:0:0:0:
185,170,75184,1,0,0:0:0:0:
207,179,75384,1,0,0:0:0:0:
332,153,75584,1,8,0:0:0:0:
266,168,75784,1,0,0:0:0:0:
157,165,75984,1,8,0:0:0:0:
207,179,76184,1,8,0:0:0:0:
207,179,76284,1,0,0:0:0:0:
266,168,76384,1,8,0:0:0:0:
207,179,76584,1,0,0:0:0:0:
157,165,76784,1,8,0:0:0:0:
231,195,76884,1,0,0:0:0:0:
329,177,76984,1,8,0:0:0:0:
207,179,77084,1,0,0:0:0:0:
207,179,77184,1,0,0:0:0:0:
279,232,77284,1,8,0:0:0:0:
329,177,77384,1,8,0:0:0:0:
279,232,77484,1,0,0:0:0:0:
157,165,77584,1,8,0:0:0:0:
197,181,77650,1,8,0:0:0:0:
161,73,77717,1,8,0:0:0:0:
197,181,77784,1,8,0:0:0:0:
167,173,77850,1,8,0:0:0:0:
136,147,77917,1,8,0:0:0:0:
329,177,77984,1,0,0:0:0:0:
157,165,78184,1,8,0:0:0:0:
329,177,78584,1,8,0:0:0:0:
157,165,78784,1,0,0:0:0:0:
199,161,78984,1,0,0:0:0:0:
157,165,79184,1,8,0:0:0:0:
327,167,79584,1,0,0:0:0:0:
157,165,79984,1,12,0:0:0:0:
327,167,80184,1,0,0:0:0:0:
111,163,80284,1,0,0:0:0:0:
327,167,80384,1,8,0:0:0:0:
271,165,80584,1,8,0:0:0:0:
288,215,80784,1,0,0:0:0:0:
199,161,80984,1,8,0:0:0:0:
183,192,81084,1,8,0:0:0:0:
271,165,81184,1,0,0:0:0:0:
271,165,81384,1,0,0:0:0:0:
288,215,81584,1,8,0:0:0:0:
199,161,81784,1,0,0:0:0:0:
199,161,81884,1,8,0:0:0:0:
288,215,81984,1,0,0:0:0:0:
298,225,82184,1,8,0:0:0:0:
288,215,82384,1,8,0:0:0:0:
267,143,82584,1,0,0:0:0:0:
177,165,82684,1,0,0:0:0:0:
267,143,82784,1,8,0:0:0:0:
199,161,82884,1,0,0:0:0:0:
199,161,82984,1,8,0:0:0:0:
288,215,83184,1,0,0:0:0:0:
202,192,83384,1,0,0:0:0:0:
160,169,83484,1,0,0:0:0:0:
221,188,83584,1,8,0:0:0:0:
202,192,83784,1,0,0:0:0:0:
288,215,83984,1,8,0:0:0:0:
168,204,84184,1,8,0:0:0:0:
166,193,84284,1,8,0:0:0:0:
239,192,84384,1,0,0:0:0:0:
239,192,84584,1,0,0:0:0:0:
256,189,84784,5,8,0:0:0:0:
223,189,84884,1,0,0:0:0:0:
202,192,84984,1,8,0:0:0:0:
209,180,85084,1,8,0:0:0:0:
256,189,85184,1,0,0:0:0:0:
202,192,85284,1,0,0:0:0:0:
202,192,85384,1,8,0:0:0:0:
209,180,85484,1,0,0:0:0:0:
256,189,85584,1,8,0:0:0:0:
239,192,85684,1,0,0:0:0:0:
237,177,85784,1,8,0:0:0:0:
167,186,85884,1,8,0:0:0:0:
256,189,85984,1,0,0:0:0:0:
239,192,86184,1,0,0:0:0:0:
256,189,86384,1,8,0:0:0:0:
202,192,86584,1,0,0:0:0:0:
202,192,86684,1,0,0:0:0:0:
320,184,86784,1,8,0:0:0:0:
202,192,86984,1,0,0:0:0:0:
256,189,87184,1,0,0:0:0:0:
320,184,87384,1,8,0:0:0:0:
205,207,87484,1,0,0:0:0:0:
320,184,87584,1,8,0:0:0:0:
202,192,87784,1,0,0:0:0:0:
256,189,87984,5,8,0:0:0:0:
246,199,88084,1,8,0:0:0:0:
168,202,88184,1,0,0:0:0:0:
246,199,88284,1,0,0:0:0:0:
256,189,88384,1,8,0:0:0:0:
246,199,88484,5,8,0:0:0:0:
168,202,88584,1,0,0:0:0:0:
202,192,88684,1,0,0:0:0:0:
256,189,88784,5,8,0:0:0:0:
246,199,88884,1,0,0:0:0:0:
320,184,88984,1,8,0:0:0:0:
254,172,89084,1,8,0:0:0:0:
256,189,89184,1,0,0:0:0:0:
216,180,89384,1,0,0:0:0:0:
256,189,89584,1,8,0:0:0:0:
202,192,89784,1,0,0:0:0:0:
209,198,89884,1,0,0:0:0:0:
320,184,89984,1,8,0:0:0:0:
202,192,90184,1,0,0:0:0:0:
256,189,90384,1,8,0:0:0:0:
320,184,90584,1,8,0:0:0:0:
212,202,90684,1,0,0:0:0:0:
320,184,90784,1,0,0:0:0:0:
202,192,90984,1,0,0:0:0:0:
256,189,91184,1,8,0:0:0:0:
166,199,91284,1,8,0:0:0:0:
202,192,91384,1,0,0:0:0:0:
256,189,91584,1,0,0:0:0:0:
234,204,91684,1,8,0:0:0:0:
202,192,91784,1,8,0:0:0:0:
256,189,91984,1,8,0:0:0:0:
320,184,92184,1,8,0:0:0:0:
256,189,92384,1,8,0:0:0:0:
202,192,92484,1,8,0:0:0:0:
202,192,92584,1,0,0:0:0:0:
273,168,92684,1,0,0:0:0:0:
256,189,92784,1,8,0:0:0:0:
471,273,92984,1,0,0:0:0:0:
471,273,93084,1,0,0:0:0:0:
320,184,93184,1,8,0:0:0:0:
471,273,93384,1,0,0:0:0:0:
256,189,93584,1,8,0:0:0:0:
471,273,93684,1,0,0:0:0:0:
320,184,93784,1,8,0:0:0:0:
320,184,93984,1,8,0:0:0:0:
471,273,94184,1,0,0:0:0:0:
256,189,94384,1,8,0:0:0:0:
276,162,94584,1,0,0:0:0:0:
276,162,94684,1,8,0:0:0:0:
184,122,94734,1,8,0:0:0:0:
256,189,94784,1,0,0:0:0:0:
301,76,94884,1,0,0:0:0:0:
320,184,94984,1,8,0:0:0:0:
471,273,95084,1,0,0:0:0:0:
146,185,95284,1,0,0:0:0:0:
320,184,95384,1,8,0:0:0:0:
277,189,95584,1,0,0:0:0:0:
169,188,95784,1,0,0:0:0:0:
287,192,95984,1,8,0:0:0:0:
320,184,96184,1,8,0:0:0:0:
235,223,96284,1,8,0:0:0:0:
320,184,96384,1,0,0:0:0:0:
276,162,96584,1,0,0:0:0:0:
287,192,96784,1,8,0:0:0:0:
102,176,96884,1,0,0:0:0:0:
350,186,96984,1,8,0:0:0:0:
355,188,97184,1,8,0:0:0:0:
350,186,97384,1,0,0:0:0:0:
287,192,97584,1,8,0:0:0:0:
169,188,97784,1,8,0:0:0:0:
196,139,97884,1,0,0:0:0:0:
169,188,97934,1,0,0:0:0:0:
287,192,97984,1,8,0:0:0:0:
192,146,98084,1,0,0:0:0:0:
350,186,98184,1,8,0:0:0:0:
350,186,98284,1,0,0:0:0:0:
169,188,98484,1,0,0:0:0:0:
230,194,98584,1,8,0:0:0:0:
290,216,98784,1,8,0:0:0:0:
169,188,98984,1,0,0:0:0:0:
169,188,99084,1,0,0:0:0:0:
290,216,99184,1,8,0:0:0:0:
314,171,99384,1,8,0:0:0:0:
215,175,99484,1,8,0:0:0:0:
314,171,99584,1,0,0:0:0:0:
161,149,99784,1,8,0:0:0:0:
290,216,99984,1,8,0:0:0:0:
169,188,100084,1,0,0:0:0:0:
169,188,100184,1,0,0:0:0:0:
320,187,100384,1,8,0:0:0:0:
320,187,100584,1,0,0:0:0:0:
290,216,100784,1,8,0:0:0:0:
165,163,100984,1,0,0:0:0:0:
177,144,101084,1,8,0:0:0:0:
290,216,101134,1,8,0:0:0:0:
165,163,101184,1,0,0:0:0:0:
197,144,101284,1,0,0:0:0:0:
320,187,101384,1,8,0:0:0:0:
320,187,101484,1,0,0:0:0:0:
169,188,101684,1,0,0:0:0:0:
210,178,101784,1,8,0:0:0:0:
290,216,101984,1,8,0:0:0:0:
185,150,102184,1,0,0:0:0:0:
290,216,102384,1,8,0:0:0:0:
169,188,102584,1,0,0:0:0:0:
169,188,102684,1,0,0:0:0:0:
320,187,102784,1,8,0:0:0:0:
320,187,102984,1,0,0:0:0:0:
290,216,103184,1,8,0:0:0:0:
169,188,103284,1,0,0:0:0:0:
189,178,103384,1,8,0:0:0:0:
320,187,103584,1,8,0:0:0:0:
205,175,103784,1,0,0:0:0:0:
290,216,103984,1,8,0:0:0:0:
227,165,104184,1,8,0:0:0:0:
174,152,104284,1,0,0:0:0:0:
219,207,104334,1,0,0:0:0:0:
295,206,104384,1,8,0:0:0:0:
174,152,104484,1,0,0:0:0:0:
205,175,104584,1,8,0:0:0:0:
290,216,104684,1,0,0:0:0:0:
205,175,104884,1,0,0:0:0:0:
320,187,104984,1,8,0:0:0:0:
363,175,105184,1,8,0:0:0:0:
320,187,105384,1,0,0:0:0:0:
273,170,105584,1,12,0:0:0:0:
259,243,105984,1,0,0:0:0:0:
259,243,106184,1,8,0:0:0:0:
273,170,106384,1,12,0:0:0:0:
320,187,106584,1,0,0:0:0:0:
320,187,106784,1,0,0:0:0:0:
273,170,106984,1,12,0:0:0:0:
315,158,107384,1,0,0:0:0:0:
315,158,107584,1,8,0:0:0:0:
315,158,107784,1,0,0:0:0:0:
241,184,107984,1,8,0:0:0:0:
168,222,108050,1,0,0:0:0:0:
245,199,108117,1,0,0:0:0:0:
315,158,108184,1,8,0:0:0:0:
177,171,108284,1,0,0:0:0:0:
315,158,108384,1,8,0:0:0:0:
267,176,108584,1,0,0:0:0:0:
241,184,108784,1,12,0:0:0:0:
205,175,108984,1,0,0:0:0:0:
299,215,109184,1,0,0:0:0:0:
303,212,109384,1,0,0:0:0:0:
241,184,109584,1,12,0:0:0:0:
313,153,109784,1,0,0:0:0:0:
313,153,109984,1,0,0:0:0:0:
241,184,110184,1,12,0:0:0:0:
313,153,110584,1,0,0:0:0:0:
313,153,110784,1,8,0:0:0:0:
313,153,110984,1,0,0:0:0:0:
366,151,111184,1,8,0:0:0:0:
207,186,111250,1,8,0:0:0:0:
192,221,111317,1,8,0:0:0:0:
303,212,111384,1,0,0:0:0:0:
303,212,111484,1,0,0:0:0:0:
293,174,111584,1,8,0:0:0:0:
303,212,111784,1,0,0:0:0:0:
350,138,111984,1,12,0:0:0:0:
293,174,112384,1,0,0:0:0:0:
293,174,112584,1,0,0:0:0:0:
350,138,112784,1,8,0:0:0:0:
265,172,112984,1,8,0:0:0:0:
265,172,113084,1,8,0:0:0:0:
293,174,113184,1,0,0:0:0:0:
350,138,113384,1,8,0:0:0:0:
303,212,113584,1,0,0:0:0:0:
296,194,113650,1,0,0:0:0:0:
296,194,113717,1,0,0:0:0:0:
293,174,113784,1,8,0:0:0:0:
293,174,113984,1,8,0:0:0:0:
293,174,114184,1,0,0:0:0:0:
356,164,114384,1,8,0:0:0:0:
113,235,114450,1,8,0:0:0:0:
236,208,114517,1,8,0:0:0:0:
293,174,114584,1,0,0:0:0:0:
265,172,114684,1,0,0:0:0:0:
293,174,114784,1,8,0:0:0:0:
217,176,114984,1,0,0:0:0:0:
265,138,115184,1,12,0:0:0:0:
303,212,115384,1,0,0:0:0:0:
293,174,115584,1,0,0:0:0:0:
303,212,115784,1,0,0:0:0:0:
265,138,115984,1,12,0:0:0:0:
293,174,116184,1,0,0:0:0:0:
225,217,116284,1,0,0:0:0:0:
260,159,116384,1,0,0:0:0:0:
265,138,116584,1,12,0:0:0:0:
260,159,116984,1,0,0:0:0:0:
254,191,117184,1,8,0:0:0:0:
260,159,117384,1,8,0:0:0:0:
249,187,117584,1,0,0:0:0:0:
190,209,117784,1,0,0:0:0:0:
190,209,117884,1,0,0:0:0:0:
249,187,117984,1,8,0:0:0:0:
260,159,118384,1,0,0:0:0:0:
237,180,118484,1,0,0:0:0:0:
260,159,118584,1,0,0:0:0:0:
155,203,118684,1,0,0:0:0:0:
203,171,118784,1,12,0:0:0:0:
256,192,118984,12,0,120384,0:0:0:0:
