osu file format v14

[General]
AudioFilename: audio.mp3
AudioLeadIn: 0
PreviewTime: 79984
Countdown: 0
SampleSet: Normal
StackLeniency: 0.7
Mode: 1
LetterboxInBreaks: 0
WidescreenStoryboard: 1

[Editor]
DistanceSpacing: 0.4
BeatDivisor: 4
GridSize: 16
TimelineZoom: 1.1

[Metadata]
Title:BUNA*SYNERGY!!!
TitleUnicode:BUNA☆SYNERGY!!!
Artist:MYUKKE.
ArtistUnicode:MYUKKE.
Creator:Boaz
Version:Futsuu
Source:osu!
Tags:we love myukke complextro folk instrumental electronic fa featured artist
BeatmapID:3096660
BeatmapSetID:1512343

[Difficulty]
HPDrainRate:7
CircleSize:5
OverallDifficulty:4
ApproachRate:5
SliderMultiplier:1.4
SliderTickRate:1

[Events]
//Background and Video events
0,0,"bg.jpg",0,0
//Break Periods
//Storyboard Layer 0 (Background)
//Storyboard Layer 1 (Fail)
//Storyboard Layer 2 (Pass)
//Storyboard Layer 3 (Foreground)
//Storyboard Layer 4 (Overlay)
//Storyboard Sound Samples

[TimingPoints]
3184,400,4,1,0,80,1,0
3184,-111.111111111111,4,1,0,80,0,0
22384,-105.263157894737,4,1,0,85,0,0
25184,-105.263157894737,4,1,0,85,0,0
41584,-100,4,1,0,87,0,0
48784,-100,4,1,0,87,0,0
54384,-111.111111111111,4,1,0,80,0,0
67184,-125,4,1,0,75,0,0
73584,-117.647058823529,4,1,0,75,0,0
79984,-100,4,1,0,90,0,1
105584,-100,4,1,0,85,0,0
118984,-111.111111111111,4,1,0,65,0,0

[HitObjects]
238,175,3184,5,12,0:0:0:0:
265,200,3984,5,12,0:0:0:0:
230,195,4384,1,0,0:0:0:0:
265,200,4584,1,12,0:0:0:0:
217,164,4984,1,8,0:0:0:0:
217,164,5184,1,0,0:0:0:0:
329,114,5384,1,0,0:0:0:0:
282,170,5584,1,8,0:0:0:0:
242,171,5984,1,8,0:0:0:0:
282,170,6384,1,12,0:0:0:0:
282,170,7184,5,12,0:0:0:0:
242,171,7584,1,0,0:0:0:0:
282,170,7784,1,12,0:0:0:0:
252,169,8184,1,8,0:0:0:0:
252,169,8384,1,8,0:0:0:0:
327,86,8584,1,0,0:0:0:0:
282,170,8784,1,8,0:0:0:0:
372,167,9184,1,0,0:0:0:0:
282,170,9584,1,12,0:0:0:0:
282,170,10384,5,12,0:0:0:0:
282,170,10984,1,12,0:0:0:0:
300,157,11384,1,0,0:0:0:0:
300,157,11584,1,8,0:0:0:0:
331,170,11984,1,8,0:0:0:0:
246,180,12184,1,0,0:0:0:0:
246,180,12384,1,8,0:0:0:0:
280,170,12784,1,12,0:0:0:0:
280,170,13584,5,12,0:0:0:0:
380,191,13784,1,0,0:0:0:0:
315,148,13984,1,0,0:0:0:0:
331,170,14184,1,12,0:0:0:0:
296,175,14584,1,0,0:0:0:0:
296,175,14784,1,8,0:0:0:0:
374,170,14984,1,8,0:0:0:0:
226,177,15184,1,0,0:0:0:0:
297,193,15584,1,0,0:0:0:0:
374,170,15984,1,8,0:0:0:0:
221,216,16384,1,8,0:0:0:0:
260,147,16784,1,0,0:0:0:0:
260,147,16984,1,0,0:0:0:0:
280,165,17184,1,8,0:0:0:0:
255,233,17584,1,8,0:0:0:0:
255,233,18384,1,8,0:0:0:0:
164,165,18584,1,0,0:0:0:0:
255,233,18784,1,8,0:0:0:0:
371,85,19184,1,0,0:0:0:0:
368,165,19584,1,8,0:0:0:0:
272,170,20184,1,0,0:0:0:0:
368,165,20384,1,8,0:0:0:0:
370,85,20584,1,0,0:0:0:0:
249,208,20984,1,0,0:0:0:0:
370,85,21184,1,8,0:0:0:0:
370,85,21584,1,0,0:0:0:0:
376,169,22384,5,8,0:0:0:0:
247,89,22784,1,0,0:0:0:0:
370,85,23184,1,8,0:0:0:0:
243,177,23384,1,0,0:0:0:0:
247,89,23584,1,8,0:0:0:0:
370,85,23984,1,8,0:0:0:0:
247,89,24384,1,0,0:0:0:0:
370,85,24784,1,8,0:0:0:0:
240,176,24984,1,0,0:0:0:0:
261,169,25184,5,0,0:0:0:0:
325,174,25584,1,0,0:0:0:0:
370,85,25984,1,8,0:0:0:0:
370,85,26384,1,8,0:0:0:0:
325,174,26984,1,12,0:0:0:0:
340,171,27584,1,0,0:0:0:0:
340,171,27984,1,8,0:0:0:0:
340,171,28784,5,8,0:0:0:0:
207,88,29184,1,8,0:0:0:0:
207,88,29384,1,0,0:0:0:0:
370,85,29584,1,8,0:0:0:0:
340,171,29984,1,8,0:0:0:0:
207,88,30384,1,0,0:0:0:0:
200,99,30584,1,0,0:0:0:0:
370,85,30784,1,8,0:0:0:0:
370,85,31184,1,0,0:0:0:0:
241,197,31584,1,8,0:0:0:0:
245,184,31984,1,8,0:0:0:0:
241,197,32384,1,0,0:0:0:0:
241,197,32584,1,0,0:0:0:0:
370,85,32784,1,8,0:0:0:0:
241,197,33184,1,0,0:0:0:0:
351,154,33584,1,12,0:0:0:0:
241,197,33784,1,0,0:0:0:0:
351,154,33984,1,12,0:0:0:0:
351,154,34384,1,0,0:0:0:0:
351,154,35184,5,12,0:0:0:0:
190,166,35384,1,0,0:0:0:0:
370,85,35584,1,8,0:0:0:0:
157,158,35984,1,8,0:0:0:0:
309,221,36384,1,0,0:0:0:0:
138,214,36784,5,8,0:0:0:0:
292,166,37184,1,0,0:0:0:0:
370,85,37584,1,8,0:0:0:0:
370,85,37884,1,8,0:0:0:0:
380,57,38184,1,0,0:0:0:0:
393,54,38384,1,8,0:0:0:0:
263,113,38984,1,0,0:0:0:0:
357,159,39184,1,8,0:0:0:0:
263,113,39784,1,0,0:0:0:0:
357,159,39984,1,8,0:0:0:0:
357,159,40284,1,8,0:0:0:0:
263,113,40584,1,0,0:0:0:0:
357,159,40784,1,8,0:0:0:0:
239,177,41584,1,8,0:0:0:0:
172,171,41984,1,0,0:0:0:0:
165,127,42384,5,8,0:0:0:0:
165,127,42584,1,0,0:0:0:0:
203,134,42784,1,0,0:0:0:0:
194,164,43184,1,8,0:0:0:0:
241,172,43984,5,0,0:0:0:0:
304,166,44184,1,0,0:0:0:0:
241,172,44384,1,8,0:0:0:0:
161,204,44784,1,8,0:0:0:0:
316,125,45184,1,8,0:0:0:0:
241,172,45584,1,0,0:0:0:0:
180,171,45784,1,0,0:0:0:0:
241,172,45984,1,8,0:0:0:0:
241,172,46384,1,8,0:0:0:0:
85,189,46784,1,8,0:0:0:0:
241,172,47184,1,0,0:0:0:0:
241,172,47984,1,8,0:0:0:0:
241,172,48384,1,8,0:0:0:0:
241,172,48784,5,8,0:0:0:0:
289,199,48984,1,0,0:0:0:0:
241,172,49184,1,0,0:0:0:0:
289,199,49584,1,8,0:0:0:0:
241,172,50384,1,0,0:0:0:0:
286,198,50584,1,0,0:0:0:0:
286,198,50784,1,8,0:0:0:0:
241,172,51184,1,4,0:0:0:0:
256,132,51584,1,4,0:0:0:0:
256,132,51884,1,12,0:0:0:0:
326,141,52784,5,12,0:0:0:0:
326,141,53184,1,4,0:0:0:0:
326,141,53484,1,4,0:0:0:0:
326,141,54384,5,8,0:0:0:0:
286,198,54784,1,0,0:0:0:0:
326,141,55184,1,8,0:0:0:0:
286,198,55584,1,0,0:0:0:0:
286,198,55784,1,0,0:0:0:0:
326,141,55984,1,8,0:0:0:0:
286,198,56384,1,8,0:0:0:0:
326,141,56584,1,0,0:0:0:0:
286,198,56984,1,0,0:0:0:0:
326,132,57184,1,8,0:0:0:0:
320,128,57584,1,8,0:0:0:0:
320,128,58384,5,8,0:0:0:0:
225,197,58784,1,0,0:0:0:0:
320,128,59184,5,8,0:0:0:0:
371,175,59784,5,8,0:0:0:0:
273,185,59984,1,0,0:0:0:0:
280,141,60384,1,8,0:0:0:0:
273,185,60784,1,0,0:0:0:0:
219,199,61184,1,0,0:0:0:0:
273,185,61584,5,8,0:0:0:0:
273,185,61984,1,8,0:0:0:0:
244,197,62184,1,0,0:0:0:0:
273,185,62384,1,8,0:0:0:0:
280,141,62784,1,0,0:0:0:0:
273,185,63184,1,8,0:0:0:0:
280,141,63384,1,8,0:0:0:0:
273,185,63584,1,0,0:0:0:0:
273,185,63984,1,8,0:0:0:0:
273,185,64784,5,8,0:0:0:0:
273,185,65184,1,0,0:0:0:0:
273,185,65584,1,8,0:0:0:0:
273,185,65784,1,8,0:0:0:0:
280,141,65984,1,0,0:0:0:0:
273,185,66384,1,8,0:0:0:0:
241,149,67184,1,8,0:0:0:0:
241,149,67984,5,8,0:0:0:0:
241,149,68384,1,8,0:0:0:0:
143,134,68584,1,0,0:0:0:0:
241,149,68984,1,8,0:0:0:0:
303,193,69184,1,8,0:0:0:0:
303,193,69584,1,8,0:0:0:0:
280,141,69784,1,8,0:0:0:0:
280,141,69984,1,0,0:0:0:0:
303,193,70384,1,8,0:0:0:0:
303,193,71184,1,8,0:0:0:0:
280,141,71584,1,8,0:0:0:0:
383,178,71784,1,0,0:0:0:0:
308,152,72184,1,0,0:0:0:0:
308,152,72384,1,8,0:0:0:0:
308,152,72784,1,0,0:0:0:0:
308,152,73584,5,8,0:0:0:0:
280,141,73984,1,0,0:0:0:0:
280,141,74184,1,0,0:0:0:0:
308,152,74384,1,8,0:0:0:0:
185,170,75184,5,0,0:0:0:0:
332,153,75584,1,8,0:0:0:0:
266,168,75784,1,0,0:0:0:0:
157,165,75984,1,8,0:0:0:0:
266,168,76384,1,0,0:0:0:0:
157,165,76784,1,8,0:0:0:0:
157,165,77184,1,8,0:0:0:0:
329,177,77384,1,0,0:0:0:0:
157,165,77584,1,8,0:0:0:0:
157,165,78184,1,8,0:0:0:0:
329,177,78584,1,8,0:0:0:0:
157,165,78784,1,0,0:0:0:0:
157,165,79184,1,8,0:0:0:0:
157,165,79984,5,12,0:0:0:0:
327,167,80184,1,0,0:0:0:0:
327,167,80384,1,8,0:0:0:0:
271,165,80584,1,8,0:0:0:0:
288,215,80784,1,0,0:0:0:0:
271,165,81184,1,8,0:0:0:0:
288,215,81584,1,8,0:0:0:0:
140,190,81984,1,0,0:0:0:0:
140,190,82184,1,0,0:0:0:0:
288,215,82384,5,8,0:0:0:0:
267,143,82784,1,8,0:0:0:0:
288,215,83184,1,0,0:0:0:0:
221,188,83584,1,8,0:0:0:0:
55,155,83984,1,8,0:0:0:0:
239,192,84384,5,8,0:0:0:0:
239,192,84584,1,0,0:0:0:0:
256,189,84784,1,8,0:0:0:0:
256,189,85184,1,8,0:0:0:0:
256,189,85584,1,8,0:0:0:0:
256,189,86384,1,8,0:0:0:0:
331,174,86584,1,0,0:0:0:0:
331,174,86784,1,0,0:0:0:0:
256,189,87184,5,0,0:0:0:0:
320,184,87384,1,8,0:0:0:0:
320,184,87584,1,0,0:0:0:0:
256,189,87984,1,8,0:0:0:0:
256,189,88384,1,8,0:0:0:0:
256,189,88784,1,0,0:0:0:0:
320,184,88984,1,0,0:0:0:0:
256,189,89184,1,8,0:0:0:0:
256,189,89584,1,8,0:0:0:0:
256,189,90384,5,8,0:0:0:0:
320,184,90584,1,0,0:0:0:0:
320,184,90784,1,0,0:0:0:0:
256,189,91184,1,0,0:0:0:0:
256,189,91584,1,8,0:0:0:0:
256,189,91984,1,8,0:0:0:0:
320,184,92184,1,8,0:0:0:0:
256,189,92384,1,0,0:0:0:0:
256,189,92784,1,8,0:0:0:0:
256,189,93584,5,8,0:0:0:0:
320,184,93784,1,0,0:0:0:0:
320,184,93984,1,8,0:0:0:0:
256,189,94384,1,8,0:0:0:0:
227,161,94784,1,0,0:0:0:0:
320,184,94984,1,8,0:0:0:0:
320,184,95384,1,8,0:0:0:0:
277,189,95584,1,0,0:0:0:0:
287,192,95984,1,8,0:0:0:0:
320,184,96184,1,0,0:0:0:0:
320,184,96384,1,0,0:0:0:0:
350,186,96784,1,8,0:0:0:0:
355,188,97184,1,0,0:0:0:0:
287,192,97584,1,8,0:0:0:0:
287,192,97984,1,8,0:0:0:0:
350,186,98184,1,0,0:0:0:0:
195,144,98584,1,0,0:0:0:0:
290,216,98784,1,8,0:0:0:0:
290,216,99184,1,8,0:0:0:0:
290,216,99984,1,8,0:0:0:0:
320,187,100384,1,8,0:0:0:0:
320,187,100584,1,0,0:0:0:0:
290,216,100784,1,8,0:0:0:0:
290,216,101184,1,0,0:0:0:0:
320,187,101484,1,8,0:0:0:0:
239,331,101984,1,0,0:0:0:0:
290,216,102384,5,8,0:0:0:0:
320,187,102784,1,8,0:0:0:0:
320,187,102984,1,0,0:0:0:0:
290,216,103184,1,8,0:0:0:0:
320,187,103584,1,8,0:0:0:0:
290,216,103984,1,0,0:0:0:0:
290,216,104384,1,8,0:0:0:0:
290,216,104684,1,0,0:0:0:0:
320,187,104984,1,0,0:0:0:0:
363,175,105184,1,8,0:0:0:0:
273,170,105584,1,12,0:0:0:0:
273,170,106384,5,8,0:0:0:0:
320,187,106584,1,0,0:0:0:0:
320,187,106784,1,0,0:0:0:0:
273,170,106984,1,8,0:0:0:0:
315,158,107384,1,0,0:0:0:0:
315,158,107584,1,8,0:0:0:0:
241,184,107984,1,8,0:0:0:0:
315,158,108184,1,0,0:0:0:0:
315,158,108384,1,0,0:0:0:0:
241,184,108784,1,12,0:0:0:0:
241,184,109584,1,8,0:0:0:0:
313,153,109784,1,0,0:0:0:0:
313,153,109984,1,0,0:0:0:0:
241,184,110184,1,8,0:0:0:0:
313,153,110584,1,0,0:0:0:0:
313,153,110784,1,8,0:0:0:0:
313,153,110984,1,0,0:0:0:0:
366,151,111184,1,8,0:0:0:0:
350,138,111984,1,12,0:0:0:0:
293,174,112384,1,0,0:0:0:0:
293,174,112584,1,0,0:0:0:0:
350,138,112784,1,8,0:0:0:0:
293,174,113184,1,0,0:0:0:0:
350,138,113384,1,8,0:0:0:0:
293,174,113784,1,0,0:0:0:0:
293,174,113984,1,8,0:0:0:0:
356,164,114384,1,8,0:0:0:0:
293,174,114584,1,8,0:0:0:0:
293,174,114784,1,0,0:0:0:0:
265,138,115184,1,12,0:0:0:0:
265,138,115984,1,8,0:0:0:0:
293,174,116184,1,0,0:0:0:0:
260,159,116384,1,0,0:0:0:0:
265,138,116584,1,8,0:0:0:0:
260,159,116984,1,0,0:0:0:0:
254,191,117184,1,8,0:0:0:0:
260,159,117384,1,8,0:0:0:0:
249,187,117584,1,0,0:0:0:0:
249,187,117984,1,8,0:0:0:0:
260,159,118384,1,0,0:0:0:0:
260,159,118584,1,0,0:0:0:0:
156,170,118784,1,12,0:0:0:0:
256,192,118984,12,0,120384,0:0:0:0:
