osu file format v14

[General]
AudioFilename: audio.mp3
AudioLeadIn: 0
PreviewTime: 65681
Countdown: 0
SampleSet: Normal
StackLeniency: 0.7
Mode: 1
LetterboxInBreaks: 0
WidescreenStoryboard: 1

[Editor]
DistanceSpacing: 0.4
BeatDivisor: 4
GridSize: 32
TimelineZoom: 2.2

[Metadata]
Title:AKKERA-COUNTRY-BOY
TitleUnicode:AKKERA-COUNTRY-BOY
Artist:MYUKKE.
ArtistUnicode:MYUKKE.
Creator:Antti
Version:FUTSUU
Source:
Tags:fa featured artist mappers' guild mpg mg electronic dance music edm instrumental
BeatmapID:4468095
BeatmapSetID:1584690

[Difficulty]
HPDrainRate:7
CircleSize:2
OverallDifficulty:4
ApproachRate:10
SliderMultiplier:1.6
SliderTickRate:1

[Events]
//Background and Video events
0,0,"colourswow.jpg",0,0
//Break Periods
//Storyboard Layer 0 (Background)
//Storyboard Layer 1 (Fail)
//Storyboard Layer 2 (Pass)
//Storyboard Layer 3 (Foreground)
//Storyboard Layer 4 (Overlay)
//Storyboard Sound Samples

[TimingPoints]
1781,400,4,1,0,90,1,0
65781,-100,4,1,0,95,0,1
78581,-100,4,1,0,90,0,0
83181,-100,4,1,0,80,0,0
84481,-100,4,1,0,90,0,0
84781,-100,4,1,0,80,0,0
86281,-100,4,1,0,90,0,0

[HitObjects]
256,192,1781,5,4,0:0:0:0:
256,192,2381,1,0,0:0:0:0:
256,192,2581,1,0,0:0:0:0:
256,192,2981,1,8,0:0:0:0:
256,192,3181,1,8,0:0:0:0:
256,192,3381,1,0,0:0:0:0:
256,192,3781,1,0,0:0:0:0:
256,192,4181,1,8,0:0:0:0:
256,192,4981,1,8,0:0:0:0:
256,192,5381,1,0,0:0:0:0:
256,192,5581,1,8,0:0:0:0:
256,192,5781,1,8,0:0:0:0:
256,192,5981,1,0,0:0:0:0:
256,192,6181,1,8,0:0:0:0:
256,192,6581,1,12,0:0:0:0:
256,192,6881,1,12,0:0:0:0:
256,192,7181,1,4,0:0:0:0:
256,192,7781,1,12,0:0:0:0:
256,192,8181,1,0,0:0:0:0:
256,192,8581,1,0,0:0:0:0:
256,192,8981,1,0,0:0:0:0:
256,192,9381,1,0,0:0:0:0:
256,192,9781,1,0,0:0:0:0:
256,192,10181,1,0,0:0:0:0:
256,192,10581,1,0,0:0:0:0:
256,192,11381,1,0,0:0:0:0:
256,192,11581,1,0,0:0:0:0:
256,192,11781,1,8,0:0:0:0:
256,192,11981,1,8,0:0:0:0:
256,192,12181,1,0,0:0:0:0:
256,192,12581,1,0,0:0:0:0:
256,192,12981,1,12,0:0:0:0:
256,192,13281,1,0,0:0:0:0:
256,192,13581,1,0,0:0:0:0:
256,192,13781,1,8,0:0:0:0:
256,192,14581,1,4,0:0:0:0:
256,192,14981,1,8,0:0:0:0:
256,192,15281,1,0,0:0:0:0:
256,192,15581,1,8,0:0:0:0:
256,192,15781,1,0,0:0:0:0:
256,192,16181,1,8,0:0:0:0:
256,192,16381,1,8,0:0:0:0:
256,192,16581,1,0,0:0:0:0:
256,192,16981,1,8,0:0:0:0:
256,192,17781,1,0,0:0:0:0:
256,192,17981,1,8,0:0:0:0:
256,192,18181,1,0,0:0:0:0:
256,192,18481,1,8,0:0:0:0:
256,192,18781,1,0,0:0:0:0:
256,192,18981,1,8,0:0:0:0:
256,192,19381,1,12,0:0:0:0:
256,192,19681,1,0,0:0:0:0:
256,192,19981,1,0,0:0:0:0:
256,192,20181,1,12,0:0:0:0:
256,192,20981,1,8,0:0:0:0:
256,192,21181,1,8,0:0:0:0:
256,192,21381,1,0,0:0:0:0:
256,192,21781,1,0,0:0:0:0:
256,192,21981,1,0,0:0:0:0:
256,192,22181,1,8,0:0:0:0:
256,192,22581,1,8,0:0:0:0:
256,192,22781,1,8,0:0:0:0:
256,192,22981,1,0,0:0:0:0:
256,192,23381,1,0,0:0:0:0:
256,192,23581,1,0,0:0:0:0:
256,192,23781,1,8,0:0:0:0:
256,192,24181,1,8,0:0:0:0:
256,192,24381,1,8,0:0:0:0:
256,192,24581,1,8,0:0:0:0:
256,192,24781,1,8,0:0:0:0:
256,192,24981,1,8,0:0:0:0:
256,192,25381,1,8,0:0:0:0:
256,192,25781,1,0,0:0:0:0:
256,192,26181,1,8,0:0:0:0:
256,192,26581,1,0,0:0:0:0:
256,192,27381,1,4,0:0:0:0:
256,192,27781,1,8,0:0:0:0:
256,192,28081,1,8,0:0:0:0:
256,192,28381,1,0,0:0:0:0:
256,192,28581,1,8,0:0:0:0:
256,192,28981,1,8,0:0:0:0:
256,192,29381,1,0,0:0:0:0:
256,192,29681,1,8,0:0:0:0:
256,192,29981,1,8,0:0:0:0:
256,192,30181,1,0,0:0:0:0:
256,192,30581,1,8,0:0:0:0:
256,192,30981,1,0,0:0:0:0:
256,192,31281,1,8,0:0:0:0:
256,192,31581,1,8,0:0:0:0:
256,192,31781,1,0,0:0:0:0:
256,192,32181,1,8,0:0:0:0:
256,192,32581,1,0,0:0:0:0:
256,192,32881,1,8,0:0:0:0:
256,192,33381,1,12,0:0:0:0:
256,192,33781,1,4,0:0:0:0:
256,192,34181,1,8,0:0:0:0:
256,192,34481,1,8,0:0:0:0:
256,192,34781,1,0,0:0:0:0:
256,192,34981,1,8,0:0:0:0:
256,192,35381,1,0,0:0:0:0:
256,192,35781,1,8,0:0:0:0:
256,192,36081,1,8,0:0:0:0:
256,192,36381,1,8,0:0:0:0:
256,192,36581,1,0,0:0:0:0:
256,192,36981,1,8,0:0:0:0:
256,192,37381,1,0,0:0:0:0:
256,192,37581,1,8,0:0:0:0:
256,192,37781,1,0,0:0:0:0:
256,192,38181,1,12,0:0:0:0:
256,192,38581,1,0,0:0:0:0:
256,192,39381,1,0,0:0:0:0:
256,192,39781,1,12,0:0:0:0:
256,192,40181,1,4,0:0:0:0:
256,192,40581,1,8,0:0:0:0:
256,192,40881,1,8,0:0:0:0:
256,192,41181,1,0,0:0:0:0:
256,192,41381,1,8,0:0:0:0:
256,192,41781,1,0,0:0:0:0:
256,192,42181,1,8,0:0:0:0:
256,192,42481,1,0,0:0:0:0:
256,192,42781,1,8,0:0:0:0:
256,192,42981,1,0,0:0:0:0:
256,192,43381,1,0,0:0:0:0:
256,192,43581,1,8,0:0:0:0:
256,192,43781,1,0,0:0:0:0:
256,192,44081,1,8,0:0:0:0:
256,192,44381,1,0,0:0:0:0:
256,192,44581,1,8,0:0:0:0:
256,192,44981,1,8,0:0:0:0:
256,192,45381,1,0,0:0:0:0:
256,192,45681,1,8,0:0:0:0:
256,192,46181,1,12,0:0:0:0:
256,192,46581,1,4,0:0:0:0:
256,192,46981,1,8,0:0:0:0:
256,192,47281,1,8,0:0:0:0:
256,192,47581,1,0,0:0:0:0:
256,192,47781,1,8,0:0:0:0:
256,192,48181,1,0,0:0:0:0:
256,192,48581,1,8,0:0:0:0:
256,192,48881,1,0,0:0:0:0:
256,192,49181,1,8,0:0:0:0:
256,192,49381,1,0,0:0:0:0:
256,192,49781,1,8,0:0:0:0:
256,192,49981,1,8,0:0:0:0:
256,192,50181,1,0,0:0:0:0:
256,192,50481,1,8,0:0:0:0:
256,192,50781,1,0,0:0:0:0:
256,192,50981,1,8,0:0:0:0:
256,192,51381,1,0,0:0:0:0:
256,192,52181,1,0,0:0:0:0:
256,192,52581,1,8,0:0:0:0:
256,192,52781,1,8,0:0:0:0:
256,192,52981,1,0,0:0:0:0:
256,192,53381,1,0,0:0:0:0:
256,192,53781,1,0,0:0:0:0:
256,192,54181,1,8,0:0:0:0:
256,192,54381,1,8,0:0:0:0:
256,192,54581,1,0,0:0:0:0:
256,192,55381,1,8,0:0:0:0:
256,192,55781,1,0,0:0:0:0:
256,192,55981,1,0,0:0:0:0:
256,192,56181,1,8,0:0:0:0:
256,192,56581,1,0,0:0:0:0:
256,192,56781,1,8,0:0:0:0:
256,192,56981,1,0,0:0:0:0:
256,192,57381,1,8,0:0:0:0:
256,192,57781,1,12,0:0:0:0:
256,192,58081,1,12,0:0:0:0:
256,192,58381,1,4,0:0:0:0:
256,192,58981,1,0,0:0:0:0:
256,192,59181,1,8,0:0:0:0:
256,192,59381,1,8,0:0:0:0:
256,192,59781,1,0,0:0:0:0:
256,192,60181,1,0,0:0:0:0:
256,192,60581,1,8,0:0:0:0:
256,192,60781,1,8,0:0:0:0:
256,192,60981,1,0,0:0:0:0:
256,192,61781,1,8,0:0:0:0:
256,192,62381,1,8,0:0:0:0:
256,192,62581,1,0,0:0:0:0:
256,192,63381,1,0,0:0:0:0:
256,192,63781,1,8,0:0:0:0:
256,192,64181,1,8,0:0:0:0:
256,192,64381,1,8,0:0:0:0:
256,192,64581,1,0,0:0:0:0:
256,192,64981,1,0,0:0:0:0:
256,192,65181,1,0,0:0:0:0:
256,192,65381,1,12,0:0:0:0:
256,192,65781,1,4,0:0:0:0:
256,192,66181,1,8,0:0:0:0:
256,192,66381,1,8,0:0:0:0:
256,192,66581,1,0,0:0:0:0:
256,192,66781,1,8,0:0:0:0:
256,192,66981,1,0,0:0:0:0:
256,192,67381,1,0,0:0:0:0:
256,192,67581,1,8,0:0:0:0:
256,192,67781,1,0,0:0:0:0:
256,192,68081,1,8,0:0:0:0:
256,192,68381,1,0,0:0:0:0:
256,192,68581,1,8,0:0:0:0:
256,192,68981,1,8,0:0:0:0:
256,192,69181,1,0,0:0:0:0:
256,192,69381,1,8,0:0:0:0:
256,192,69581,1,8,0:0:0:0:
256,192,69781,1,0,0:0:0:0:
256,192,70181,1,8,0:0:0:0:
256,192,70581,1,0,0:0:0:0:
256,192,70981,1,12,0:0:0:0:
256,192,71781,1,12,0:0:0:0:
256,192,72181,1,4,0:0:0:0:
256,192,72581,1,8,0:0:0:0:
256,192,72781,1,8,0:0:0:0:
256,192,72981,1,0,0:0:0:0:
256,192,73181,1,8,0:0:0:0:
256,192,73381,1,0,0:0:0:0:
256,192,73781,1,8,0:0:0:0:
256,192,73981,1,8,0:0:0:0:
256,192,74181,1,0,0:0:0:0:
256,192,74481,1,8,0:0:0:0:
256,192,74781,1,8,0:0:0:0:
256,192,74981,1,0,0:0:0:0:
256,192,75381,1,8,0:0:0:0:
256,192,75581,1,0,0:0:0:0:
256,192,75781,1,8,0:0:0:0:
256,192,76081,1,8,0:0:0:0:
256,192,76381,1,0,0:0:0:0:
256,192,76581,1,8,0:0:0:0:
256,192,76981,1,12,0:0:0:0:
256,192,77781,1,12,0:0:0:0:
256,192,78181,1,4,0:0:0:0:
256,192,78581,1,8,0:0:0:0:
256,192,78781,1,8,0:0:0:0:
256,192,78981,1,0,0:0:0:0:
256,192,79381,1,8,0:0:0:0:
256,192,79581,1,0,0:0:0:0:
256,192,79781,1,0,0:0:0:0:
256,192,80181,1,8,0:0:0:0:
256,192,80381,1,8,0:0:0:0:
256,192,80581,1,0,0:0:0:0:
256,192,80981,1,8,0:0:0:0:
256,192,81181,1,0,0:0:0:0:
256,192,81381,1,0,0:0:0:0:
256,192,81781,1,8,0:0:0:0:
256,192,81981,1,8,0:0:0:0:
256,192,82181,1,8,0:0:0:0:
256,192,82381,1,8,0:0:0:0:
256,192,82581,1,0,0:0:0:0:
256,192,82981,1,0,0:0:0:0:
256,192,83381,1,8,0:0:0:0:
256,192,83781,1,8,0:0:0:0:
256,192,84181,1,8,0:0:0:0:
256,192,84981,1,0,0:0:0:0:
256,192,85381,1,8,0:0:0:0:
256,192,85681,1,0,0:0:0:0:
256,192,85981,1,8,0:0:0:0:
256,192,86181,1,8,0:0:0:0:
256,192,86581,1,4,0:0:0:0:
256,192,86981,1,8,0:0:0:0:
256,192,87281,1,8,0:0:0:0:
256,192,87581,1,0,0:0:0:0:
256,192,87781,1,8,0:0:0:0:
256,192,88181,1,0,0:0:0:0:
256,192,88581,1,8,0:0:0:0:
256,192,88881,1,8,0:0:0:0:
256,192,89181,1,8,0:0:0:0:
256,192,89381,1,0,0:0:0:0:
256,192,89781,1,8,0:0:0:0:
256,192,90181,1,0,0:0:0:0:
256,192,90481,1,8,0:0:0:0:
256,192,90781,1,0,0:0:0:0:
256,192,90981,1,12,0:0:0:0:
256,192,91381,1,0,0:0:0:0:
256,192,91781,1,0,0:0:0:0:
256,192,92081,1,8,0:0:0:0:
256,192,92381,1,0,0:0:0:0:
256,192,92581,1,8,0:0:0:0:
256,192,92981,1,8,0:0:0:0:
256,192,93381,1,0,0:0:0:0:
256,192,93681,1,8,0:0:0:0:
256,192,93981,1,8,0:0:0:0:
256,192,94181,1,0,0:0:0:0:
256,192,94581,1,8,0:0:0:0:
256,192,94981,1,0,0:0:0:0:
256,192,95281,1,8,0:0:0:0:
256,192,95581,1,0,0:0:0:0:
256,192,95781,1,8,0:0:0:0:
256,192,96181,1,0,0:0:0:0:
256,192,96581,1,8,0:0:0:0:
256,192,96981,1,8,0:0:0:0:
256,192,97781,1,0,0:0:0:0:
256,192,98181,1,8,0:0:0:0:
256,192,98581,1,8,0:0:0:0:
256,192,98981,1,0,0:0:0:0:
256,192,99381,1,8,0:0:0:0:
256,192,99781,1,8,0:0:0:0:
256,192,100181,1,8,0:0:0:0:
256,192,100581,1,0,0:0:0:0:
256,192,100981,1,8,0:0:0:0:
256,192,101381,1,8,0:0:0:0:
256,192,101781,1,0,0:0:0:0:
256,192,102181,1,0,0:0:0:0:
256,192,102581,1,8,0:0:0:0:
256,192,102981,1,0,0:0:0:0:
256,192,103381,1,8,0:0:0:0:
256,192,104181,1,4,0:0:0:0:
256,192,104581,1,8,0:0:0:0:
256,192,104981,1,8,0:0:0:0:
256,192,105381,1,8,0:0:0:0:
256,192,105781,1,0,0:0:0:0:
256,192,106181,1,0,0:0:0:0:
256,192,106581,1,8,0:0:0:0:
256,192,106981,1,8,0:0:0:0:
256,192,107381,1,8,0:0:0:0:
256,192,107781,1,0,0:0:0:0:
256,192,108181,1,0,0:0:0:0:
256,192,108581,1,0,0:0:0:0:
256,192,108981,1,8,0:0:0:0:
256,192,109381,1,8,0:0:0:0:
256,192,109781,1,8,0:0:0:0:
256,192,110181,1,12,0:0:0:0:
256,192,110581,1,4,0:0:0:0:
256,192,111181,1,8,0:0:0:0:
256,192,111381,1,0,0:0:0:0:
256,192,111781,1,8,0:0:0:0:
256,192,111981,1,8,0:0:0:0:
256,192,112181,1,0,0:0:0:0:
256,192,112581,1,0,0:0:0:0:
256,192,112981,1,8,0:0:0:0:
256,192,113781,1,0,0:0:0:0:
256,192,114181,1,8,0:0:0:0:
256,192,114581,1,8,0:0:0:0:
256,192,114981,1,0,0:0:0:0:
256,192,115381,1,8,0:0:0:0:
256,192,115781,1,8,0:0:0:0:
256,192,116181,1,0,0:0:0:0:
256,192,116581,1,8,0:0:0:0:
