osu file format v14

[General]
AudioFilename: audio.mp3
AudioLeadIn: 0
PreviewTime: 96057
Countdown: 0
SampleSet: Soft
StackLeniency: 0.7
Mode: 3
LetterboxInBreaks: 0
SpecialStyle: 0
WidescreenStoryboard: 1

[Editor]
DistanceSpacing: 1.4
BeatDivisor: 4
GridSize: 32
TimelineZoom: 0.6999998

[Metadata]
Title:AI[UE]OON
TitleUnicode:AI[UE]OON
Artist:MYUKKE.
ArtistUnicode:MYUKKE.
Creator:U1d
Version:Present
Source:Arcaea
Tags:aiueoon future electro house traditional videogame video game electronic instrumental sunset radiance song contest 2019 LN
BeatmapID:4237742
BeatmapSetID:2032929

[Difficulty]
HPDrainRate:7
CircleSize:6
OverallDifficulty:7
ApproachRate:5
SliderMultiplier:1.4
SliderTickRate:1

[Events]
//Background and Video events
0,0,"bg.jpg",0,0
//Break Periods
//Storyboard Layer 0 (Background)
//Storyboard Layer 1 (Fail)
//Storyboard Layer 2 (Pass)
//Storyboard Layer 3 (Foreground)
//Storyboard Layer 4 (Overlay)
//Storyboard Sound Samples

[TimingPoints]
1713,413.793103448276,4,2,1,20,1,0
96057,-100,4,2,1,20,0,1
108885,-100,4,2,1,20,0,0
109299,-100,4,2,1,20,0,1
122540,-100,4,2,1,20,0,0

[HitObjects]
42,192,1713,5,0,0:0:0:0:
213,192,2126,1,0,0:0:0:0:
298,192,2333,1,0,0:0:0:0:
384,192,2540,1,0,0:0:0:0:
213,192,2644,1,0,0:0:0:0:
128,192,2747,1,0,0:0:0:0:
384,192,2747,1,0,0:0:0:0:
469,192,2954,1,0,0:0:0:0:
213,192,2954,1,0,0:0:0:0:
42,192,2954,1,0,0:0:0:0:
213,192,3368,1,0,0:0:0:0:
298,192,3368,1,0,0:0:0:0:
42,192,3368,1,0,0:0:0:0:
469,192,3575,1,0,0:0:0:0:
384,192,3781,1,0,0:0:0:0:
298,192,3885,1,0,0:0:0:0:
213,192,3988,1,0,0:0:0:0:
469,192,4195,1,0,0:0:0:0:
384,192,4195,1,0,0:0:0:0:
128,192,4195,1,0,0:0:0:0:
213,192,4402,1,0,0:0:0:0:
42,192,4609,1,0,0:0:0:0:
128,192,4816,1,0,0:0:0:0:
384,192,4816,128,0,5230:0:0:0:0:
298,192,4816,1,0,0:0:0:0:
42,192,5230,1,0,0:0:0:0:
213,192,5333,1,0,0:0:0:0:
298,192,5437,1,0,0:0:0:0:
42,192,5437,1,0,0:0:0:0:
384,192,5644,1,0,0:0:0:0:
213,192,5850,1,0,0:0:0:0:
469,192,5850,1,0,0:0:0:0:
384,192,6057,1,0,0:0:0:0:
213,192,6161,1,0,0:0:0:0:
42,192,6264,1,0,0:0:0:0:
298,192,6264,1,0,0:0:0:0:
128,192,6471,1,0,0:0:0:0:
42,192,6678,1,0,0:0:0:0:
213,192,6678,1,0,0:0:0:0:
384,192,6678,1,0,0:0:0:0:
298,192,6885,1,0,0:0:0:0:
128,192,6988,1,0,0:0:0:0:
213,192,7092,1,0,0:0:0:0:
384,192,7299,1,0,0:0:0:0:
298,192,7506,1,0,0:0:0:0:
42,192,7506,1,0,0:0:0:0:
469,192,7506,1,0,0:0:0:0:
384,192,7713,1,0,0:0:0:0:
213,192,7816,1,0,0:0:0:0:
469,192,7919,1,0,0:0:0:0:
128,192,8126,1,0,0:0:0:0:
42,192,8126,128,0,8540:0:0:0:0:
298,192,8126,1,0,0:0:0:0:
469,192,8540,1,0,0:0:0:0:
298,192,8644,1,0,0:0:0:0:
469,192,8747,1,0,0:0:0:0:
213,192,8747,1,0,0:0:0:0:
298,192,8954,1,0,0:0:0:0:
42,192,9161,1,0,0:0:0:0:
128,192,9161,1,0,0:0:0:0:
469,192,9368,1,0,0:0:0:0:
213,192,9575,1,0,0:0:0:0:
384,192,9575,1,0,0:0:0:0:
298,192,9678,1,0,0:0:0:0:
128,192,9781,1,0,0:0:0:0:
42,192,9988,1,0,0:0:0:0:
298,192,9988,1,0,0:0:0:0:
213,192,9988,1,0,0:0:0:0:
469,192,10195,1,0,0:0:0:0:
384,192,10402,1,0,0:0:0:0:
298,192,10506,1,0,0:0:0:0:
213,192,10609,1,0,0:0:0:0:
42,192,10816,1,0,0:0:0:0:
128,192,10816,1,0,0:0:0:0:
384,192,10816,1,0,0:0:0:0:
213,192,11023,1,0,0:0:0:0:
298,192,11230,1,0,0:0:0:0:
384,192,11437,128,0,11850:0:0:0:0:
128,192,11437,1,0,0:0:0:0:
469,192,11437,1,0,0:0:0:0:
42,192,11850,1,0,0:0:0:0:
298,192,11954,1,0,0:0:0:0:
213,192,12057,1,0,0:0:0:0:
42,192,12057,1,0,0:0:0:0:
298,192,12264,1,0,0:0:0:0:
384,192,12471,1,0,0:0:0:0:
469,192,12471,1,0,0:0:0:0:
128,192,12678,1,0,0:0:0:0:
213,192,12781,1,0,0:0:0:0:
384,192,12885,1,0,0:0:0:0:
42,192,12885,1,0,0:0:0:0:
298,192,13092,1,0,0:0:0:0:
42,192,13299,1,0,0:0:0:0:
469,192,13299,1,0,0:0:0:0:
128,192,13299,1,0,0:0:0:0:
298,192,13506,1,0,0:0:0:0:
213,192,13609,1,0,0:0:0:0:
128,192,13713,1,0,0:0:0:0:
42,192,13919,1,0,0:0:0:0:
384,192,14126,1,0,0:0:0:0:
213,192,14126,1,0,0:0:0:0:
128,192,14126,1,0,0:0:0:0:
469,192,14333,1,0,0:0:0:0:
298,192,14540,1,0,0:0:0:0:
384,192,14747,1,0,0:0:0:0:
213,192,14747,128,0,15161:0:0:0:0:
42,192,14747,1,0,0:0:0:0:
469,192,15161,1,0,0:0:0:0:
298,192,15264,1,0,0:0:0:0:
128,192,15368,1,0,0:0:0:0:
384,192,15368,1,0,0:0:0:0:
213,192,15471,1,0,0:0:0:0:
298,192,15575,1,0,0:0:0:0:
213,192,15781,1,0,0:0:0:0:
469,192,15781,1,0,0:0:0:0:
298,192,15988,1,0,0:0:0:0:
128,192,15988,1,0,0:0:0:0:
42,192,16195,1,0,0:0:0:0:
384,192,16195,1,0,0:0:0:0:
469,192,16195,1,0,0:0:0:0:
213,192,16402,1,0,0:0:0:0:
128,192,16402,1,0,0:0:0:0:
298,192,16609,1,0,0:0:0:0:
42,192,16609,1,0,0:0:0:0:
128,192,16713,1,0,0:0:0:0:
384,192,16816,1,0,0:0:0:0:
213,192,17023,1,0,0:0:0:0:
42,192,17023,128,0,17230:0:0:0:0:
469,192,17023,1,0,0:0:0:0:
298,192,17230,1,0,0:0:0:0:
42,192,17437,1,0,0:0:0:0:
469,192,17437,1,0,0:0:0:0:
128,192,17540,1,0,0:0:0:0:
384,192,17644,1,0,0:0:0:0:
298,192,17850,1,0,0:0:0:0:
469,192,17850,128,0,18057:0:0:0:0:
42,192,17850,1,0,0:0:0:0:
213,192,18057,1,0,0:0:0:0:
42,192,18264,1,0,0:0:0:0:
384,192,18264,1,0,0:0:0:0:
128,192,18471,1,0,0:0:0:0:
213,192,18575,1,0,0:0:0:0:
298,192,18678,1,0,0:0:0:0:
469,192,18678,1,0,0:0:0:0:
213,192,18885,1,0,0:0:0:0:
384,192,18988,1,0,0:0:0:0:
298,192,19092,1,0,0:0:0:0:
42,192,19092,1,0,0:0:0:0:
128,192,19299,1,0,0:0:0:0:
298,192,19402,1,0,0:0:0:0:
213,192,19506,1,0,0:0:0:0:
469,192,19506,1,0,0:0:0:0:
128,192,19713,1,0,0:0:0:0:
298,192,19919,1,0,0:0:0:0:
42,192,19919,1,0,0:0:0:0:
128,192,20023,1,0,0:0:0:0:
384,192,20126,1,0,0:0:0:0:
213,192,20333,1,0,0:0:0:0:
42,192,20333,128,0,20540:0:0:0:0:
469,192,20333,1,0,0:0:0:0:
298,192,20540,1,0,0:0:0:0:
42,192,20747,1,0,0:0:0:0:
469,192,20747,1,0,0:0:0:0:
128,192,20850,1,0,0:0:0:0:
384,192,20954,1,0,0:0:0:0:
298,192,21161,1,0,0:0:0:0:
469,192,21161,128,0,21368:0:0:0:0:
42,192,21161,1,0,0:0:0:0:
213,192,21368,1,0,0:0:0:0:
128,192,21575,1,0,0:0:0:0:
384,192,21575,1,0,0:0:0:0:
298,192,21781,1,0,0:0:0:0:
213,192,21885,1,0,0:0:0:0:
469,192,21988,1,0,0:0:0:0:
42,192,21988,1,0,0:0:0:0:
384,192,22195,1,0,0:0:0:0:
298,192,22299,1,0,0:0:0:0:
213,192,22402,1,0,0:0:0:0:
42,192,22402,1,0,0:0:0:0:
384,192,22609,1,0,0:0:0:0:
469,192,22713,1,0,0:0:0:0:
298,192,22816,1,0,0:0:0:0:
42,192,22816,1,0,0:0:0:0:
128,192,22816,1,0,0:0:0:0:
213,192,23023,1,0,0:0:0:0:
128,192,23230,1,0,0:0:0:0:
298,192,23230,1,0,0:0:0:0:
298,192,23437,1,0,0:0:0:0:
384,192,23644,1,0,0:0:0:0:
42,192,23644,1,0,0:0:0:0:
128,192,23850,1,0,0:0:0:0:
384,192,23850,1,0,0:0:0:0:
298,192,23954,1,0,0:0:0:0:
469,192,24057,1,0,0:0:0:0:
213,192,24057,1,0,0:0:0:0:
213,192,24264,1,0,0:0:0:0:
128,192,24471,1,0,0:0:0:0:
469,192,24471,1,0,0:0:0:0:
384,192,24678,1,0,0:0:0:0:
128,192,24678,1,0,0:0:0:0:
298,192,24885,1,0,0:0:0:0:
213,192,24885,1,0,0:0:0:0:
42,192,25092,1,0,0:0:0:0:
213,192,25299,1,0,0:0:0:0:
298,192,25299,1,0,0:0:0:0:
469,192,25506,1,0,0:0:0:0:
128,192,25713,1,0,0:0:0:0:
384,192,25713,1,0,0:0:0:0:
384,192,25919,1,0,0:0:0:0:
42,192,26126,1,0,0:0:0:0:
213,192,26126,1,0,0:0:0:0:
213,192,26333,1,0,0:0:0:0:
469,192,26333,1,0,0:0:0:0:
384,192,26437,1,0,0:0:0:0:
298,192,26540,1,0,0:0:0:0:
42,192,26540,1,0,0:0:0:0:
128,192,26644,1,0,0:0:0:0:
213,192,26747,1,0,0:0:0:0:
298,192,26850,1,0,0:0:0:0:
469,192,26954,1,0,0:0:0:0:
128,192,26954,1,0,0:0:0:0:
213,192,27057,1,0,0:0:0:0:
298,192,27161,1,0,0:0:0:0:
384,192,27264,1,0,0:0:0:0:
42,192,27368,128,0,27781:0:0:0:0:
213,192,27368,1,0,0:0:0:0:
298,192,27471,1,0,0:0:0:0:
384,192,27575,1,0,0:0:0:0:
469,192,27678,1,0,0:0:0:0:
128,192,27781,1,0,0:0:0:0:
298,192,27988,1,0,0:0:0:0:
469,192,28195,1,0,0:0:0:0:
213,192,28402,1,0,0:0:0:0:
384,192,28609,1,0,0:0:0:0:
384,192,28816,1,0,0:0:0:0:
128,192,29023,1,0,0:0:0:0:
128,192,29230,1,0,0:0:0:0:
42,192,29437,1,0,0:0:0:0:
469,192,29437,1,0,0:0:0:0:
384,192,29437,1,0,0:0:0:0:
213,192,29644,1,0,0:0:0:0:
298,192,29850,128,0,30057:0:0:0:0:
42,192,29850,1,0,0:0:0:0:
128,192,29850,1,0,0:0:0:0:
384,192,30057,1,0,0:0:0:0:
213,192,30161,1,0,0:0:0:0:
384,192,30264,1,0,0:0:0:0:
469,192,30264,1,0,0:0:0:0:
128,192,30471,1,0,0:0:0:0:
42,192,30678,1,0,0:0:0:0:
213,192,30678,1,0,0:0:0:0:
298,192,30781,1,0,0:0:0:0:
128,192,30885,1,0,0:0:0:0:
298,192,30988,1,0,0:0:0:0:
384,192,31092,1,0,0:0:0:0:
469,192,31092,1,0,0:0:0:0:
42,192,31092,1,0,0:0:0:0:
213,192,31299,1,0,0:0:0:0:
128,192,31506,128,0,31713:0:0:0:0:
42,192,31506,1,0,0:0:0:0:
384,192,31506,1,0,0:0:0:0:
298,192,31713,1,0,0:0:0:0:
213,192,31713,1,0,0:0:0:0:
384,192,31919,1,0,0:0:0:0:
469,192,31919,1,0,0:0:0:0:
213,192,32126,1,0,0:0:0:0:
128,192,32126,1,0,0:0:0:0:
384,192,32230,1,0,0:0:0:0:
213,192,32333,1,0,0:0:0:0:
298,192,32333,1,0,0:0:0:0:
42,192,32437,1,0,0:0:0:0:
128,192,32540,1,0,0:0:0:0:
298,192,32644,1,0,0:0:0:0:
384,192,32747,1,0,0:0:0:0:
469,192,32747,1,0,0:0:0:0:
128,192,32747,1,0,0:0:0:0:
384,192,32954,1,0,0:0:0:0:
213,192,32954,1,0,0:0:0:0:
298,192,33057,1,0,0:0:0:0:
213,192,33161,1,0,0:0:0:0:
42,192,33161,128,0,33368:0:0:0:0:
128,192,33161,1,0,0:0:0:0:
469,192,33368,1,0,0:0:0:0:
298,192,33471,1,0,0:0:0:0:
42,192,33575,1,0,0:0:0:0:
128,192,33575,1,0,0:0:0:0:
384,192,33678,1,0,0:0:0:0:
213,192,33781,1,0,0:0:0:0:
384,192,33885,1,0,0:0:0:0:
213,192,33988,1,0,0:0:0:0:
42,192,33988,1,0,0:0:0:0:
469,192,34092,1,0,0:0:0:0:
298,192,34195,1,0,0:0:0:0:
469,192,34299,1,0,0:0:0:0:
128,192,34402,1,0,0:0:0:0:
42,192,34402,1,0,0:0:0:0:
384,192,34402,1,0,0:0:0:0:
213,192,34609,1,0,0:0:0:0:
469,192,34816,1,0,0:0:0:0:
298,192,34816,1,0,0:0:0:0:
213,192,34919,1,0,0:0:0:0:
298,192,35023,1,0,0:0:0:0:
384,192,35126,1,0,0:0:0:0:
469,192,35230,1,0,0:0:0:0:
42,192,35230,1,0,0:0:0:0:
213,192,35230,1,0,0:0:0:0:
298,192,35333,1,0,0:0:0:0:
213,192,35437,1,0,0:0:0:0:
128,192,35540,1,0,0:0:0:0:
42,192,35644,1,0,0:0:0:0:
298,192,35644,1,0,0:0:0:0:
384,192,35644,1,0,0:0:0:0:
298,192,35850,1,0,0:0:0:0:
384,192,35954,1,0,0:0:0:0:
469,192,35954,1,0,0:0:0:0:
128,192,35954,1,0,0:0:0:0:
128,192,36161,1,0,0:0:0:0:
384,192,36264,1,0,0:0:0:0:
213,192,36368,1,0,0:0:0:0:
298,192,36471,128,0,36678:0:0:0:0:
469,192,36471,1,0,0:0:0:0:
42,192,36471,1,0,0:0:0:0:
384,192,36678,1,0,0:0:0:0:
213,192,36781,1,0,0:0:0:0:
128,192,36885,1,0,0:0:0:0:
42,192,36885,1,0,0:0:0:0:
384,192,37092,1,0,0:0:0:0:
469,192,37299,1,0,0:0:0:0:
298,192,37299,1,0,0:0:0:0:
213,192,37402,1,0,0:0:0:0:
384,192,37506,1,0,0:0:0:0:
213,192,37609,1,0,0:0:0:0:
128,192,37713,1,0,0:0:0:0:
42,192,37713,1,0,0:0:0:0:
469,192,37713,1,0,0:0:0:0:
298,192,37919,1,0,0:0:0:0:
384,192,38126,128,0,38333:0:0:0:0:
469,192,38126,1,0,0:0:0:0:
128,192,38126,1,0,0:0:0:0:
213,192,38333,1,0,0:0:0:0:
298,192,38333,1,0,0:0:0:0:
128,192,38540,1,0,0:0:0:0:
42,192,38540,1,0,0:0:0:0:
298,192,38747,1,0,0:0:0:0:
384,192,38747,1,0,0:0:0:0:
128,192,38850,1,0,0:0:0:0:
298,192,38954,1,0,0:0:0:0:
213,192,38954,1,0,0:0:0:0:
469,192,39057,1,0,0:0:0:0:
384,192,39161,1,0,0:0:0:0:
213,192,39264,1,0,0:0:0:0:
128,192,39368,1,0,0:0:0:0:
42,192,39368,1,0,0:0:0:0:
384,192,39368,1,0,0:0:0:0:
213,192,39575,1,0,0:0:0:0:
298,192,39678,1,0,0:0:0:0:
42,192,39781,1,0,0:0:0:0:
469,192,39781,128,0,39988:0:0:0:0:
213,192,39988,128,0,40195:0:0:0:0:
298,192,40195,1,0,0:0:0:0:
42,192,40195,1,0,0:0:0:0:
128,192,40195,1,0,0:0:0:0:
384,192,40299,1,0,0:0:0:0:
213,192,40402,1,0,0:0:0:0:
384,192,40506,1,0,0:0:0:0:
42,192,40609,1,0,0:0:0:0:
213,192,40609,1,0,0:0:0:0:
469,192,40713,1,0,0:0:0:0:
298,192,40816,1,0,0:0:0:0:
469,192,40919,1,0,0:0:0:0:
42,192,41023,1,0,0:0:0:0:
384,192,41023,1,0,0:0:0:0:
213,192,41126,1,0,0:0:0:0:
384,192,41230,1,0,0:0:0:0:
42,192,41230,1,0,0:0:0:0:
213,192,41437,1,0,0:0:0:0:
128,192,41437,1,0,0:0:0:0:
298,192,41540,1,0,0:0:0:0:
384,192,41644,1,0,0:0:0:0:
298,192,41850,1,0,0:0:0:0:
469,192,41850,1,0,0:0:0:0:
42,192,41850,1,0,0:0:0:0:
384,192,42057,1,0,0:0:0:0:
213,192,42161,1,0,0:0:0:0:
42,192,42264,1,0,0:0:0:0:
128,192,42264,1,0,0:0:0:0:
298,192,42368,1,0,0:0:0:0:
213,192,42575,1,0,0:0:0:0:
384,192,42678,1,0,0:0:0:0:
469,192,42678,1,0,0:0:0:0:
42,192,42678,1,0,0:0:0:0:
128,192,42885,1,0,0:0:0:0:
384,192,42988,1,0,0:0:0:0:
42,192,43092,1,0,0:0:0:0:
213,192,43092,1,0,0:0:0:0:
298,192,43092,1,0,0:0:0:0:
469,192,43195,1,0,0:0:0:0:
213,192,43299,1,0,0:0:0:0:
384,192,43402,1,0,0:0:0:0:
128,192,43506,1,0,0:0:0:0:
42,192,43506,1,0,0:0:0:0:
298,192,43609,1,0,0:0:0:0:
128,192,43713,1,0,0:0:0:0:
384,192,43816,1,0,0:0:0:0:
213,192,43919,1,0,0:0:0:0:
469,192,43919,1,0,0:0:0:0:
128,192,44023,1,0,0:0:0:0:
42,192,44126,1,0,0:0:0:0:
469,192,44230,1,0,0:0:0:0:
128,192,44333,1,0,0:0:0:0:
384,192,44333,1,0,0:0:0:0:
298,192,44437,1,0,0:0:0:0:
213,192,44540,1,0,0:0:0:0:
298,192,44644,1,0,0:0:0:0:
42,192,44747,1,0,0:0:0:0:
469,192,44747,1,0,0:0:0:0:
128,192,44850,1,0,0:0:0:0:
384,192,44954,1,0,0:0:0:0:
213,192,45057,1,0,0:0:0:0:
469,192,45161,1,0,0:0:0:0:
42,192,45161,1,0,0:0:0:0:
213,192,45264,1,0,0:0:0:0:
384,192,45368,1,0,0:0:0:0:
128,192,45471,1,0,0:0:0:0:
384,192,45575,1,0,0:0:0:0:
42,192,45575,1,0,0:0:0:0:
298,192,45678,1,0,0:0:0:0:
213,192,45781,1,0,0:0:0:0:
469,192,45885,1,0,0:0:0:0:
384,192,45988,1,0,0:0:0:0:
42,192,45988,1,0,0:0:0:0:
298,192,46092,1,0,0:0:0:0:
128,192,46195,128,0,46402:0:0:0:0:
298,192,46402,1,0,0:0:0:0:
213,192,46402,1,0,0:0:0:0:
469,192,46506,1,0,0:0:0:0:
213,192,46609,1,0,0:0:0:0:
384,192,46713,1,0,0:0:0:0:
128,192,46816,1,0,0:0:0:0:
42,192,46816,1,0,0:0:0:0:
298,192,46919,1,0,0:0:0:0:
128,192,47023,1,0,0:0:0:0:
384,192,47126,1,0,0:0:0:0:
213,192,47230,1,0,0:0:0:0:
469,192,47230,1,0,0:0:0:0:
128,192,47333,1,0,0:0:0:0:
42,192,47437,1,0,0:0:0:0:
469,192,47540,1,0,0:0:0:0:
128,192,47644,1,0,0:0:0:0:
384,192,47644,1,0,0:0:0:0:
298,192,47747,1,0,0:0:0:0:
213,192,47850,1,0,0:0:0:0:
298,192,47954,1,0,0:0:0:0:
384,192,48057,1,0,0:0:0:0:
128,192,48057,1,0,0:0:0:0:
42,192,48161,1,0,0:0:0:0:
469,192,48264,1,0,0:0:0:0:
128,192,48368,1,0,0:0:0:0:
384,192,48368,128,0,48575:0:0:0:0:
298,192,48575,1,0,0:0:0:0:
213,192,48678,1,0,0:0:0:0:
128,192,48781,1,0,0:0:0:0:
42,192,48885,1,0,0:0:0:0:
469,192,48885,1,0,0:0:0:0:
213,192,48988,1,0,0:0:0:0:
384,192,49092,1,0,0:0:0:0:
42,192,49195,1,0,0:0:0:0:
298,192,49195,1,0,0:0:0:0:
469,192,49299,1,0,0:0:0:0:
298,192,49402,1,0,0:0:0:0:
128,192,49506,128,0,49713:0:0:0:0:
213,192,49713,1,0,0:0:0:0:
469,192,49713,1,0,0:0:0:0:
384,192,49816,1,0,0:0:0:0:
298,192,49919,1,0,0:0:0:0:
469,192,50023,1,0,0:0:0:0:
42,192,50023,1,0,0:0:0:0:
213,192,50023,128,0,50230:0:0:0:0:
298,192,50230,1,0,0:0:0:0:
128,192,50333,1,0,0:0:0:0:
384,192,50333,128,0,50540:0:0:0:0:
42,192,50540,1,0,0:0:0:0:
298,192,50540,1,0,0:0:0:0:
128,192,50644,1,0,0:0:0:0:
384,192,50747,1,0,0:0:0:0:
469,192,50850,1,0,0:0:0:0:
298,192,50850,128,0,51057:0:0:0:0:
42,192,50850,1,0,0:0:0:0:
213,192,51057,1,0,0:0:0:0:
384,192,51161,1,0,0:0:0:0:
128,192,51161,128,0,51368:0:0:0:0:
469,192,51368,1,0,0:0:0:0:
213,192,51368,1,0,0:0:0:0:
384,192,51471,1,0,0:0:0:0:
298,192,51575,1,0,0:0:0:0:
469,192,51678,1,0,0:0:0:0:
213,192,51678,128,0,51885:0:0:0:0:
42,192,51678,1,0,0:0:0:0:
298,192,51885,1,0,0:0:0:0:
384,192,51988,128,0,52195:0:0:0:0:
128,192,51988,1,0,0:0:0:0:
298,192,52195,1,0,0:0:0:0:
42,192,52195,1,0,0:0:0:0:
128,192,52299,1,0,0:0:0:0:
213,192,52402,1,0,0:0:0:0:
469,192,52506,1,0,0:0:0:0:
298,192,52506,128,0,52713:0:0:0:0:
42,192,52506,1,0,0:0:0:0:
213,192,52713,1,0,0:0:0:0:
384,192,52816,1,0,0:0:0:0:
128,192,52816,128,0,53023:0:0:0:0:
213,192,53023,1,0,0:0:0:0:
42,192,53023,1,0,0:0:0:0:
469,192,53126,1,0,0:0:0:0:
298,192,53126,1,0,0:0:0:0:
213,192,53333,1,0,0:0:0:0:
42,192,53333,1,0,0:0:0:0:
469,192,53437,1,0,0:0:0:0:
298,192,53437,1,0,0:0:0:0:
213,192,53644,1,0,0:0:0:0:
298,192,53644,1,0,0:0:0:0:
128,192,53850,1,0,0:0:0:0:
42,192,53850,1,0,0:0:0:0:
384,192,53954,1,0,0:0:0:0:
469,192,53954,1,0,0:0:0:0:
42,192,54161,1,0,0:0:0:0:
128,192,54161,1,0,0:0:0:0:
384,192,54264,1,0,0:0:0:0:
469,192,54264,1,0,0:0:0:0:
213,192,54264,1,0,0:0:0:0:
469,192,54678,1,0,0:0:0:0:
128,192,54678,1,0,0:0:0:0:
384,192,54781,1,0,0:0:0:0:
298,192,54885,1,0,0:0:0:0:
213,192,54988,1,0,0:0:0:0:
384,192,55092,1,0,0:0:0:0:
42,192,55092,1,0,0:0:0:0:
298,192,55195,1,0,0:0:0:0:
213,192,55299,1,0,0:0:0:0:
128,192,55402,1,0,0:0:0:0:
384,192,55506,1,0,0:0:0:0:
213,192,55609,1,0,0:0:0:0:
384,192,55713,1,0,0:0:0:0:
213,192,55816,1,0,0:0:0:0:
469,192,55919,1,0,0:0:0:0:
42,192,55919,1,0,0:0:0:0:
128,192,56023,1,0,0:0:0:0:
213,192,56126,1,0,0:0:0:0:
298,192,56230,1,0,0:0:0:0:
42,192,56333,1,0,0:0:0:0:
384,192,56333,128,0,57161:0:0:0:0:
469,192,56333,1,0,0:0:0:0:
128,192,56540,1,0,0:0:0:0:
298,192,56747,1,0,0:0:0:0:
213,192,56747,1,0,0:0:0:0:
128,192,56954,1,0,0:0:0:0:
213,192,57161,1,0,0:0:0:0:
469,192,57161,1,0,0:0:0:0:
298,192,57264,1,0,0:0:0:0:
128,192,57368,1,0,0:0:0:0:
213,192,57471,1,0,0:0:0:0:
42,192,57575,1,0,0:0:0:0:
469,192,57575,1,0,0:0:0:0:
384,192,57678,1,0,0:0:0:0:
128,192,57781,128,0,59230:0:0:0:0:
298,192,57781,1,0,0:0:0:0:
213,192,57988,1,0,0:0:0:0:
384,192,57988,1,0,0:0:0:0:
42,192,58195,1,0,0:0:0:0:
469,192,58402,1,0,0:0:0:0:
384,192,58402,1,0,0:0:0:0:
298,192,58609,1,0,0:0:0:0:
213,192,58816,1,0,0:0:0:0:
42,192,58816,1,0,0:0:0:0:
298,192,59023,1,0,0:0:0:0:
384,192,59230,1,0,0:0:0:0:
469,192,59230,1,0,0:0:0:0:
298,192,59333,1,0,0:0:0:0:
42,192,59437,1,0,0:0:0:0:
128,192,59540,1,0,0:0:0:0:
213,192,59644,128,0,60471:0:0:0:0:
384,192,59644,1,0,0:0:0:0:
469,192,59850,1,0,0:0:0:0:
42,192,60057,1,0,0:0:0:0:
128,192,60057,1,0,0:0:0:0:
298,192,60264,1,0,0:0:0:0:
384,192,60471,1,0,0:0:0:0:
128,192,60471,1,0,0:0:0:0:
298,192,60678,1,0,0:0:0:0:
213,192,60885,1,0,0:0:0:0:
469,192,60885,1,0,0:0:0:0:
128,192,61092,128,0,62540:0:0:0:0:
384,192,61092,1,0,0:0:0:0:
298,192,61299,1,0,0:0:0:0:
213,192,61299,1,0,0:0:0:0:
469,192,61506,1,0,0:0:0:0:
298,192,61609,1,0,0:0:0:0:
469,192,61713,1,0,0:0:0:0:
42,192,61713,1,0,0:0:0:0:
384,192,61919,1,0,0:0:0:0:
213,192,62023,1,0,0:0:0:0:
384,192,62126,1,0,0:0:0:0:
298,192,62126,1,0,0:0:0:0:
469,192,62333,1,0,0:0:0:0:
42,192,62540,1,0,0:0:0:0:
384,192,62540,1,0,0:0:0:0:
213,192,62644,1,0,0:0:0:0:
128,192,62747,1,0,0:0:0:0:
469,192,62747,1,0,0:0:0:0:
298,192,62850,1,0,0:0:0:0:
384,192,62954,128,0,63781:0:0:0:0:
42,192,62954,1,0,0:0:0:0:
298,192,63161,1,0,0:0:0:0:
42,192,63368,1,0,0:0:0:0:
128,192,63368,1,0,0:0:0:0:
213,192,63575,1,0,0:0:0:0:
469,192,63781,1,0,0:0:0:0:
298,192,63781,1,0,0:0:0:0:
128,192,63885,1,0,0:0:0:0:
213,192,63988,1,0,0:0:0:0:
42,192,64092,1,0,0:0:0:0:
469,192,64195,1,0,0:0:0:0:
298,192,64195,1,0,0:0:0:0:
213,192,64402,128,0,65850:0:0:0:0:
384,192,64402,1,0,0:0:0:0:
128,192,64609,1,0,0:0:0:0:
298,192,64609,1,0,0:0:0:0:
42,192,64816,1,0,0:0:0:0:
384,192,65023,1,0,0:0:0:0:
128,192,65023,1,0,0:0:0:0:
469,192,65230,1,0,0:0:0:0:
384,192,65437,1,0,0:0:0:0:
42,192,65437,1,0,0:0:0:0:
128,192,65644,1,0,0:0:0:0:
469,192,65850,1,0,0:0:0:0:
298,192,65850,1,0,0:0:0:0:
42,192,65954,1,0,0:0:0:0:
213,192,66057,1,0,0:0:0:0:
384,192,66161,1,0,0:0:0:0:
469,192,66264,128,0,67092:0:0:0:0:
128,192,66264,1,0,0:0:0:0:
298,192,66471,1,0,0:0:0:0:
128,192,66678,1,0,0:0:0:0:
384,192,66678,1,0,0:0:0:0:
213,192,66885,1,0,0:0:0:0:
384,192,67092,1,0,0:0:0:0:
42,192,67092,1,0,0:0:0:0:
298,192,67299,1,0,0:0:0:0:
213,192,67506,1,0,0:0:0:0:
469,192,67506,1,0,0:0:0:0:
384,192,67713,128,0,69161:0:0:0:0:
128,192,67713,1,0,0:0:0:0:
213,192,67919,1,0,0:0:0:0:
298,192,67919,1,0,0:0:0:0:
42,192,68126,1,0,0:0:0:0:
213,192,68230,1,0,0:0:0:0:
42,192,68333,1,0,0:0:0:0:
469,192,68333,1,0,0:0:0:0:
128,192,68540,1,0,0:0:0:0:
298,192,68644,1,0,0:0:0:0:
128,192,68747,1,0,0:0:0:0:
213,192,68747,1,0,0:0:0:0:
298,192,68954,1,0,0:0:0:0:
42,192,69161,1,0,0:0:0:0:
469,192,69161,1,0,0:0:0:0:
213,192,69161,1,0,0:0:0:0:
128,192,69368,1,0,0:0:0:0:
213,192,69575,128,0,72471:0:0:0:0:
384,192,69575,1,0,0:0:0:0:
469,192,69988,1,0,0:0:0:0:
42,192,69988,1,0,0:0:0:0:
128,192,70195,1,0,0:0:0:0:
298,192,70402,1,0,0:0:0:0:
384,192,70609,1,0,0:0:0:0:
469,192,70816,1,0,0:0:0:0:
42,192,70816,1,0,0:0:0:0:
384,192,71023,1,0,0:0:0:0:
298,192,71437,1,0,0:0:0:0:
42,192,71644,1,0,0:0:0:0:
469,192,71644,1,0,0:0:0:0:
384,192,71850,1,0,0:0:0:0:
128,192,72057,1,0,0:0:0:0:
384,192,72264,1,0,0:0:0:0:
42,192,72471,1,0,0:0:0:0:
298,192,72471,1,0,0:0:0:0:
384,192,72678,1,0,0:0:0:0:
469,192,72885,128,0,74333:0:0:0:0:
128,192,72885,1,0,0:0:0:0:
213,192,73092,1,0,0:0:0:0:
298,192,73299,1,0,0:0:0:0:
42,192,73299,1,0,0:0:0:0:
384,192,73506,1,0,0:0:0:0:
213,192,73713,1,0,0:0:0:0:
384,192,73919,1,0,0:0:0:0:
42,192,74126,1,0,0:0:0:0:
128,192,74126,1,0,0:0:0:0:
298,192,74333,128,0,75781:0:0:0:0:
213,192,74333,1,0,0:0:0:0:
42,192,74747,1,0,0:0:0:0:
469,192,74954,1,0,0:0:0:0:
213,192,74954,1,0,0:0:0:0:
384,192,75161,1,0,0:0:0:0:
213,192,75368,1,0,0:0:0:0:
128,192,75575,1,0,0:0:0:0:
42,192,75781,1,0,0:0:0:0:
469,192,75781,1,0,0:0:0:0:
128,192,75885,1,0,0:0:0:0:
384,192,75988,1,0,0:0:0:0:
298,192,76092,1,0,0:0:0:0:
213,192,76195,128,0,79092:0:0:0:0:
42,192,76195,1,0,0:0:0:0:
469,192,76195,128,0,76402:0:0:0:0:
384,192,76609,128,0,76816:0:0:0:0:
298,192,76816,128,0,77023:0:0:0:0:
469,192,77023,1,0,0:0:0:0:
42,192,77023,1,0,0:0:0:0:
128,192,77230,1,0,0:0:0:0:
298,192,77437,1,0,0:0:0:0:
469,192,77437,1,0,0:0:0:0:
128,192,77644,128,0,77850:0:0:0:0:
384,192,77644,1,0,0:0:0:0:
384,192,78057,1,0,0:0:0:0:
128,192,78057,1,0,0:0:0:0:
469,192,78264,1,0,0:0:0:0:
298,192,78264,128,0,78471:0:0:0:0:
128,192,78471,128,0,78678:0:0:0:0:
384,192,78678,1,0,0:0:0:0:
42,192,78678,1,0,0:0:0:0:
298,192,79092,128,0,79299:0:0:0:0:
42,192,79092,1,0,0:0:0:0:
384,192,79299,128,0,79506:0:0:0:0:
128,192,79299,1,0,0:0:0:0:
469,192,79506,128,0,80954:0:0:0:0:
213,192,79506,1,0,0:0:0:0:
42,192,79506,128,0,79713:0:0:0:0:
298,192,79919,128,0,80126:0:0:0:0:
213,192,80126,128,0,80333:0:0:0:0:
384,192,80333,128,0,80540:0:0:0:0:
42,192,80333,1,0,0:0:0:0:
128,192,80747,1,0,0:0:0:0:
298,192,80954,128,0,81988:0:0:0:0:
42,192,80954,1,0,0:0:0:0:
213,192,80954,128,0,81161:0:0:0:0:
213,192,81368,1,0,0:0:0:0:
469,192,81575,1,0,0:0:0:0:
384,192,81575,128,0,81781:0:0:0:0:
128,192,81781,128,0,81988:0:0:0:0:
213,192,81988,128,0,82816:0:0:0:0:
42,192,81988,1,0,0:0:0:0:
469,192,81988,1,0,0:0:0:0:
384,192,82195,1,0,0:0:0:0:
298,192,82402,1,0,0:0:0:0:
128,192,82402,1,0,0:0:0:0:
384,192,82609,1,0,0:0:0:0:
42,192,82816,1,0,0:0:0:0:
469,192,82816,1,0,0:0:0:0:
128,192,83023,1,0,0:0:0:0:
469,192,83230,1,0,0:0:0:0:
213,192,83230,1,0,0:0:0:0:
298,192,83437,1,0,0:0:0:0:
469,192,83644,1,0,0:0:0:0:
384,192,83644,1,0,0:0:0:0:
298,192,83850,1,0,0:0:0:0:
213,192,83954,1,0,0:0:0:0:
469,192,84057,1,0,0:0:0:0:
128,192,84057,1,0,0:0:0:0:
213,192,84264,1,0,0:0:0:0:
384,192,84471,1,0,0:0:0:0:
42,192,84471,1,0,0:0:0:0:
298,192,84678,1,0,0:0:0:0:
384,192,84885,1,0,0:0:0:0:
42,192,84885,1,0,0:0:0:0:
469,192,85092,1,0,0:0:0:0:
298,192,85299,1,0,0:0:0:0:
42,192,85299,1,0,0:0:0:0:
384,192,85506,1,0,0:0:0:0:
298,192,85609,1,0,0:0:0:0:
213,192,85713,1,0,0:0:0:0:
42,192,85713,1,0,0:0:0:0:
128,192,85919,1,0,0:0:0:0:
469,192,86126,1,0,0:0:0:0:
298,192,86126,1,0,0:0:0:0:
42,192,86333,1,0,0:0:0:0:
469,192,86540,1,0,0:0:0:0:
213,192,86540,1,0,0:0:0:0:
128,192,86747,1,0,0:0:0:0:
469,192,86954,1,0,0:0:0:0:
298,192,86954,1,0,0:0:0:0:
213,192,87161,1,0,0:0:0:0:
128,192,87264,1,0,0:0:0:0:
469,192,87368,1,0,0:0:0:0:
42,192,87368,1,0,0:0:0:0:
384,192,87575,1,0,0:0:0:0:
42,192,87781,1,0,0:0:0:0:
213,192,87781,1,0,0:0:0:0:
298,192,87988,1,0,0:0:0:0:
213,192,88195,1,0,0:0:0:0:
384,192,88195,1,0,0:0:0:0:
128,192,88402,1,0,0:0:0:0:
213,192,88609,1,0,0:0:0:0:
469,192,88609,1,0,0:0:0:0:
384,192,88816,1,0,0:0:0:0:
298,192,88919,1,0,0:0:0:0:
213,192,89023,1,0,0:0:0:0:
128,192,89023,1,0,0:0:0:0:
298,192,89230,1,0,0:0:0:0:
42,192,89437,1,0,0:0:0:0:
128,192,89437,1,0,0:0:0:0:
469,192,89437,1,0,0:0:0:0:
384,192,89540,1,0,0:0:0:0:
298,192,89644,1,0,0:0:0:0:
42,192,89850,1,0,0:0:0:0:
213,192,89850,1,0,0:0:0:0:
298,192,90057,1,0,0:0:0:0:
42,192,90264,1,0,0:0:0:0:
384,192,90264,1,0,0:0:0:0:
384,192,90471,1,0,0:0:0:0:
42,192,90678,1,0,0:0:0:0:
298,192,90678,1,0,0:0:0:0:
384,192,90885,1,0,0:0:0:0:
128,192,90885,1,0,0:0:0:0:
213,192,90988,1,0,0:0:0:0:
128,192,91092,1,0,0:0:0:0:
469,192,91092,1,0,0:0:0:0:
384,192,91092,1,0,0:0:0:0:
298,192,91195,1,0,0:0:0:0:
213,192,91299,1,0,0:0:0:0:
128,192,91506,1,0,0:0:0:0:
469,192,91506,1,0,0:0:0:0:
213,192,91713,1,0,0:0:0:0:
298,192,91919,1,0,0:0:0:0:
469,192,91919,1,0,0:0:0:0:
213,192,92126,1,0,0:0:0:0:
469,192,92333,1,0,0:0:0:0:
128,192,92333,1,0,0:0:0:0:
42,192,92540,1,0,0:0:0:0:
384,192,92540,1,0,0:0:0:0:
298,192,92644,1,0,0:0:0:0:
42,192,92747,1,0,0:0:0:0:
384,192,92747,1,0,0:0:0:0:
128,192,92850,1,0,0:0:0:0:
213,192,92954,1,0,0:0:0:0:
298,192,93057,1,0,0:0:0:0:
469,192,93161,1,0,0:0:0:0:
128,192,93161,1,0,0:0:0:0:
213,192,93264,1,0,0:0:0:0:
298,192,93368,1,0,0:0:0:0:
384,192,93471,1,0,0:0:0:0:
42,192,93575,128,0,93988:0:0:0:0:
213,192,93575,1,0,0:0:0:0:
298,192,93678,1,0,0:0:0:0:
384,192,93781,1,0,0:0:0:0:
469,192,93885,1,0,0:0:0:0:
128,192,93988,1,0,0:0:0:0:
298,192,94195,128,0,94402:0:0:0:0:
384,192,94195,1,0,0:0:0:0:
213,192,94402,1,0,0:0:0:0:
128,192,94609,128,0,94816:0:0:0:0:
42,192,94609,1,0,0:0:0:0:
298,192,94816,128,0,95023:0:0:0:0:
213,192,94816,1,0,0:0:0:0:
469,192,95023,128,0,95230:0:0:0:0:
384,192,95023,1,0,0:0:0:0:
213,192,95230,128,0,95437:0:0:0:0:
128,192,95230,1,0,0:0:0:0:
298,192,95437,1,0,0:0:0:0:
42,192,95644,128,0,95850:0:0:0:0:
469,192,95644,1,0,0:0:0:0:
213,192,95644,1,0,0:0:0:0:
42,192,96057,5,0,0:0:0:0:
298,192,96057,128,0,96264:0:0:0:0:
128,192,96057,1,0,0:0:0:0:
384,192,96264,1,0,0:0:0:0:
469,192,96264,1,0,0:0:0:0:
213,192,96471,1,0,0:0:0:0:
298,192,96471,1,0,0:0:0:0:
42,192,96471,1,0,0:0:0:0:
384,192,96678,1,0,0:0:0:0:
128,192,96678,1,0,0:0:0:0:
469,192,96885,128,0,97092:0:0:0:0:
213,192,96885,1,0,0:0:0:0:
384,192,97092,1,0,0:0:0:0:
42,192,97092,1,0,0:0:0:0:
298,192,97195,1,0,0:0:0:0:
128,192,97299,1,0,0:0:0:0:
469,192,97299,1,0,0:0:0:0:
213,192,97299,1,0,0:0:0:0:
42,192,97506,1,0,0:0:0:0:
384,192,97506,1,0,0:0:0:0:
298,192,97713,128,0,97919:0:0:0:0:
128,192,97713,1,0,0:0:0:0:
213,192,97919,1,0,0:0:0:0:
469,192,97919,1,0,0:0:0:0:
298,192,98126,1,0,0:0:0:0:
128,192,98126,1,0,0:0:0:0:
42,192,98126,1,0,0:0:0:0:
469,192,98333,1,0,0:0:0:0:
384,192,98333,1,0,0:0:0:0:
213,192,98540,128,0,98747:0:0:0:0:
298,192,98540,1,0,0:0:0:0:
42,192,98747,1,0,0:0:0:0:
384,192,98747,1,0,0:0:0:0:
128,192,98850,1,0,0:0:0:0:
213,192,98954,1,0,0:0:0:0:
469,192,98954,1,0,0:0:0:0:
298,192,98954,1,0,0:0:0:0:
128,192,99161,1,0,0:0:0:0:
384,192,99161,1,0,0:0:0:0:
213,192,99368,1,0,0:0:0:0:
42,192,99368,128,0,99575:0:0:0:0:
469,192,99575,1,0,0:0:0:0:
298,192,99575,1,0,0:0:0:0:
42,192,99781,1,0,0:0:0:0:
384,192,99781,1,0,0:0:0:0:
128,192,99781,1,0,0:0:0:0:
298,192,99988,1,0,0:0:0:0:
469,192,99988,1,0,0:0:0:0:
213,192,100195,128,0,100402:0:0:0:0:
42,192,100195,1,0,0:0:0:0:
384,192,100402,1,0,0:0:0:0:
128,192,100402,1,0,0:0:0:0:
298,192,100506,1,0,0:0:0:0:
213,192,100609,1,0,0:0:0:0:
42,192,100609,1,0,0:0:0:0:
384,192,100609,1,0,0:0:0:0:
469,192,100816,1,0,0:0:0:0:
298,192,100816,1,0,0:0:0:0:
384,192,101023,128,0,101230:0:0:0:0:
128,192,101023,1,0,0:0:0:0:
213,192,101230,1,0,0:0:0:0:
298,192,101230,1,0,0:0:0:0:
42,192,101437,1,0,0:0:0:0:
128,192,101437,1,0,0:0:0:0:
469,192,101437,1,0,0:0:0:0:
298,192,101644,1,0,0:0:0:0:
213,192,101644,1,0,0:0:0:0:
128,192,101850,128,0,102057:0:0:0:0:
384,192,101850,1,0,0:0:0:0:
298,192,102057,1,0,0:0:0:0:
42,192,102057,1,0,0:0:0:0:
213,192,102161,1,0,0:0:0:0:
469,192,102264,1,0,0:0:0:0:
128,192,102264,1,0,0:0:0:0:
384,192,102264,1,0,0:0:0:0:
213,192,102471,1,0,0:0:0:0:
469,192,102471,1,0,0:0:0:0:
42,192,102678,5,0,0:0:0:0:
298,192,102678,128,0,102885:0:0:0:0:
128,192,102678,1,0,0:0:0:0:
384,192,102885,1,0,0:0:0:0:
469,192,102885,1,0,0:0:0:0:
213,192,103092,1,0,0:0:0:0:
298,192,103092,1,0,0:0:0:0:
42,192,103092,1,0,0:0:0:0:
384,192,103299,1,0,0:0:0:0:
128,192,103299,1,0,0:0:0:0:
469,192,103506,128,0,103713:0:0:0:0:
213,192,103506,1,0,0:0:0:0:
384,192,103713,1,0,0:0:0:0:
42,192,103713,1,0,0:0:0:0:
298,192,103816,1,0,0:0:0:0:
128,192,103919,1,0,0:0:0:0:
469,192,103919,1,0,0:0:0:0:
213,192,103919,1,0,0:0:0:0:
42,192,104126,1,0,0:0:0:0:
384,192,104126,1,0,0:0:0:0:
298,192,104333,128,0,104540:0:0:0:0:
128,192,104333,1,0,0:0:0:0:
213,192,104540,1,0,0:0:0:0:
469,192,104540,1,0,0:0:0:0:
298,192,104747,1,0,0:0:0:0:
384,192,104747,1,0,0:0:0:0:
128,192,104747,1,0,0:0:0:0:
469,192,104954,1,0,0:0:0:0:
42,192,104954,1,0,0:0:0:0:
213,192,105161,128,0,105368:0:0:0:0:
298,192,105161,1,0,0:0:0:0:
42,192,105368,1,0,0:0:0:0:
384,192,105368,1,0,0:0:0:0:
128,192,105471,1,0,0:0:0:0:
213,192,105575,1,0,0:0:0:0:
469,192,105575,1,0,0:0:0:0:
298,192,105575,1,0,0:0:0:0:
128,192,105781,1,0,0:0:0:0:
384,192,105781,1,0,0:0:0:0:
213,192,105988,1,0,0:0:0:0:
42,192,105988,128,0,106195:0:0:0:0:
469,192,106195,1,0,0:0:0:0:
298,192,106195,1,0,0:0:0:0:
42,192,106402,1,0,0:0:0:0:
384,192,106402,1,0,0:0:0:0:
128,192,106402,1,0,0:0:0:0:
298,192,106609,1,0,0:0:0:0:
469,192,106609,1,0,0:0:0:0:
213,192,106816,128,0,107023:0:0:0:0:
42,192,106816,1,0,0:0:0:0:
384,192,107023,1,0,0:0:0:0:
128,192,107023,1,0,0:0:0:0:
298,192,107126,1,0,0:0:0:0:
213,192,107230,1,0,0:0:0:0:
42,192,107230,1,0,0:0:0:0:
384,192,107230,1,0,0:0:0:0:
469,192,107437,1,0,0:0:0:0:
298,192,107437,1,0,0:0:0:0:
128,192,107644,1,0,0:0:0:0:
384,192,107644,128,0,107850:0:0:0:0:
213,192,107850,1,0,0:0:0:0:
128,192,107954,1,0,0:0:0:0:
384,192,108057,1,0,0:0:0:0:
42,192,108057,1,0,0:0:0:0:
298,192,108057,128,0,108264:0:0:0:0:
469,192,108264,1,0,0:0:0:0:
384,192,108368,1,0,0:0:0:0:
128,192,108471,128,0,108678:0:0:0:0:
298,192,108471,1,0,0:0:0:0:
298,192,108678,1,0,0:0:0:0:
213,192,108781,1,0,0:0:0:0:
384,192,108885,1,0,0:0:0:0:
42,192,108885,128,0,109092:0:0:0:0:
469,192,108885,1,0,0:0:0:0:
128,192,108885,1,0,0:0:0:0:
128,192,109092,1,0,0:0:0:0:
213,192,109195,1,0,0:0:0:0:
42,192,109299,1,0,0:0:0:0:
469,192,109299,1,0,0:0:0:0:
298,192,109299,128,0,110540:0:0:0:0:
384,192,109506,1,0,0:0:0:0:
213,192,109609,1,0,0:0:0:0:
128,192,109713,1,0,0:0:0:0:
42,192,109713,1,0,0:0:0:0:
384,192,109919,1,0,0:0:0:0:
469,192,110023,1,0,0:0:0:0:
213,192,110126,1,0,0:0:0:0:
42,192,110126,1,0,0:0:0:0:
213,192,110333,1,0,0:0:0:0:
469,192,110540,1,0,0:0:0:0:
128,192,110540,1,0,0:0:0:0:
213,192,110644,1,0,0:0:0:0:
384,192,110747,128,0,112195:0:0:0:0:
42,192,110747,1,0,0:0:0:0:
128,192,110954,1,0,0:0:0:0:
298,192,110954,1,0,0:0:0:0:
469,192,111161,1,0,0:0:0:0:
298,192,111264,1,0,0:0:0:0:
42,192,111368,1,0,0:0:0:0:
213,192,111368,1,0,0:0:0:0:
128,192,111575,1,0,0:0:0:0:
213,192,111678,1,0,0:0:0:0:
469,192,111781,1,0,0:0:0:0:
298,192,111781,1,0,0:0:0:0:
298,192,111988,1,0,0:0:0:0:
213,192,112092,1,0,0:0:0:0:
42,192,112195,1,0,0:0:0:0:
469,192,112195,1,0,0:0:0:0:
213,192,112299,1,0,0:0:0:0:
384,192,112402,1,0,0:0:0:0:
128,192,112506,1,0,0:0:0:0:
213,192,112609,128,0,113437:0:0:0:0:
469,192,112609,1,0,0:0:0:0:
298,192,112609,1,0,0:0:0:0:
42,192,112816,1,0,0:0:0:0:
128,192,112919,1,0,0:0:0:0:
384,192,113023,1,0,0:0:0:0:
469,192,113023,1,0,0:0:0:0:
298,192,113230,1,0,0:0:0:0:
128,192,113333,1,0,0:0:0:0:
298,192,113437,128,0,114057:0:0:0:0:
42,192,113437,1,0,0:0:0:0:
384,192,113437,1,0,0:0:0:0:
384,192,113644,1,0,0:0:0:0:
469,192,113850,1,0,0:0:0:0:
213,192,113850,1,0,0:0:0:0:
128,192,113954,1,0,0:0:0:0:
42,192,114057,128,0,115506:0:0:0:0:
384,192,114057,1,0,0:0:0:0:
213,192,114264,1,0,0:0:0:0:
298,192,114264,1,0,0:0:0:0:
384,192,114471,1,0,0:0:0:0:
298,192,114575,1,0,0:0:0:0:
128,192,114678,1,0,0:0:0:0:
213,192,114678,1,0,0:0:0:0:
298,192,114885,1,0,0:0:0:0:
384,192,114988,1,0,0:0:0:0:
469,192,115092,1,0,0:0:0:0:
128,192,115092,1,0,0:0:0:0:
213,192,115299,1,0,0:0:0:0:
469,192,115506,1,0,0:0:0:0:
384,192,115506,1,0,0:0:0:0:
298,192,115609,1,0,0:0:0:0:
128,192,115713,1,0,0:0:0:0:
213,192,115816,1,0,0:0:0:0:
298,192,115919,128,0,117161:0:0:0:0:
469,192,115919,1,0,0:0:0:0:
42,192,115919,1,0,0:0:0:0:
384,192,116126,1,0,0:0:0:0:
213,192,116230,1,0,0:0:0:0:
42,192,116333,1,0,0:0:0:0:
128,192,116333,1,0,0:0:0:0:
384,192,116540,1,0,0:0:0:0:
469,192,116644,1,0,0:0:0:0:
213,192,116747,1,0,0:0:0:0:
42,192,116747,1,0,0:0:0:0:
213,192,116954,1,0,0:0:0:0:
469,192,117161,1,0,0:0:0:0:
128,192,117161,1,0,0:0:0:0:
213,192,117264,1,0,0:0:0:0:
384,192,117368,128,0,118816:0:0:0:0:
42,192,117368,1,0,0:0:0:0:
128,192,117575,1,0,0:0:0:0:
298,192,117575,1,0,0:0:0:0:
469,192,117781,1,0,0:0:0:0:
298,192,117885,1,0,0:0:0:0:
42,192,117988,1,0,0:0:0:0:
213,192,117988,1,0,0:0:0:0:
128,192,118195,1,0,0:0:0:0:
213,192,118299,1,0,0:0:0:0:
469,192,118402,1,0,0:0:0:0:
298,192,118402,1,0,0:0:0:0:
298,192,118609,1,0,0:0:0:0:
213,192,118713,1,0,0:0:0:0:
42,192,118816,1,0,0:0:0:0:
469,192,118816,1,0,0:0:0:0:
213,192,118919,1,0,0:0:0:0:
384,192,119023,1,0,0:0:0:0:
128,192,119126,1,0,0:0:0:0:
213,192,119230,128,0,120057:0:0:0:0:
469,192,119230,1,0,0:0:0:0:
298,192,119230,1,0,0:0:0:0:
42,192,119437,1,0,0:0:0:0:
128,192,119540,1,0,0:0:0:0:
298,192,119644,1,0,0:0:0:0:
384,192,119644,1,0,0:0:0:0:
298,192,119850,1,0,0:0:0:0:
128,192,119954,1,0,0:0:0:0:
469,192,120057,128,0,120678:0:0:0:0:
42,192,120057,1,0,0:0:0:0:
384,192,120057,1,0,0:0:0:0:
213,192,120264,1,0,0:0:0:0:
42,192,120471,1,0,0:0:0:0:
298,192,120471,1,0,0:0:0:0:
213,192,120575,1,0,0:0:0:0:
384,192,120678,128,0,122126:0:0:0:0:
128,192,120678,1,0,0:0:0:0:
213,192,120885,1,0,0:0:0:0:
298,192,120885,1,0,0:0:0:0:
469,192,121092,1,0,0:0:0:0:
298,192,121195,1,0,0:0:0:0:
42,192,121299,1,0,0:0:0:0:
213,192,121299,1,0,0:0:0:0:
128,192,121506,1,0,0:0:0:0:
298,192,121609,1,0,0:0:0:0:
469,192,121713,1,0,0:0:0:0:
42,192,121713,1,0,0:0:0:0:
128,192,121919,1,0,0:0:0:0:
213,192,122126,128,0,122333:0:0:0:0:
298,192,122126,1,0,0:0:0:0:
128,192,122333,128,0,122540:0:0:0:0:
42,192,122540,1,0,0:0:0:0:
384,192,122540,1,0,0:0:0:0:
469,192,122540,128,0,124402:0:0:0:0:
384,192,122954,1,0,0:0:0:0:
213,192,123057,1,0,0:0:0:0:
298,192,123161,1,0,0:0:0:0:
213,192,123368,1,0,0:0:0:0:
128,192,123575,1,0,0:0:0:0:
42,192,123781,1,0,0:0:0:0:
213,192,123988,128,0,124402:0:0:0:0:
384,192,123988,1,0,0:0:0:0:
128,192,124402,1,0,0:0:0:0:
298,192,124506,1,0,0:0:0:0:
42,192,124609,1,0,0:0:0:0:
128,192,124816,1,0,0:0:0:0:
298,192,125023,1,0,0:0:0:0:
469,192,125230,1,0,0:0:0:0:
384,192,125333,1,0,0:0:0:0:
298,192,125437,1,0,0:0:0:0:
42,192,125437,1,0,0:0:0:0:
213,192,125644,1,0,0:0:0:0:
128,192,125850,1,0,0:0:0:0:
213,192,126057,1,0,0:0:0:0:
298,192,126161,1,0,0:0:0:0:
128,192,126264,1,0,0:0:0:0:
298,192,126471,1,0,0:0:0:0:
384,192,126678,1,0,0:0:0:0:
298,192,126885,1,0,0:0:0:0:
213,192,126988,1,0,0:0:0:0:
469,192,127092,1,0,0:0:0:0:
42,192,127299,1,0,0:0:0:0:
384,192,127299,128,0,127713:0:0:0:0:
298,192,127713,1,0,0:0:0:0:
469,192,127816,1,0,0:0:0:0:
213,192,127919,1,0,0:0:0:0:
128,192,128126,1,0,0:0:0:0:
42,192,128333,1,0,0:0:0:0:
384,192,128540,1,0,0:0:0:0:
298,192,128747,1,0,0:0:0:0:
128,192,128747,1,0,0:0:0:0:
213,192,128850,1,0,0:0:0:0:
42,192,128954,1,0,0:0:0:0:
384,192,129161,1,0,0:0:0:0:
469,192,129368,1,0,0:0:0:0:
298,192,129575,1,0,0:0:0:0:
213,192,129678,1,0,0:0:0:0:
128,192,129781,1,0,0:0:0:0:
42,192,129988,1,0,0:0:0:0:
213,192,130195,1,0,0:0:0:0:
298,192,130402,1,0,0:0:0:0:
128,192,130609,1,0,0:0:0:0:
384,192,130609,128,0,131023:0:0:0:0:
213,192,131023,1,0,0:0:0:0:
298,192,131126,1,0,0:0:0:0:
42,192,131230,1,0,0:0:0:0:
213,192,131437,1,0,0:0:0:0:
469,192,131644,1,0,0:0:0:0:
298,192,131850,1,0,0:0:0:0:
213,192,131954,1,0,0:0:0:0:
384,192,132057,1,0,0:0:0:0:
128,192,132057,1,0,0:0:0:0:
42,192,132264,1,0,0:0:0:0:
469,192,132471,1,0,0:0:0:0:
213,192,132678,1,0,0:0:0:0:
384,192,132781,1,0,0:0:0:0:
128,192,132885,1,0,0:0:0:0:
42,192,133092,1,0,0:0:0:0:
298,192,133299,1,0,0:0:0:0:
469,192,133506,1,0,0:0:0:0:
213,192,133713,1,0,0:0:0:0:
42,192,133919,1,0,0:0:0:0:
384,192,133919,128,0,134333:0:0:0:0:
213,192,134333,1,0,0:0:0:0:
298,192,134437,1,0,0:0:0:0:
42,192,134540,1,0,0:0:0:0:
469,192,134644,1,0,0:0:0:0:
128,192,134747,1,0,0:0:0:0:
384,192,134850,1,0,0:0:0:0:
213,192,134954,1,0,0:0:0:0:
298,192,135057,1,0,0:0:0:0:
213,192,135161,1,0,0:0:0:0:
469,192,135161,1,0,0:0:0:0:
128,192,135368,1,0,0:0:0:0:
384,192,135368,1,0,0:0:0:0:
42,192,135575,1,0,0:0:0:0:
298,192,135575,1,0,0:0:0:0:
128,192,135781,1,0,0:0:0:0:
384,192,135988,1,0,0:0:0:0:
469,192,136195,128,0,139092:0:0:0:0:
42,192,136195,128,0,139092:0:0:0:0:
