osu file format v14

[General]
AudioFilename: audio.mp3
AudioLeadIn: 0
PreviewTime: 55862
Countdown: 0
SampleSet: Soft
StackLeniency: 0.3
Mode: 0
LetterboxInBreaks: 0
WidescreenStoryboard: 1

[Editor]
DistanceSpacing: 1
BeatDivisor: 4
GridSize: 4
TimelineZoom: 2

[Metadata]
Title:AI[UE]OON
TitleUnicode:AI[UE]OON
Artist:MYUKKE.
ArtistUnicode:MYUKKE.
Creator:Lavender
Version:PRESENT
Source:Arcaea
Tags:future house Electronic Video Game Sunset Radiance Song Contest 2019 wyrio Misure instrumental
BeatmapID:2936228
BeatmapSetID:1029473

[Difficulty]
HPDrainRate:5
CircleSize:4
OverallDifficulty:6
ApproachRate:7.5
SliderMultiplier:1.7
SliderTickRate:1

[Events]
//Background and Video events
0,0,"whee.JPG",0,0
//Break Periods
//Storyboard Layer 0 (Background)
//Storyboard Layer 1 (Fail)
//Storyboard Layer 2 (Pass)
//Storyboard Layer 3 (Foreground)
//Storyboard Layer 4 (Overlay)
//Storyboard Sound Samples

[TimingPoints]
58,413.793103448276,4,2,1,100,1,0
26332,-100,4,2,1,60,0,0
26540,-100,4,2,1,70,0,0
26746,-100,4,2,1,80,0,0
26954,-100,4,2,1,90,0,0
27160,-100,4,2,1,100,0,0
27368,-100,4,2,1,50,0,0
27781,-100,4,2,1,100,0,0
29851,-100,4,2,1,100,0,0
41437,-100,4,2,1,100,0,0
43092,-100,4,1,2,70,0,0
49195,-100,4,1,2,50,0,0
49713,-100,4,1,2,55,0,0
51368,-100,4,1,2,60,0,0
53023,-100,4,1,2,65,0,0
53437,-100,4,1,2,70,0,0
54678,-100,4,1,2,60,0,0
55506,-100,4,1,2,100,0,0
56333,-100,4,1,2,70,0,1
69575,-100,4,2,1,100,0,0
76195,-100,4,1,2,60,0,0
76608,-100,4,1,2,60,0,0
82402,-100,4,1,2,40,0,0
82608,-100,4,1,2,20,0,0
82816,-100,4,2,0,100,0,0
89540,-100,4,2,1,100,0,0
92539,-100,4,2,1,60,0,0
92747,-100,4,2,1,70,0,0
92953,-100,4,2,1,80,0,0
93161,-100,4,2,1,90,0,0
93367,-100,4,2,1,100,0,0
93575,-100,4,2,1,50,0,0
93988,-100,4,2,1,100,0,0
96058,-100,4,1,2,70,0,1
107851,-100,4,1,2,80,0,1
109299,-100,4,2,1,100,0,0
135782,-100,4,2,1,60,0,0
136195,-100,4,2,1,60,0,0
136247,-100,4,2,1,20,0,0
137851,-100,4,2,1,10,0,0
138678,-100,4,2,1,5,0,0

[Colours]
Combo1 : 100,255,255
Combo2 : 255,134,255
Combo3 : 255,193,102
Combo4 : 255,255,121

[HitObjects]
78,134,1713,6,0,L|36:142,2,42.5,0|0|0,2:0|2:0|2:0,0:0:0:0:
136,65,2126,2,0,P|174:87|218:78,1,85,8|0,2:0|2:0,2:0:0:0:
259,62,2437,1,0,2:0:0:0:
259,62,2540,2,0,L|253:19,2,42.5,2|2|2,2:0|2:0|2:0,2:0:0:0:
304,220,2954,2,0,B|288:261|288:261|276:170,1,127.5,8|0,2:0|2:0,2:0:0:0:
324,114,3368,6,0,P|365:107|408:104,1,85,6|0,2:0|2:0,2:0:0:0:
488,197,3782,2,0,P|446:189|403:186,1,85,0|0,2:0|2:0,2:0:0:0:
339,236,4195,1,2,2:0:0:0:
324,114,4402,1,0,2:0:0:0:
277,178,4609,1,4,2:3:0:0:
225,241,4816,6,0,P|163:229|107:257,1,127.5,2|0,2:0|2:0,2:0:0:0:
90,268,5230,2,0,L|81:227,2,42.5,0|0|2,2:0|2:0|2:0,0:0:0:0:
64,147,5644,1,0,2:0:0:0:
175,94,5851,2,0,P|170:157|168:221,1,127.5,2|0,2:0|2:0,0:0:0:0:
172,249,6264,1,2,2:0:0:0:
260,170,6471,1,8,2:0:0:0:
260,170,6575,1,8,2:0:0:0:
260,170,6678,6,0,L|344:158,1,85,6|0,2:0|2:0,2:0:0:0:
411,210,7092,2,0,P|419:251|404:290,1,85,0|2,0:0|2:0,0:0:0:0:
283,302,7506,1,2,2:0:0:0:
349,350,7713,1,0,2:0:0:0:
338,245,7920,1,0,2:0:0:0:
261,310,8126,6,0,P|177:298|92:295,1,170,2|0,2:0|2:0,2:0:0:0:
71,294,8644,1,0,2:0:0:0:
71,294,8747,2,0,P|69:252|65:210,1,85,2|0,2:0|2:0,2:0:0:0:
174,104,9161,2,0,P|172:146|169:188,1,85,2|0,2:0|2:0,2:0:0:0:
165,275,9575,1,2,2:0:0:0:
165,275,9782,1,8,2:0:0:0:
229,329,9989,6,0,P|270:319|312:310,1,85,6|0,2:0|2:0,2:0:0:0:
365,244,10402,2,0,P|406:252|447:262,1,85,0|0,2:0|2:0,2:0:0:0:
508,323,10816,1,2,2:0:0:0:
484,193,11023,1,0,2:0:0:0:
447,262,11230,1,4,2:3:0:0:
497,167,11437,6,0,P|433:167|369:162,1,127.5,2|0,2:0|2:0,2:0:0:0:
341,161,11851,2,0,L|330:120,2,42.5,0|0|2,2:0|2:0|2:0,0:0:0:0:
268,222,12264,1,0,2:0:0:0:
352,245,12471,2,0,P|347:202|340:160,1,85,2|0,2:0|2:0,0:0:0:0:
199,130,12885,2,0,P|190:172|186:214,1,85,2|8,2:0|2:0,0:0:0:0:
184,239,13195,1,8,2:0:0:0:
182,256,13299,6,0,L|351:244,1,170,6|0,2:0|0:0,2:0:0:0:
430,212,13920,1,0,2:0:0:0:
419,295,14126,1,2,2:0:0:0:
334,161,14333,1,0,0:0:0:0:
352,244,14540,1,0,2:0:0:0:
344,139,14747,6,0,P|260:145|175:145,1,170,2|0,2:0|2:0,2:0:0:0:
147,142,15264,1,0,2:0:0:0:
122,142,15368,2,0,P|134:101|121:61,1,85,2|0,2:0|2:0,0:0:0:0:
51,106,15782,2,0,P|38:146|50:186,1,85,2|0,2:0|2:0,2:0:0:0:
142,301,16195,1,8,2:0:0:0:
138,219,16402,1,0,2:0:0:0:
68,264,16609,6,0,P|61:285|58:306,2,42.5,2|0|0,2:0|2:0|2:0,0:0:0:0:
142,301,17023,2,0,L|226:290,1,85,0|0,1:0|2:0,2:0:0:0:
328,176,17437,2,0,P|334:196|337:217,2,42.5,2|0|0,2:0|2:0|2:0,0:0:0:0:
254,212,17851,2,0,L|169:201,1,85,0|0,1:0|2:0,2:0:0:0:
231,130,18264,5,2,2:0:0:0:
314,74,18471,2,0,P|320:53|323:32,2,42.5,0|0|0,2:0|2:0|1:0,0:0:0:0:
144,49,18885,2,0,P|137:28|134:7,2,42.5,0|0|2,2:0|2:0|2:0,0:0:0:0:
231,46,19299,1,0,2:0:0:0:
231,36,19402,1,0,2:0:0:0:
231,26,19506,1,0,1:0:0:0:
231,130,19713,1,0,2:0:0:0:
231,215,19920,6,0,L|189:221,2,42.5,2|0|0,2:0|2:0|2:0,0:0:0:0:
311,187,20333,2,0,P|354:186|396:190,1,85,0|0,1:0|2:0,2:0:0:0:
434,114,20747,2,0,L|475:107,2,42.5,2|0|0,2:0|2:0|2:0,0:0:0:0:
364,63,21161,2,0,P|321:63|279:59,1,85,0|0,1:0|2:0,2:0:0:0:
200,26,21575,5,2,2:0:0:0:
119,81,21782,2,0,L|77:71,2,42.5,0|0|0,2:0|2:0|1:0,0:0:0:0:
83,162,22195,2,0,L|37:162,2,42.5,0|0|2,2:0|2:0|2:0,0:0:0:0:
113,248,22609,1,0,2:0:0:0:
121,245,22713,1,0,2:0:0:0:
131,242,22816,1,0,1:0:0:0:
30,269,23023,1,0,2:0:0:0:
95,342,23230,6,0,P|136:329|178:325,1,85,12|0,2:0|0:0,2:0:0:0:
257,354,23644,1,8,2:0:0:0:
341,325,23851,1,0,2:0:0:0:
341,325,23954,1,0,2:0:0:0:
341,325,24058,2,0,P|342:282|349:240,1,85,8|0,2:0|0:0,2:0:0:0:
250,174,24471,2,0,P|256:215|258:258,1,85,8|0,2:0|2:0,0:0:0:0:
330,126,24885,6,0,P|252:150|187:100,1,170,8|8,2:0|2:0,2:0:0:0:
123,43,25506,1,2,2:0:0:0:
66,106,25713,2,0,P|59:147|56:190,1,85,8|0,2:0|2:0,2:0:0:0:
213,227,26126,2,0,P|209:184|203:142,1,85,8|8,2:0|2:0,2:0:0:0:
197,120,26437,1,8,2:0:0:0:
186,99,26540,6,0,L|227:89,3,42.5,8|8|8|8,2:0|2:0|2:0|2:0,0:0:0:0:
243,55,26954,2,0,L|284:45,3,42.5,8|8|8|8,2:0|2:0|2:0|2:0,0:0:0:0:
306,12,27368,2,0,L|332:3,8,21.25,8|8|8|8|8|8|8|0|2,2:0|2:0|2:0|2:0|2:0|2:0|2:0|0:0|2:0,2:0:0:0:
408,36,27989,1,4,2:0:0:0:
256,192,28092,12,0,29437,1:0:0:0:
100,98,29851,6,0,P|181:107|233:44,1,170,6|0,2:0|1:0,2:0:0:0:
150,27,30471,1,0,2:0:0:0:
100,98,30678,1,2,2:0:0:0:
100,98,30782,2,0,P|109:139|115:181,1,85,2|2,2:0|2:0,2:0:0:0:
124,195,31092,2,0,P|166:200|207:210,1,85,0|0,1:0|2:0,2:0:0:0:
281,275,31506,6,0,P|286:233|296:192,1,85,2|0,2:0|2:0,2:0:0:0:
242,124,31920,2,0,P|283:115|325:109,1,85,0|2,1:0|2:0,2:0:0:0:
415,9,32333,1,2,2:0:0:0:
405,23,32437,2,0,P|411:64|414:106,1,85,2|2,2:0|2:0,2:0:0:0:
416,131,32747,1,0,1:0:0:0:
427,223,32954,1,8,2:0:0:0:
427,223,33058,1,8,2:0:0:0:
427,223,33161,6,0,L|342:232,1,85,6|0,2:0|2:0,2:0:0:0:
270,194,33575,1,0,1:0:0:0:
270,194,33678,2,0,L|274:109,2,85,2|2|0,2:0|2:0|2:0,2:0:0:0:
202,238,34299,1,2,2:0:0:0:
202,238,34402,2,0,L|197:322,1,85,0|0,1:0|2:0,2:0:0:0:
109,237,34816,6,0,L|114:194,3,42.5,2|0|0|0,0:0|0:0|0:0|0:0,0:0:0:0:
78,171,35230,2,0,L|74:128,3,42.5,0|0|0|0,1:0|0:0|0:0|0:0,0:0:0:0:
27,65,35644,2,0,P|66:77|105:61,1,85,2|0,2:0|2:0,2:0:0:0:
116,42,35954,2,0,P|165:78|225:63,1,127.5,2|8,2:0|2:3,2:0:0:0:
374,118,36471,6,0,P|295:108|249:174,1,170,6|0,2:0|1:0,2:0:0:0:
306,278,37092,1,0,2:0:0:0:
329,188,37299,1,2,2:0:0:0:
329,188,37402,2,0,P|288:197|246:203,1,85,2|2,2:0|2:0,2:0:0:0:
231,222,37713,2,0,P|189:217|148:207,1,85,0|0,1:0|2:0,2:0:0:0:
163,290,38126,6,0,P|121:295|80:305,1,85,2|0,2:0|2:0,2:0:0:0:
119,201,38540,2,0,P|78:192|36:186,1,85,0|0,1:0|2:0,2:0:0:0:
0,42,38954,1,2,2:0:0:0:
13,66,39058,2,0,P|54:60|96:51,1,85,2|2,2:0|2:0,2:0:0:0:
110,70,39368,1,0,1:0:0:0:
174,147,39575,1,0,3:0:0:0:
174,147,39678,1,0,3:0:0:0:
174,147,39782,6,0,L|259:138,1,85,2|0,2:0|2:0,2:0:0:0:
323,193,40195,1,0,1:0:0:0:
318,200,40299,2,0,P|305:239|313:280,2,85,0|0|0,2:0|2:0|2:0,2:0:0:0:
338,106,40920,1,4,1:3:0:0:
341,115,41023,2,0,L|425:109,1,85,4|4,1:3|1:3,2:0:0:0:
486,170,41437,6,0,P|482:191|481:212,2,42.5,2|0|0,0:0|0:0|0:0,0:0:0:0:
431,276,41851,2,0,P|391:264|350:272,1,85,0|0,1:0|0:0,0:0:0:0:
331,281,42161,1,0,0:0:0:0:
258,185,42368,2,0,P|298:173|339:181,1,85
358,190,42678,1,0,1:0:0:0:
428,140,42885,1,8,3:2:0:0:
428,140,42989,1,8,3:2:0:0:
428,140,43092,6,0,P|427:97|433:55,1,85,6|0,0:0|0:0,0:0:0:0:
362,7,43506,2,0,P|342:14|321:18,2,42.5,8|0|0,0:0|0:0|0:0,0:0:0:0:
222,39,43920,2,0,P|201:32|180:28,2,42.5,2|0|0,0:0|0:0|0:0,0:0:0:0:
267,109,44333,2,0,P|272:151|272:193,1,85,8|0,0:0|0:0,0:0:0:0:
270,211,44644,1,0,0:0:0:0:
264,228,44747,6,0,L|179:216,1,85,2|0,0:0|0:0,0:0:0:0:
83,145,45161,2,0,L|167:133,1,85,8|0,0:0|0:0,0:0:0:0:
246,83,45575,2,0,P|247:146|258:209,1,127.5,2|0,0:0|0:2,0:0:0:0:
264,228,45989,2,0,L|305:219,2,42.5,8|0|0,0:0|0:2|0:2,0:0:0:0:
386,246,46402,6,0,P|391:266|397:286,2,42.5,2|0|0,0:0|0:0|0:0,0:0:0:0:
449,90,46816,2,0,P|464:75|478:59,2,42.5,8|0|0,0:0|0:0|0:0,0:0:0:0:
283,114,47230,2,0,P|262:108|241:103,2,42.5,2|0|0,0:0|0:0|0:0,0:0:0:0:
337,176,47644,2,0,P|301:196|259:192,1,85,8|0,0:0|0:0,0:0:0:0:
194,231,47954,1,0,0:0:0:0:
191,239,48058,6,0,P|182:280|179:322,1,85,6|0,0:0|0:0,0:0:0:0:
179,322,48368,2,0,P|173:258|156:197,1,127.5,6|8,0:0|0:0,0:0:0:0:
112,82,48885,2,0,P|70:72|28:69,1,85,6|0,0:0|0:0,0:0:0:0:
29,69,49195,2,0,P|92:63|153:46,1,127.5,6|4,0:0|0:3,0:0:0:0:
246,71,49713,6,0,P|277:98|282:139,1,85,6|8,0:0|0:0,0:0:0:0:
283,167,50023,2,0,P|310:135|351:130,1,85,6|2,0:0|0:0,0:0:0:0:
373,115,50333,1,8,0:0:0:0:
445,171,50540,6,0,P|413:198|408:239,1,85,6|8,0:0|0:0,0:0:0:0:
403,265,50851,2,0,P|375:233|334:228,1,85,6|2,0:0|0:0,0:0:0:0:
315,247,51161,1,8,0:0:0:0:
229,248,51368,6,0,P|229:206|231:164,1,85,6|8,0:0|0:0,0:0:0:0:
213,124,51678,2,0,L|297:118,1,85,6|2,0:0|0:0,0:0:0:0:
329,146,51989,1,8,0:0:0:0:
315,247,52195,6,0,P|314:289|316:331,1,85,6|8,0:0|0:0,0:0:0:0:
337,369,52506,2,0,L|252:363,1,85,6|2,0:0|0:0,0:0:0:0:
211,376,52816,1,8,0:0:0:0:
206,269,53023,5,2,0:0:0:0:
212,260,53126,2,0,P|253:273|295:268,1,85,2|2,0:0|0:0,0:0:0:0:
315,247,53437,2,0,L|398:261,1,85,8|2,0:0|0:0,0:0:0:0:
473,220,53851,5,2,0:0:0:0:
478,209,53954,2,0,P|492:169|488:127,1,85,2|2,0:0|0:0,0:0:0:0:
461,94,54264,2,0,P|402:74|350:106,1,127.5,8|0,0:0|2:0,0:0:0:0:
313,130,54678,6,0,P|293:126|273:119,3,42.5,0|0|0|0,0:2|0:2|0:2|0:2,0:0:0:0:
254,150,55092,2,0,P|232:151|211:150,3,42.5,0|0|0|0,0:2|0:2|0:2|0:2,0:0:0:0:
182,179,55506,2,0,P|224:177|264:191,1,85,2|2,2:0|2:0,2:0:0:0:
257,277,55920,2,0,P|298:231|360:232,1,127.5,2|0,2:0|2:0,2:0:0:0:
360,232,56333,6,0,P|351:273|352:315,1,85,6|0,0:0|0:0,0:0:0:0:
441,265,56747,2,0,P|442:222|433:181,1,85,8|0,0:0|0:0,0:0:0:0:
344,150,57161,1,2,0:0:0:0:
322,148,57264,1,0,0:0:0:0:
301,146,57368,1,0,0:0:0:0:
280,144,57471,1,0,0:0:0:0:
259,142,57575,1,8,0:0:0:0:
206,68,57782,1,0,0:0:0:0:
175,157,57989,6,0,L|258:142,1,85,2|0,0:0|0:0,0:0:0:0:
325,219,58402,2,0,P|283:223|245:240,1,85,8|0,0:0|0:0,0:0:0:0:
259,142,58816,2,0,P|300:134|338:116,1,85,2|0,0:0|0:0,0:0:0:0:
389,55,59230,1,8,0:0:0:0:
394,46,59333,1,0,0:0:0:0:
399,36,59437,1,0,0:0:0:0:
402,26,59540,1,0,0:0:0:0:
403,16,59644,6,0,P|444:7|484:21,1,85,2|0,0:0|0:0,0:0:0:0:
508,99,60058,2,0,L|491:182,1,85,8|0,0:0|0:0,0:0:0:0:
426,237,60471,1,2,0:0:0:0:
351,195,60678,1,0,0:0:0:0:
273,230,60885,1,8,0:0:0:0:
269,314,61092,1,0,0:0:0:0:
365,362,61299,6,0,P|357:320|347:278,1,85,2|0,0:0|0:0,0:0:0:0:
194,270,61713,2,0,P|184:312|177:354,1,85,8|0,0:0|0:0,0:0:0:0:
269,314,62126,1,2,0:0:0:0:
273,230,62333,1,0,0:0:0:0:
205,178,62540,1,8,0:0:0:0:
131,211,62747,1,2,0:0:0:0:
131,211,62851,1,2,0:0:0:0:
130,211,62954,6,0,P|135:168|137:126,1,85,2|0,0:0|0:0,0:0:0:0:
84,42,63368,2,0,P|124:52|164:39,1,85,8|0,0:0|0:0,0:0:0:0:
249,27,63782,1,2,0:0:0:0:
271,25,63885,1,0,0:0:0:0:
292,23,63989,1,0,0:0:0:0:
313,21,64092,1,0,0:0:0:0:
334,19,64195,1,8,0:0:0:0:
412,52,64402,1,0,0:0:0:0:
372,127,64609,6,0,P|354:165|341:206,1,85,2|0,0:0|0:0,0:0:0:0:
328,249,64920,1,0,0:0:0:0:
328,249,65023,2,0,P|285:245|243:244,1,85,8|0,0:0|0:0,0:0:0:0:
160,265,65437,2,0,P|169:222|173:180,1,85,2|0,0:0|0:0,0:0:0:0:
93,149,65851,1,8,0:0:0:0:
98,140,65954,1,0,0:0:0:0:
103,130,66058,1,0,0:0:0:0:
106,120,66161,1,0,0:0:0:0:
108,110,66264,6,0,L|191:95,1,85,2|0,0:0|0:0,0:0:0:0:
231,74,66575,1,0,0:0:0:0:
231,74,66678,2,0,P|231:116|239:158,1,85,8|0,0:0|0:0,0:0:0:0:
331,263,67092,1,2,0:0:0:0:
318,179,67299,1,0,0:0:0:0:
255,235,67506,1,8,0:0:0:0:
394,209,67713,1,0,0:0:0:0:
292,334,67920,6,0,P|250:325|208:329,1,85,2|0,0:0|0:0,0:0:0:0:
170,343,68230,1,0,0:0:0:0:
170,343,68333,2,0,L|182:258,1,85,8|0,0:0|0:0,0:0:0:0:
176,235,68644,1,0,0:0:0:0:
168,214,68747,2,0,P|209:205|249:191,1,85,2|0,0:0|0:0,0:0:0:0:
389,181,69161,1,8,0:0:0:0:
315,139,69368,1,0,0:0:0:0:
438,113,69575,6,0,P|426:197|419:281,1,170,2|0,2:0|2:0,2:0:0:0:
364,345,70195,1,0,2:0:0:0:
342,263,70402,2,0,P|340:220|335:178,1,85,2|0,2:3|2:0,0:0:0:0:
243,128,70816,1,0,2:0:0:0:
179,192,71023,2,0,B|243:219|243:219|335:179,1,170,2|0,2:0|0:0,2:0:0:0:
406,139,71644,2,0,P|413:181|415:224,1,85,2|0,0:0|0:0,0:0:0:0:
495,265,72058,2,0,P|496:222|503:180,1,85,2|0,0:3|2:0,2:0:0:0:
512,44,72471,2,0,L|428:59,1,85,0|0,2:0|2:0,2:0:0:0:
355,103,72885,6,0,P|270:91|186:84,1,170,2|0,2:0|2:0,2:0:0:0:
111,125,73506,1,0,2:0:0:0:
133,206,73713,2,0,P|175:204|217:199,1,85,2|0,2:3|2:0,0:0:0:0:
328,189,74126,1,0,2:0:0:0:
270,119,74333,2,0,P|237:195|280:265,1,170,2|0,2:0|2:0,2:0:0:0:
315,342,74954,2,0,P|273:348|230:350,1,85,2|0,2:0|2:0,0:0:0:0:
83,281,75368,2,0,P|124:287|167:289,1,85,2|0,2:3|2:0,0:0:0:0:
240,238,75782,1,8,2:0:0:0:
245,229,75885,1,8,2:0:0:0:
250,219,75989,1,8,2:0:0:0:
253,209,76092,1,8,2:0:0:0:
255,199,76195,6,0,L|423:173,1,170,6|0,2:1|2:0,2:0:0:0:
483,105,76816,1,0,0:0:0:0:
394,83,77023,2,0,P|390:167|391:252,1,170,8|0,2:1|2:0,2:0:0:0:
456,304,77644,2,0,P|376:285|316:341,1,170,2|0,2:1|2:0,2:0:0:0:
237,383,78264,2,0,L|129:366,1,85,2|0,2:1|2:0,2:0:0:0:
128,286,78678,1,8,2:1:0:0:
214,262,78885,1,2,2:1:0:0:
214,262,78989,1,2,2:1:0:0:
214,262,79092,2,0,P|215:219|214:177,1,85,8|0,2:1|2:0,2:0:0:0:
150,119,79506,6,0,B|213:147|213:147|309:115,1,170,6|0,2:1|2:0,2:0:0:0:
432,81,80126,1,0,0:0:0:0:
390,9,80333,2,0,P|388:93|388:178,1,170,8|0,2:1|2:0,2:0:0:0:
458,264,80954,2,0,P|373:267|288:276,1,170,2|0,2:1|2:0,2:0:0:0:
129,264,81575,1,2,2:1:0:0:
203,289,81782,1,0,2:0:0:0:
235,213,81989,1,8,2:1:0:0:
175,144,82195,1,2,0:0:0:0:
175,144,82299,1,2,0:0:0:0:
175,144,82402,2,0,L|216:134,3,42.5,2|2|2|2,0:0|0:0|0:0|0:0,0:0:0:0:
297,97,82816,6,0,P|300:182|309:267,1,170,10|8,2:0|2:0,0:0:0:0:
391,228,83437,1,0,2:0:0:0:
478,174,83644,2,0,P|474:258|465:343,1,170,10|8,2:0|2:0,0:0:0:0:
152,342,84471,6,0,P|143:257|140:173,1,170,10|8,2:0|2:0,0:0:0:0:
227,227,85092,1,0,2:0:0:0:
308,266,85299,2,0,P|317:181|321:96,1,170,10|8,2:0|2:0,0:0:0:0:
512,59,86126,6,0,P|436:87|374:34,1,170,10|8,2:0|2:0,0:0:0:0:
292,7,86747,1,0,2:0:0:0:
231,66,86954,2,0,P|224:108|224:151,1,85,10|0,2:0|2:0,0:0:0:0:
312,227,87368,2,0,P|312:184|305:142,1,85,8|0,2:0|2:0,0:0:0:0:
231,66,87782,6,0,P|152:87|94:31,1,170,10|8,2:0|2:0,0:0:0:0:
34,91,88402,1,0,2:0:0:0:
67,169,88609,2,0,P|110:171|152:166,1,85,10|0,2:0|2:0,0:0:0:0:
215,234,89023,2,0,P|221:192|234:152,1,85,8|0,2:0|2:0,0:0:0:0:
296,98,89437,6,0,L|286:56,2,42.5,0|0|0,1:0|2:0|2:0,0:0:0:0:
402,119,89851,1,0,1:0:0:0:
323,178,90058,1,0,2:0:0:0:
402,119,90264,2,0,P|403:162|410:204,1,85,0|0,1:0|2:0,0:0:0:0:
237,255,90678,2,0,P|243:214|245:171,1,85,0|8,1:0|2:0,2:0:0:0:
203,99,91092,6,0,L|161:108,2,42.5,0|0|0,1:0|2:0|2:0,0:0:0:0:
328,185,91506,1,0,1:0:0:0:
245,170,91713,1,0,2:0:0:0:
328,185,91920,2,0,P|321:144|318:101,1,85,0|0,1:0|2:0,2:0:0:0:
418,150,92333,2,0,P|414:193|408:235,1,85,0|8,1:0|2:0,2:0:0:0:
417,250,92644,1,8,2:0:0:0:
428,271,92747,6,0,L|387:281,3,42.5,8|8|8|8,2:0|2:0|2:0|2:0,0:0:0:0:
371,315,93161,2,0,L|330:325,3,42.5,8|8|8|8,2:0|2:0|2:0|2:0,0:0:0:0:
308,358,93575,2,0,L|287:364,8,21.25,8|8|8|8|8|8|8|0|2,2:0|2:0|2:0|2:0|2:0|2:0|2:0|0:0|2:0,2:0:0:0:
206,334,94195,1,4,2:0:0:0:
256,192,94299,12,0,95644,1:0:0:0:
156,111,96058,6,0,L|239:96,1,85,6|0,0:0|0:0,0:0:0:0:
273,118,96368,1,0,0:0:0:0:
273,118,96471,1,8,0:0:0:0:
443,78,96678,1,0,0:0:0:0:
362,47,96885,2,0,P|360:90|360:132,1,85,2|0,0:0|0:0,0:0:0:0:
430,253,97299,1,8,0:0:0:0:
474,181,97506,1,0,0:0:0:0:
434,272,97713,6,0,P|391:275|350:286,1,85,2|0,0:0|0:0,0:0:0:0:
326,312,98023,1,0,0:0:0:0:
326,312,98126,1,8,0:0:0:0:
151,284,98333,1,0,0:0:0:0:
239,344,98540,2,0,P|239:301|233:259,1,85,2|0,0:0|0:0,0:0:0:0:
104,131,98954,2,0,P|98:173|98:215,1,85,8|0,0:0|0:0,0:0:0:0:
151,284,99368,6,0,P|191:270|232:259,1,85,2|0,0:0|0:0,0:0:0:0:
257,226,99678,1,0,0:0:0:0:
257,226,99782,1,8,0:0:0:0:
418,161,99989,1,0,0:0:0:0:
331,156,100195,2,0,P|337:198|342:240,1,85,2|0,0:0|0:0,0:0:0:0:
474,319,100609,1,8,0:0:0:0:
396,347,100816,1,0,0:0:0:0:
491,313,101023,6,0,L|499:228,1,85,2|0,0:0|0:0,0:0:0:0:
486,199,101333,1,0,0:0:0:0:
486,199,101437,1,8,0:0:0:0:
466,107,101644,1,0,0:0:0:0:
396,151,101851,2,0,P|355:157|316:142,1,85,2|0,0:0|0:0,0:0:0:0:
217,95,102264,2,0,P|233:134|226:176,1,85,8|2,0:0|0:0,0:0:0:0:
213,194,102575,1,2,0:0:0:0:
196,211,102678,6,0,L|279:226,1,85,6|0,0:0|0:0,0:0:0:0:
296,246,102989,1,0,0:0:0:0:
296,246,103092,1,8,0:0:0:0:
456,226,103299,1,0,0:0:0:0:
380,279,103506,2,0,P|377:236|378:194,1,85,2|0,0:0|0:0,0:0:0:0:
375,114,103920,1,8,0:0:0:0:
456,91,104126,1,0,0:0:0:0:
366,95,104333,6,0,P|323:92|282:81,1,85,2|0,0:0|0:0,0:0:0:0:
258,55,104644,1,0,0:0:0:0:
258,55,104747,1,8,0:0:0:0:
92,58,104954,1,0,0:0:0:0:
174,14,105161,2,0,P|174:57|168:99,1,85,2|0,0:0|0:0,0:0:0:0:
240,160,105575,2,0,P|246:202|246:244,1,85,8|0,0:0|0:0,0:0:0:0:
201,322,105989,6,0,P|160:308|119:297,1,85,2|0,0:0|0:0,0:0:0:0:
95,273,106299,1,0,0:0:0:0:
95,273,106402,1,8,0:0:0:0:
70,180,106609,1,0,0:0:0:0:
169,120,106816,2,0,P|161:161|156:204,1,85,2|0,0:0|0:0,0:0:0:0:
255,278,107230,2,0,P|249:235|242:193,1,85,8|0,0:0|0:0,0:0:0:0:
253,111,107644,6,0,L|168:120,1,85,2|8,0:0|2:3,0:0:0:0:
152,156,107954,1,8,2:3:0:0:
152,156,108058,1,8,2:1:0:0:
60,142,108264,1,4,2:3:0:0:
60,142,108368,1,4,2:3:0:0:
60,142,108471,1,2,2:1:0:0:
42,52,108678,1,2,2:1:0:0:
42,52,108782,1,4,2:3:0:0:
42,52,108885,2,0,P|83:56|119:34,1,85,8|2,2:1|0:0,0:0:0:0:
197,68,109299,6,0,P|239:62|281:57,1,85,6|0,2:0|2:0,2:0:0:0:
319,55,109609,1,0,2:0:0:0:
319,55,109713,2,0,P|308:96|304:138,1,85,0|0,1:0|2:0,2:0:0:0:
338,215,110126,2,0,P|295:213|253:217,1,85,2|0,2:0|2:0,2:0:0:0:
225,297,110540,1,0,1:0:0:0:
308,312,110747,1,0,2:0:0:0:
226,313,110954,6,0,L|143:298,1,85,2|0,2:0|2:0,2:0:0:0:
103,280,111264,1,0,2:0:0:0:
98,268,111368,2,0,P|102:225|113:184,1,85,0|0,1:0|2:0,2:0:0:0:
181,134,111782,2,0,P|192:174|195:217,1,85,2|0,2:0|2:0,2:0:0:0:
277,236,112195,1,0,1:0:0:0:
272,245,112299,1,0,2:0:0:0:
267,255,112402,1,0,2:0:0:0:
264,265,112506,1,0,2:0:0:0:
262,275,112609,6,0,P|303:266|345:261,1,85,2|0,2:0|2:0,0:0:0:0:
376,231,112920,1,0,2:0:0:0:
376,231,113023,2,0,L|460:240,1,85,0|0,1:0|2:0,0:0:0:0:
497,163,113437,2,0,P|489:121|489:78,1,85,2|0,2:0|2:0,2:0:0:0:
448,3,113851,1,0,1:0:0:0:
386,62,114058,6,0,P|303:47|218:42,1,170,0|0,2:0|2:0,2:0:0:0:
200,83,114575,1,0,2:0:0:0:
200,83,114678,2,0,P|158:72|116:65,1,85,0|0,1:0|2:0,0:0:0:0:
25,122,115092,1,2,2:0:0:0:
101,83,115299,1,0,2:0:0:0:
126,164,115506,1,0,1:0:0:0:
123,185,115609,1,0,2:0:0:0:
120,206,115713,1,0,2:0:0:0:
117,227,115816,1,0,2:0:0:0:
115,248,115920,6,0,L|105:332,1,85,6|0,2:0|2:0,2:0:0:0:
100,369,116230,1,0,2:0:0:0:
100,369,116333,2,0,P|141:356|183:355,1,85,0|0,1:0|2:0,2:0:0:0:
203,272,116747,2,0,P|244:285|286:286,1,85,2|0,2:0|2:0,2:0:0:0:
339,219,117161,1,0,1:0:0:0:
342,134,117368,1,0,2:0:0:0:
287,69,117575,6,0,L|204:89,1,85,2|0,2:0|2:0,0:0:0:0:
178,123,117885,1,0,2:0:0:0:
178,123,117989,2,0,P|157:86|159:45,1,85,0|0,1:0|2:0,0:0:0:0:
256,161,118402,2,0,P|257:202|237:239,1,85,2|0,2:0|2:0,2:0:0:0:
164,286,118816,1,0,1:0:0:0:
159,295,118920,1,0,2:0:0:0:
154,305,119023,1,0,2:0:0:0:
151,315,119126,1,0,2:0:0:0:
149,324,119230,6,0,P|192:323|236:326,1,85,2|0,2:0|2:0,2:0:0:0:
270,300,119540,1,0,2:0:0:0:
270,300,119644,2,0,P|263:341|259:384,1,85,0|0,1:0|2:0,0:0:0:0:
357,340,120058,2,0,P|352:297|346:255,1,85,2|0,2:0|2:0,2:0:0:0:
288,133,120471,1,0,1:0:0:0:
238,207,120678,6,0,L|407:221,1,170,0|2,2:0|2:0,2:0:0:0:
428,232,121195,1,2,2:0:0:0:
428,232,121299,2,0,P|469:221|511:214,1,85,0|2,1:0|2:0,2:0:0:0:
512,196,121609,1,2,2:0:0:0:
510,178,121713,1,2,2:0:0:0:
440,148,121920,1,2,2:0:0:0:
440,148,122023,1,2,2:0:0:0:
440,148,122126,2,0,L|430:275,1,127.5,8|0,2:0|2:0,2:0:0:0:
404,309,122540,6,0,P|363:316|320:319,1,85,6|0,2:0|2:0,0:0:0:0:
240,226,122954,2,0,P|282:234|325:237,1,85,0|0,2:0|2:0,2:0:0:0:
389,187,123367,1,0,3:0:0:0:
404,309,123574,1,0,2:0:0:0:
451,245,123781,1,0,2:0:0:0:
324,236,123988,6,0,P|262:224|206:252,1,127.5,2|0,2:3|2:0,2:0:0:0:
176,281,124402,2,0,L|167:240,2,42.5,0|0|0,2:0|2:0|2:0,0:0:0:0:
274,310,124816,1,0,2:0:0:0:
324,236,125023,2,0,P|329:173|331:109,1,127.5,0|0,3:0|2:0,0:0:0:0:
327,81,125436,1,0,2:0:0:0:
242,76,125643,1,0,2:0:0:0:
239,160,125851,6,0,L|155:173,1,85,2|0,2:0|2:0,2:0:0:0:
91,229,126264,2,0,P|83:270|98:309,1,85,0|0,2:0|2:0,0:0:0:0:
236,308,126678,1,0,3:0:0:0:
170,260,126885,1,0,2:0:0:0:
181,365,127092,1,0,2:0:0:0:
258,300,127299,6,0,P|342:312|427:315,1,170,2|0,2:3|2:0,2:0:0:0:
457,314,127816,1,0,2:0:0:0:
457,314,127919,2,0,P|455:272|451:230,1,85,0|0,2:0|2:0,2:0:0:0:
479,148,128333,2,0,P|436:149|394:142,1,85,0|0,3:0|2:0,2:0:0:0:
322,107,128747,1,0,2:0:0:0:
322,107,128954,1,0,2:0:0:0:
243,139,129161,6,0,P|202:149|160:158,1,85,2|0,2:0|2:0,2:0:0:0:
117,231,129575,2,0,P|158:239|199:249,1,85,0|0,2:0|2:0,2:0:0:0:
279,217,129988,1,0,3:0:0:0:
303,347,130195,1,0,2:0:0:0:
340,278,130402,1,0,2:0:0:0:
290,373,130609,6,0,P|354:373|418:378,1,127.5,2|0,2:3|2:0,2:0:0:0:
438,349,131023,2,0,L|480:353,2,42.5,0|0|0,2:0|2:0|2:0,0:0:0:0:
397,266,131436,1,0,2:0:0:0:
480,274,131644,2,0,P|475:231|468:189,1,85,0|0,3:0|2:0,0:0:0:0:
322,224,132058,2,0,P|315:265|310:308,1,85,0|0,2:0|2:0,0:0:0:0:
236,350,132471,6,0,L|67:362,1,170,2|0,2:0|2:0,2:0:0:0:
18,291,133092,1,0,2:0:0:0:
46,210,133299,1,0,3:0:0:0:
128,227,133506,1,0,0:0:0:0:
100,148,133713,1,0,0:0:0:0:
102,310,133920,6,0,P|166:304|230:303,1,127.5,2|0,2:3|2:0,2:0:0:0:
253,301,134333,2,0,L|248:258,2,42.5,0|0|0,2:0|2:0|2:0,0:0:0:0:
408,224,134747,2,0,L|449:216,2,42.5,0|0|0,2:0|2:0|3:0,0:0:0:0:
346,300,135161,1,0,2:0:0:0:
324,225,135368,1,0,2:0:0:0:
335,147,135575,1,0,2:0:0:0:
366,74,135782,5,2,2:0:0:0:
371,75,135885,1,2,2:0:0:0:
376,76,135989,1,2,2:0:0:0:
381,77,136092,1,2,2:0:0:0:
386,78,136195,1,2,2:0:0:0:
256,192,136299,12,0,139092,2:0:0:0:
