osu file format v14

[General]
AudioFilename: audio.mp3
AudioLeadIn: 0
PreviewTime: -1
Countdown: 0
SampleSet: None
StackLeniency: 0.7
Mode: 3
LetterboxInBreaks: 0
SpecialStyle: 0
WidescreenStoryboard: 1

[Editor]
DistanceSpacing: 1.8
BeatDivisor: 4
GridSize: 4
TimelineZoom: 1.3

[Metadata]
Title:Yggdrasil (Original Mix)
TitleUnicode:Yggdrasil (Original Mix)
Artist:MYTK
ArtistUnicode:MYTK
Creator:Weber
Version:Easy
Source:
Tags:KAC2013 Original Mix Niva nivalis dubstep drumstep
BeatmapID:1493766
BeatmapSetID:702564

[Difficulty]
HPDrainRate:6
CircleSize:4
OverallDifficulty:6
ApproachRate:5
SliderMultiplier:1.4
SliderTickRate:1

[Events]
//Background and Video events
0,0,"yggdrasil_by_yroshima-d7hg6p8.jpg",0,0
//Break Periods
//Storyboard Layer 0 (Background)
//Storyboard Layer 1 (Fail)
//Storyboard Layer 2 (Pass)
//Storyboard Layer 3 (Foreground)
//Storyboard Sound Samples

[TimingPoints]
320,333.333333333333,4,2,0,100,1,0

[HitObjects]
448,192,320,5,0,0:0:0:0:
320,192,569,1,0,0:0:0:0:
192,192,819,1,0,0:0:0:0:
64,192,1069,1,0,0:0:0:0:
448,192,1319,1,0,0:0:0:0:
320,192,1569,1,0,0:0:0:0:
192,192,1819,1,0,0:0:0:0:
64,192,2069,1,0,0:0:0:0:
448,192,2319,1,0,0:0:0:0:
320,192,2569,1,0,0:0:0:0:
192,192,2819,1,0,0:0:0:0:
448,192,2986,1,0,0:0:0:0:
64,192,3236,1,0,0:0:0:0:
320,192,3486,1,0,0:0:0:0:
64,192,3736,1,0,0:0:0:0:
192,192,3986,1,0,0:0:0:0:
320,192,4236,1,0,0:0:0:0:
64,192,4486,1,0,0:0:0:0:
192,192,4736,1,0,0:0:0:0:
448,192,4986,1,0,0:0:0:0:
320,192,5236,1,0,0:0:0:0:
64,192,5486,1,0,0:0:0:0:
448,192,5653,1,0,0:0:0:0:
192,192,5903,1,0,0:0:0:0:
448,192,6153,1,0,0:0:0:0:
320,192,6403,1,0,0:0:0:0:
192,192,6653,1,0,0:0:0:0:
64,192,6903,1,0,0:0:0:0:
320,192,7153,1,0,0:0:0:0:
448,192,7403,1,0,0:0:0:0:
192,192,7653,1,0,0:0:0:0:
320,192,7903,1,0,0:0:0:0:
64,192,8153,1,0,0:0:0:0:
448,192,8319,1,0,0:0:0:0:
320,192,8569,1,0,0:0:0:0:
64,192,8819,1,0,0:0:0:0:
192,192,9069,1,0,0:0:0:0:
448,192,9319,1,0,0:0:0:0:
320,192,9569,1,0,0:0:0:0:
64,192,9819,1,0,0:0:0:0:
192,192,10069,1,0,0:0:0:0:
448,192,10319,1,0,0:0:0:0:
64,192,10653,1,0,0:0:0:0:
320,192,10819,1,0,0:0:0:0:
192,192,10986,1,0,0:0:0:0:
320,192,11236,1,0,0:0:0:0:
448,192,11486,1,0,0:0:0:0:
64,192,11736,1,0,0:0:0:0:
320,192,11986,1,0,0:0:0:0:
192,192,12236,1,0,0:0:0:0:
448,192,12486,1,0,0:0:0:0:
320,192,12736,1,0,0:0:0:0:
192,192,12986,1,0,0:0:0:0:
64,192,13236,1,0,0:0:0:0:
320,192,13486,1,0,0:0:0:0:
448,192,13653,1,0,0:0:0:0:
192,192,13903,1,0,0:0:0:0:
320,192,14153,1,0,0:0:0:0:
64,192,14403,1,0,0:0:0:0:
192,192,14653,1,0,0:0:0:0:
448,192,14903,1,0,0:0:0:0:
320,192,15153,1,0,0:0:0:0:
192,192,15403,1,0,0:0:0:0:
448,192,15653,1,0,0:0:0:0:
320,192,15903,1,0,0:0:0:0:
64,192,16153,1,0,0:0:0:0:
192,192,16319,1,0,0:0:0:0:
320,192,16653,128,0,20819:0:0:0:0:
64,192,20819,1,0,0:0:0:0:
448,192,20986,1,0,0:0:0:0:
192,192,21319,1,0,0:0:0:0:
320,192,21486,1,0,0:0:0:0:
64,192,21653,1,0,0:0:0:0:
448,192,23153,1,0,0:0:0:0:
320,192,23319,1,0,0:0:0:0:
192,192,23653,1,0,0:0:0:0:
320,192,23819,1,0,0:0:0:0:
64,192,24153,1,0,0:0:0:0:
448,192,24486,1,0,0:0:0:0:
320,192,24653,1,0,0:0:0:0:
192,192,24986,1,0,0:0:0:0:
320,192,25153,1,0,0:0:0:0:
64,192,25486,1,0,0:0:0:0:
320,192,25819,1,0,0:0:0:0:
192,192,25986,1,0,0:0:0:0:
64,192,26153,1,0,0:0:0:0:
192,192,26486,1,0,0:0:0:0:
320,192,26653,1,0,0:0:0:0:
448,192,26819,1,0,0:0:0:0:
64,192,26986,128,0,27319:0:0:0:0:
448,192,27319,128,0,27653:0:0:0:0:
64,192,27653,128,0,27986:0:0:0:0:
448,192,27986,128,0,28319:0:0:0:0:
64,192,28319,128,0,28653:0:0:0:0:
448,192,28653,128,0,28986:0:0:0:0:
64,192,28986,128,0,29319:0:0:0:0:
448,192,29319,128,0,29653:0:0:0:0:
192,192,29653,128,0,29986:0:0:0:0:
320,192,29986,128,0,30319:0:0:0:0:
448,192,30319,128,0,30653:0:0:0:0:
64,192,30653,128,0,30986:0:0:0:0:
320,192,30986,1,0,0:0:0:0:
192,192,32319,128,0,32986:0:0:0:0:
448,192,32986,128,0,34153:0:0:0:0:
320,192,34153,1,0,0:0:0:0:
64,192,34319,128,0,34986:0:0:0:0:
320,192,34986,1,0,0:0:0:0:
448,192,35486,1,0,0:0:0:0:
192,192,35653,1,0,0:0:0:0:
64,192,36153,1,0,0:0:0:0:
320,192,36319,1,0,0:0:0:0:
448,192,36819,1,0,0:0:0:0:
64,192,36986,1,0,0:0:0:0:
192,192,37319,1,0,0:0:0:0:
448,192,37486,1,0,0:0:0:0:
320,192,37653,128,0,38319:0:0:0:0:
64,192,38319,128,0,40319:0:0:0:0:
320,192,40319,1,0,0:0:0:0:
448,192,40819,1,0,0:0:0:0:
192,192,40986,1,0,0:0:0:0:
64,192,41486,1,0,0:0:0:0:
192,192,41653,1,0,0:0:0:0:
320,192,42153,1,0,0:0:0:0:
448,192,42319,128,0,42986:0:0:0:0:
192,192,42986,128,0,43653:0:0:0:0:
320,192,43653,128,0,44319:0:0:0:0:
192,192,44319,128,0,44986:0:0:0:0:
64,192,44986,128,0,45653:0:0:0:0:
448,192,45653,1,0,0:0:0:0:
320,192,46153,1,0,0:0:0:0:
192,192,46319,1,0,0:0:0:0:
64,192,46819,1,0,0:0:0:0:
320,192,46986,1,0,0:0:0:0:
448,192,47486,1,0,0:0:0:0:
192,192,47653,1,0,0:0:0:0:
64,192,48319,128,0,48986:0:0:0:0:
192,192,48986,128,0,50986:0:0:0:0:
320,192,50986,1,0,0:0:0:0:
448,192,51486,1,0,0:0:0:0:
64,192,51653,1,0,0:0:0:0:
192,192,52153,1,0,0:0:0:0:
320,192,52319,1,0,0:0:0:0:
64,192,52819,1,0,0:0:0:0:
448,192,52986,128,0,53653:0:0:0:0:
192,192,53653,128,0,63653:0:0:0:0:
448,192,63653,128,0,64319:0:0:0:0:
320,192,64319,1,0,0:0:0:0:
64,192,64986,1,0,0:0:0:0:
192,192,65486,1,0,0:0:0:0:
448,192,66153,1,0,0:0:0:0:
64,192,66319,128,0,66986:0:0:0:0:
448,192,66986,1,0,0:0:0:0:
320,192,67486,1,0,0:0:0:0:
192,192,67653,1,0,0:0:0:0:
64,192,68153,1,0,0:0:0:0:
320,192,68319,1,0,0:0:0:0:
192,192,68819,1,0,0:0:0:0:
448,192,68986,1,0,0:0:0:0:
320,192,69319,1,0,0:0:0:0:
192,192,69486,1,0,0:0:0:0:
64,192,69653,128,0,72319:0:0:0:0:
448,192,72319,128,0,73653:0:0:0:0:
192,192,73653,1,0,0:0:0:0:
320,192,74486,1,0,0:0:0:0:
448,192,74653,1,0,0:0:0:0:
192,192,74819,1,0,0:0:0:0:
64,192,74986,128,0,75986:0:0:0:0:
192,192,75986,1,0,0:0:0:0:
448,192,76319,128,0,77319:0:0:0:0:
320,192,77319,1,0,0:0:0:0:
64,192,77486,1,0,0:0:0:0:
192,192,77653,128,0,78653:0:0:0:0:
64,192,78653,1,0,0:0:0:0:
320,192,78986,128,0,79986:0:0:0:0:
192,192,79986,1,0,0:0:0:0:
448,192,80153,1,0,0:0:0:0:
64,192,80319,128,0,81319:0:0:0:0:
320,192,81319,1,0,0:0:0:0:
192,192,81653,128,0,82653:0:0:0:0:
448,192,82653,1,0,0:0:0:0:
320,192,82986,128,0,85653:0:0:0:0:
64,192,85653,1,0,0:0:0:0:
448,192,85986,1,0,0:0:0:0:
192,192,86486,1,0,0:0:0:0:
448,192,86653,1,0,0:0:0:0:
64,192,86986,1,0,0:0:0:0:
448,192,87319,1,0,0:0:0:0:
320,192,87819,1,0,0:0:0:0:
192,192,87986,1,0,0:0:0:0:
64,192,88153,1,0,0:0:0:0:
448,192,88319,128,0,88819:0:0:0:0:
320,192,88819,1,0,0:0:0:0:
64,192,88986,128,0,89486:0:0:0:0:
192,192,89486,1,0,0:0:0:0:
320,192,89653,128,0,90153:0:0:0:0:
64,192,90153,1,0,0:0:0:0:
192,192,90319,128,0,90819:0:0:0:0:
448,192,90819,1,0,0:0:0:0:
64,192,90986,1,0,0:0:0:0:
448,192,91319,1,0,0:0:0:0:
64,192,91819,1,0,0:0:0:0:
320,192,91986,1,0,0:0:0:0:
192,192,92319,1,0,0:0:0:0:
320,192,92569,1,0,0:0:0:0:
448,192,92819,1,0,0:0:0:0:
64,192,93069,1,0,0:0:0:0:
192,192,93319,1,0,0:0:0:0:
448,192,93486,1,0,0:0:0:0:
320,192,93653,128,0,94319:0:0:0:0:
64,192,94319,128,0,94986:0:0:0:0:
192,192,94986,128,0,95653:0:0:0:0:
448,192,95653,128,0,96319:0:0:0:0:
64,192,96319,1,0,0:0:0:0:
320,192,96653,1,0,0:0:0:0:
192,192,97153,1,0,0:0:0:0:
448,192,97319,1,0,0:0:0:0:
64,192,97653,1,0,0:0:0:0:
192,192,97986,1,0,0:0:0:0:
448,192,98486,1,0,0:0:0:0:
320,192,98653,1,0,0:0:0:0:
192,192,98986,1,0,0:0:0:0:
448,192,99319,1,0,0:0:0:0:
64,192,99819,1,0,0:0:0:0:
448,192,99986,1,0,0:0:0:0:
320,192,100319,1,0,0:0:0:0:
192,192,100653,1,0,0:0:0:0:
320,192,100986,1,0,0:0:0:0:
448,192,101153,1,0,0:0:0:0:
192,192,101319,1,0,0:0:0:0:
64,192,101486,1,0,0:0:0:0:
320,192,101653,1,0,0:0:0:0:
448,192,101986,1,0,0:0:0:0:
192,192,102486,1,0,0:0:0:0:
448,192,102653,1,0,0:0:0:0:
64,192,102986,1,0,0:0:0:0:
192,192,103319,1,0,0:0:0:0:
448,192,103819,1,0,0:0:0:0:
320,192,103986,1,0,0:0:0:0:
64,192,104319,1,0,0:0:0:0:
192,192,104653,1,0,0:0:0:0:
320,192,105153,1,0,0:0:0:0:
448,192,105319,1,0,0:0:0:0:
192,192,105653,128,0,105986:0:0:0:0:
448,192,105986,128,0,106319:0:0:0:0:
320,192,106319,128,0,106653:0:0:0:0:
64,192,106653,128,0,106986:0:0:0:0:
192,192,106986,1,0,0:0:0:0:
64,192,107819,1,0,0:0:0:0:
448,192,107986,1,0,0:0:0:0:
320,192,108319,1,0,0:0:0:0:
192,192,108653,1,0,0:0:0:0:
320,192,109153,1,0,0:0:0:0:
448,192,109319,1,0,0:0:0:0:
64,192,109653,1,0,0:0:0:0:
192,192,109986,1,0,0:0:0:0:
448,192,110486,1,0,0:0:0:0:
320,192,110653,1,0,0:0:0:0:
192,192,110986,1,0,0:0:0:0:
448,192,111319,1,0,0:0:0:0:
64,192,111819,1,0,0:0:0:0:
320,192,111986,1,0,0:0:0:0:
192,192,112319,128,0,114986:0:0:0:0:
320,192,114986,1,0,0:0:0:0:
448,192,115319,1,0,0:0:0:0:
192,192,115653,1,0,0:0:0:0:
64,192,115986,1,0,0:0:0:0:
320,192,116319,128,0,116653:0:0:0:0:
448,192,116653,128,0,116986:0:0:0:0:
192,192,116986,128,0,117319:0:0:0:0:
64,192,117319,128,0,117653:0:0:0:0:
320,192,117653,1,0,0:0:0:0:
