osu file format v14

[General]
AudioFilename: audio.mp3
AudioLeadIn: 0
PreviewTime: -1
Countdown: 0
SampleSet: Soft
StackLeniency: 0.7
Mode: 3
LetterboxInBreaks: 0
SpecialStyle: 0
WidescreenStoryboard: 0

[Editor]
DistanceSpacing: 1.8
BeatDivisor: 4
GridSize: 4
TimelineZoom: 2.3

[Metadata]
Title:Yggdrasil (Original Mix)
TitleUnicode:Yggdrasil (Original Mix)
Artist:MYTK
ArtistUnicode:MYTK
Creator:Weber
Version:Beginner
Source:
Tags:KAC2013 Original Mix Niva nivalis dubstep drumstep
BeatmapID:1493700
BeatmapSetID:702564

[Difficulty]
HPDrainRate:6
CircleSize:4
OverallDifficulty:6
ApproachRate:5
SliderMultiplier:1.4
SliderTickRate:1

[Events]
//Background and Video events
0,0,"yggdrasil_by_yroshima-d7hg6p8.jpg",0,0
//Break Periods
2,21853,25786
//Storyboard Layer 0 (Background)
//Storyboard Layer 1 (Fail)
//Storyboard Layer 2 (Pass)
//Storyboard Layer 3 (Foreground)
//Storyboard Sound Samples

[TimingPoints]
320,333.333333333333,4,2,0,100,1,0

[HitObjects]
448,192,320,5,0,0:0:0:0:
192,192,819,1,0,0:0:0:0:
320,192,1319,1,0,0:0:0:0:
64,192,1819,1,0,0:0:0:0:
192,192,2319,1,0,0:0:0:0:
448,192,2986,1,0,0:0:0:0:
320,192,3486,1,0,0:0:0:0:
64,192,3986,1,0,0:0:0:0:
192,192,4486,1,0,0:0:0:0:
448,192,4986,1,0,0:0:0:0:
320,192,5653,1,0,0:0:0:0:
192,192,6153,1,0,0:0:0:0:
64,192,6653,1,0,0:0:0:0:
448,192,7153,1,0,0:0:0:0:
320,192,7653,1,0,0:0:0:0:
448,192,8319,1,0,0:0:0:0:
320,192,8819,1,0,0:0:0:0:
192,192,9319,1,0,0:0:0:0:
64,192,9819,1,0,0:0:0:0:
448,192,10319,1,0,0:0:0:0:
448,192,10986,1,0,0:0:0:0:
192,192,11486,1,0,0:0:0:0:
320,192,11986,1,0,0:0:0:0:
64,192,12486,1,0,0:0:0:0:
192,192,12986,1,0,0:0:0:0:
448,192,13653,1,0,0:0:0:0:
320,192,14153,1,0,0:0:0:0:
64,192,14653,1,0,0:0:0:0:
192,192,15153,1,0,0:0:0:0:
448,192,15653,1,0,0:0:0:0:
192,192,16653,128,0,20986:0:0:0:0:
448,192,20986,1,0,0:0:0:0:
64,192,21653,1,0,0:0:0:0:
64,192,26986,5,0,0:0:0:0:
448,192,27653,1,0,0:0:0:0:
64,192,28319,1,0,0:0:0:0:
448,192,28986,1,0,0:0:0:0:
192,192,29653,128,0,30986:0:0:0:0:
320,192,32319,1,0,0:0:0:0:
448,192,32986,128,0,34319:0:0:0:0:
64,192,34986,1,0,0:0:0:0:
448,192,35653,1,0,0:0:0:0:
192,192,36319,1,0,0:0:0:0:
448,192,36986,1,0,0:0:0:0:
64,192,37653,128,0,38319:0:0:0:0:
320,192,38319,128,0,40319:0:0:0:0:
64,192,40319,1,0,0:0:0:0:
448,192,40986,1,0,0:0:0:0:
192,192,41653,1,0,0:0:0:0:
320,192,42319,1,0,0:0:0:0:
448,192,42986,1,0,0:0:0:0:
64,192,43653,1,0,0:0:0:0:
320,192,44319,1,0,0:0:0:0:
192,192,44986,1,0,0:0:0:0:
448,192,45653,128,0,46986:0:0:0:0:
64,192,46986,128,0,48319:0:0:0:0:
320,192,48319,1,0,0:0:0:0:
192,192,48986,128,0,50986:0:0:0:0:
448,192,51653,1,0,0:0:0:0:
64,192,52319,1,0,0:0:0:0:
448,192,52986,1,0,0:0:0:0:
320,192,53653,128,0,63653:0:0:0:0:
64,192,64319,1,0,0:0:0:0:
448,192,64986,1,0,0:0:0:0:
320,192,66319,1,0,0:0:0:0:
64,192,66986,1,0,0:0:0:0:
448,192,67653,1,0,0:0:0:0:
320,192,68319,1,0,0:0:0:0:
192,192,68986,1,0,0:0:0:0:
64,192,69653,128,0,73653:0:0:0:0:
192,192,74986,128,0,75986:0:0:0:0:
320,192,76319,128,0,77319:0:0:0:0:
64,192,77653,128,0,78653:0:0:0:0:
448,192,78986,128,0,79986:0:0:0:0:
64,192,80319,128,0,81319:0:0:0:0:
192,192,81653,128,0,82653:0:0:0:0:
320,192,82986,128,0,85653:0:0:0:0:
448,192,85986,1,0,0:0:0:0:
192,192,86653,1,0,0:0:0:0:
320,192,87319,1,0,0:0:0:0:
64,192,87986,1,0,0:0:0:0:
192,192,88319,1,0,0:0:0:0:
448,192,88986,1,0,0:0:0:0:
64,192,89653,1,0,0:0:0:0:
320,192,90319,1,0,0:0:0:0:
192,192,90986,1,0,0:0:0:0:
448,192,91653,1,0,0:0:0:0:
64,192,92319,128,0,93653:0:0:0:0:
448,192,94319,1,0,0:0:0:0:
64,192,94986,1,0,0:0:0:0:
448,192,95653,1,0,0:0:0:0:
192,192,96319,1,0,0:0:0:0:
320,192,96653,1,0,0:0:0:0:
64,192,97319,1,0,0:0:0:0:
448,192,97986,1,0,0:0:0:0:
192,192,98653,1,0,0:0:0:0:
448,192,98986,1,0,0:0:0:0:
64,192,99319,1,0,0:0:0:0:
320,192,99986,1,0,0:0:0:0:
192,192,100653,1,0,0:0:0:0:
448,192,101319,1,0,0:0:0:0:
64,192,101653,1,0,0:0:0:0:
320,192,101986,1,0,0:0:0:0:
192,192,102653,1,0,0:0:0:0:
448,192,103319,1,0,0:0:0:0:
64,192,103986,1,0,0:0:0:0:
320,192,104653,1,0,0:0:0:0:
192,192,105319,1,0,0:0:0:0:
448,192,105986,1,0,0:0:0:0:
64,192,106653,1,0,0:0:0:0:
192,192,106986,1,0,0:0:0:0:
448,192,107986,1,0,0:0:0:0:
192,192,108653,1,0,0:0:0:0:
320,192,109319,1,0,0:0:0:0:
64,192,109986,1,0,0:0:0:0:
448,192,110653,1,0,0:0:0:0:
192,192,111319,1,0,0:0:0:0:
448,192,111986,1,0,0:0:0:0:
64,192,112319,128,0,114986:0:0:0:0:
320,192,114986,1,0,0:0:0:0:
448,192,115319,1,0,0:0:0:0:
192,192,115653,1,0,0:0:0:0:
320,192,115986,1,0,0:0:0:0:
64,192,116319,128,0,116986:0:0:0:0:
448,192,116986,128,0,117653:0:0:0:0:
192,192,117653,1,0,0:0:0:0:
