osu file format v14

[General]
AudioFilename: audio.mp3
AudioLeadIn: 0
PreviewTime: 85653
Countdown: 0
SampleSet: Soft
StackLeniency: 0.2
Mode: 0
LetterboxInBreaks: 0
WidescreenStoryboard: 1

[Editor]
Bookmarks: 9653,16653,21653,26986,32319,38319,42986,53653,64319,74986,82986,93653,96319,105653,112319,114986,117653
DistanceSpacing: 1
BeatDivisor: 4
GridSize: 4
TimelineZoom: 2

[Metadata]
Title:Yggdrasil (Original Mix)
TitleUnicode:Yggdrasil (Original Mix)
Artist:MYTK
ArtistUnicode:MYTK
Creator:Lulu-
Version:newton's Hard
Source:
Tags:dubstep drumstep dnb artcore kac2013 voez yamicchi dtm9 nowa rvmathew underdogs lowcombofc newton-
BeatmapID:1602401
BeatmapSetID:554801

[Difficulty]
HPDrainRate:5
CircleSize:4
OverallDifficulty:7
ApproachRate:8
SliderMultiplier:1.4
SliderTickRate:1

[Events]
//Background and Video events
0,0,"60393234_p0.jpg",0,0
//Break Periods
2,21853,26236
2,53853,63569
//Storyboard Layer 0 (Background)
//Storyboard Layer 1 (Fail)
//Storyboard Layer 2 (Pass)
//Storyboard Layer 3 (Foreground)
//Storyboard Sound Samples

[TimingPoints]
320,333.333333333333,4,2,1,40,1,0
320,-166.666666666667,4,2,1,40,0,0
1653,-166.666666666667,4,2,1,40,0,0
2986,-166.666666666667,4,2,1,40,0,0
4319,-166.666666666667,4,2,1,40,0,0
5653,-166.666666666667,4,2,2,40,0,0
5736,-166.666666666667,4,2,1,40,0,0
9653,-125,4,2,1,50,0,0
10153,-125,4,2,1,50,0,0
10986,-166.666666666667,4,2,1,40,0,0
12319,-166.666666666667,4,2,1,40,0,0
13653,-166.666666666667,4,2,2,40,0,0
13736,-166.666666666667,4,2,1,40,0,0
15819,-125,4,2,1,50,0,0
16319,-125,4,2,1,5,0,0
16653,-142.857142857143,4,2,1,50,0,0
20819,-125,4,2,1,50,0,0
21319,-125,4,2,1,50,0,0
26986,-125,4,2,2,40,0,0
27069,-125,4,2,1,40,0,0
27653,-125,4,2,1,45,0,0
28319,-111.111111111111,4,2,1,50,0,0
28986,-111.111111111111,4,2,1,55,0,0
29653,-100,4,2,1,60,0,0
29986,-100,4,2,1,65,0,0
30319,-100,4,2,1,70,0,0
30986,-200,4,2,1,65,0,0
31319,-200,4,2,1,60,0,0
31653,-200,4,2,1,50,0,0
31986,-200,4,2,1,40,0,0
32319,-200,4,2,1,70,0,0
32903,-200,4,2,1,5,0,0
32986,-142.857142857143,4,2,1,70,0,0
33007,-142.857142857143,4,2,1,30,0,0
34153,-142.857142857143,4,2,1,70,0,0
34319,-100,4,2,1,70,0,0
34986,-200,4,2,1,70,0,0
37653,-83.3333333333333,4,2,1,70,0,0
38319,-100,4,2,1,60,0,0
38986,-100,4,2,1,65,0,0
39653,-100,4,2,1,70,0,0
40319,-125,4,2,1,65,0,0
42986,-200,4,2,1,70,0,0
43007,-200,4,2,1,30,0,0
43486,-200,4,2,1,70,0,0
43674,-200,4,2,1,30,0,0
43903,-200,4,2,1,70,0,0
43924,-200,4,2,1,30,0,0
44153,-200,4,2,1,70,0,0
44340,-200,4,2,1,30,0,0
44736,-200,4,2,1,70,0,0
44986,-125,4,2,1,70,0,0
45653,-200,4,2,1,70,0,0
46153,-200,4,2,1,65,0,0
48069,-125,4,2,1,65,0,0
48153,-125,4,2,2,65,0,0
48236,-125,4,2,1,65,0,0
48319,-83.3333333333333,4,2,1,70,0,0
48903,-83.3333333333333,4,2,1,5,0,0
48986,-100,4,2,1,54,0,0
49069,-100,4,2,1,56,0,0
49153,-100,4,2,1,58,0,0
49236,-100,4,2,1,60,0,0
49319,-100,4,2,1,62,0,0
49403,-100,4,2,1,64,0,0
49486,-100,4,2,1,66,0,0
49569,-100,4,2,1,68,0,0
49653,-100,4,2,1,70,0,0
50986,-125,4,2,1,70,0,0
51486,-125,4,2,1,65,0,0
52986,-125,4,2,1,70,0,0
64319,-142.857142857143,4,2,1,50,0,0
66986,-142.857142857143,4,2,1,55,0,0
68986,-142.857142857143,4,2,1,60,0,0
69653,-100,4,2,1,60,0,0
70653,-100,4,2,1,65,0,0
71653,-100,4,2,1,70,0,0
72819,-100,4,2,1,60,0,0
73319,-100,4,2,1,50,0,0
73819,-100,4,2,1,60,0,0
74319,-100,4,2,1,70,0,0
74736,-100,4,2,1,75,0,0
74986,-100,4,2,1,80,0,1
75153,-100,4,2,1,5,0,1
75236,-100,4,2,1,80,0,1
75403,-100,4,2,1,5,0,1
75486,-100,4,2,1,80,0,1
75653,-100,4,2,1,5,0,1
75736,-100,4,2,1,80,0,1
75903,-142.857142857143,4,2,1,5,0,1
75986,-142.857142857143,4,2,1,60,0,0
76236,-100,4,2,1,5,0,0
76319,-100,4,2,1,80,0,1
76486,-100,4,2,1,5,0,1
76569,-100,4,2,1,80,0,1
76736,-100,4,2,1,5,0,1
76819,-100,4,2,1,80,0,1
76986,-100,4,2,1,5,0,1
77069,-100,4,2,1,80,0,1
77236,-100,4,2,1,5,0,1
77319,-100,4,2,1,60,0,0
77403,-100,4,2,1,5,0,0
77486,-100,4,2,1,60,0,0
77569,-100,4,2,1,5,0,0
77653,-100,4,2,1,80,0,1
77819,-100,4,2,1,5,0,1
77903,-100,4,2,1,80,0,1
78069,-100,4,2,1,5,0,1
78153,-100,4,2,1,80,0,1
78319,-100,4,2,1,5,0,1
78403,-100,4,2,1,80,0,1
78569,-100,4,2,1,5,0,1
78653,-142.857142857143,4,2,1,60,0,0
78903,-100,4,2,1,5,0,0
78986,-100,4,2,1,80,0,1
79153,-100,4,2,1,5,0,1
79236,-100,4,2,1,80,0,1
79403,-100,4,2,1,5,0,1
79486,-100,4,2,1,80,0,1
79653,-100,4,2,1,5,0,1
79736,-100,4,2,1,80,0,1
79903,-100,4,2,1,5,0,1
79986,-100,4,2,1,60,0,0
80069,-100,4,2,1,65,0,0
80153,-100,4,2,1,70,0,0
80236,-100,4,2,1,75,0,0
80319,-90.9090909090909,4,2,1,80,0,1
81319,-142.857142857143,4,2,1,60,0,0
81653,-83.3333333333333,4,2,1,80,0,1
81903,-100,4,2,1,80,0,1
82653,-142.857142857143,4,2,1,60,0,0
82986,-100,4,2,1,50,0,0
83319,-100,4,2,1,55,0,0
83653,-100,4,2,1,60,0,0
83986,-100,4,2,1,65,0,0
84319,-100,4,2,1,70,0,0
84653,-100,4,2,1,75,0,0
84986,-100,4,2,1,80,0,0
85319,-100,4,2,1,85,0,0
85653,-83.3333333333333,4,2,1,90,0,1
86674,-83.3333333333333,4,2,1,40,0,1
86986,-83.3333333333333,4,2,1,90,0,1
87653,-83.3333333333333,4,2,1,90,0,0
88319,-125,4,2,1,70,0,0
88816,-125,4,2,1,70,0,0
88986,-125,4,2,1,70,0,0
89486,-125,4,2,1,70,0,0
89653,-125,4,2,1,70,0,0
90153,-125,4,2,1,70,0,0
90319,-125,4,2,1,70,0,0
90653,-125,4,2,1,70,0,0
90819,-125,4,2,2,70,0,0
90903,-100,4,2,1,70,0,0
90986,-83.3333333333333,4,2,1,90,0,1
91653,-83.3333333333333,4,2,1,90,0,1
92153,-83.3333333333333,4,2,1,90,0,1
92403,-83.3333333333333,4,2,1,5,0,1
92569,-83.3333333333333,4,2,1,90,0,1
92653,-83.3333333333333,4,2,1,5,0,1
92819,-83.3333333333333,4,2,1,90,0,1
92903,-83.3333333333333,4,2,1,5,0,1
93069,-83.3333333333333,4,2,1,90,0,1
93153,-83.3333333333333,4,2,1,5,0,1
93319,-83.3333333333333,4,2,1,90,0,1
93653,-100,4,2,1,70,0,0
94153,-100,4,2,1,75,0,0
94653,-100,4,2,1,80,0,0
95153,-100,4,2,1,85,0,0
95653,-100,4,2,1,90,0,0
96319,-83.3333333333333,4,2,1,95,0,1
105653,-83.3333333333333,4,2,1,70,0,1
106319,-83.3333333333333,4,2,1,75,0,1
106986,-83.3333333333333,4,2,1,80,0,0
107986,-83.3333333333333,4,2,1,90,0,1
108319,-83.3333333333333,4,2,2,90,0,1
108403,-83.3333333333333,4,2,1,90,0,1
112319,-83.3333333333333,4,2,1,65,0,0
113319,-83.3333333333333,4,2,1,70,0,0
114319,-83.3333333333333,4,2,1,75,0,0
114986,-83.3333333333333,4,2,1,80,0,1
115319,-83.3333333333333,4,2,1,80,0,1
115653,-83.3333333333333,4,2,1,80,0,1
115986,-83.3333333333333,4,2,1,80,0,1
117653,-83.3333333333333,4,2,1,85,0,0
117986,-83.3333333333333,4,2,1,5,0,0

[Colours]
Combo1 : 247,51,51
Combo2 : 255,128,255
Combo3 : 0,128,255
Combo4 : 247,124,51

[HitObjects]
169,138,320,6,0,B|117:155|88:202|99:275|171:306|222:278|222:278|232:243|211:213|187:211,1,335.999989746094,4|0,0:0|0:0,0:0:0:0:
190,211,2986,6,0,B|219:224|228:249|221:278|221:278|270:229|245:164|245:164|220:95|273:43,1,335.999989746094,0|0,0:0|0:0,0:0:0:0:
271,44,5653,37,2,0:0:0:0:
271,44,8319,6,0,B|328:55|382:34|382:34|402:76|402:76|390:120|390:120|340:136|302:131,1,293.999991027832,0|0,0:0|0:0,0:0:0:0:
227,170,9653,6,0,L|229:201,4,28
151,131,10153,1,0,1:0:0:0:
75,170,10319,6,0,L|80:229,1,56,8|0,0:0|0:0,0:0:0:0:
149,274,10653,1,8,0:0:0:0:
149,274,10736,2,0,L|146:305,2,28,0|8|0,0:0|0:0|0:0,0:0:0:0:
175,255,10986,6,0,B|223:224|272:260|272:260|353:320|462:227|354:158|320:209,1,335.999989746094,4|0,0:0|0:0,0:0:0:0:
323,204,13653,6,0,B|234:120|311:-2|400:-14|456:97|388:140,1,335.999989746094,2|0,0:0|0:0,0:0:0:0:
323,204,15819,5,0,1:0:0:0:
302,202,15902,1,0,0:0:0:0:
281,200,15985,1,0,1:0:0:0:
260,198,16069,2,0,L|188:204,1,56,0|0,1:0|1:0,0:0:0:0:
66,267,16653,22,0,B|91:246|96:212|96:212|100:262|135:346|294:340|307:221|307:221|257:171|204:202,1,489.999985046387,4|0,0:0|0:0,0:0:0:0:
256,192,18403,12,0,20319,0:0:0:0:
256,192,20819,21,0,1:0:0:0:
325,144,20986,2,0,L|384:149,1,56,8|0,0:0|0:0,0:0:0:0:
436,212,21319,1,0,1:0:0:0:
436,212,21402,2,0,L|467:209,2,28,0|0|0,1:0|1:0|1:0,0:0:0:0:
408,244,21653,1,0,1:0:0:0:
43,30,26986,22,0,L|98:34,1,56,2|0,0:0|0:0,0:0:0:0:
134,111,27319,2,0,L|78:115,1,56,0|0,0:0|0:0,0:0:0:0:
116,193,27653,2,0,L|175:198,1,56,0|0,0:0|0:0,0:0:0:0:
207,274,27986,2,0,L|151:278,1,56,0|0,0:0|0:0,0:0:0:0:
241,350,28319,6,0,P|271:328|286:301,1,62.9999980773926,0|0,0:0|0:0,0:0:0:0:
367,312,28653,2,0,P|362:275|346:249,1,62.9999980773926,0|0,0:0|0:0,0:0:0:0:
396,184,28986,2,0,P|362:169|331:170,1,62.9999980773926,0|0,0:0|0:0,0:0:0:0:
270,222,29319,1,0,0:0:0:0:
256,138,29486,1,0,0:0:0:0:
256,138,29569,1,0,0:0:0:0:
256,138,29653,6,0,L|259:98,3,35,0|0|0|0,0:0|0:0|0:0|0:0,0:0:0:0:
214,132,29986,2,0,L|217:97,3,35,0|0|0|0,0:0|0:0|0:0|0:0,0:0:0:0:
172,126,30319,2,0,L|175:91,3,35,0|0|0|0,0:0|0:0|0:0|0:0,0:0:0:0:
130,120,30653,2,0,L|133:85,3,35,0|0|0|0,0:0|0:0|0:0|0:0,0:0:0:0:
102,201,30986,22,0,B|78:265|106:317|106:317|149:303|202:334,1,210,0|2,0:0|0:0,0:0:0:0:
192,328,32319,22,0,L|299:318,1,105,4|0,0:0|0:0,0:0:0:0:
363,365,32986,6,0,B|391:317|362:272|362:272|334:220|362:179|362:179|360:210|388:236|419:237|443:215,1,293.999991027832,8|0,0:0|0:0,0:0:0:0:
435,142,34153,1,0,1:0:0:0:
366,96,34319,38,0,L|296:102,1,70,8|0,0:0|1:0,0:0:0:0:
284,115,34569,1,0,1:0:0:0:
271,127,34653,1,0,0:0:0:0:
258,139,34736,2,0,L|188:132,1,70,0|0,1:0|1:0,0:0:0:0:
141,97,34986,6,0,P|145:136|141:177,1,70,4|0,0:0|0:0,0:0:0:0:
63,201,35486,1,2,1:2:0:0:
63,201,35653,2,0,P|91:228|114:262,1,70,8|0,0:0|0:0,0:0:0:0:
70,330,36152,1,2,1:2:0:0:
70,330,36236,1,2,0:0:0:0:
70,330,36319,38,0,P|109:332|148:343,1,70,4|0,0:0|0:0,0:0:0:0:
199,271,36819,1,2,1:2:0:0:
199,271,36903,1,2,1:2:0:0:
199,271,36986,2,0,P|232:279|267:281,1,70,8|0,0:0|0:0,0:0:0:0:
301,270,37403,1,0,0:0:0:0:
331,252,37486,1,0,0:0:0:0:
355,227,37569,1,0,0:0:0:0:
372,196,37653,6,0,B|374:142|323:117|275:131|262:178|262:178|241:134|271:85,1,251.999992309571,4|0,0:0|0:0,0:0:0:0:
338,58,38319,38,0,L|334:22,3,35,8|0|0|0,0:0|0:0|0:0|0:0,0:0:0:0:
375,70,38653,2,0,L|371:34,3,35,0|0|0|0,0:0|0:0|0:0|0:0,0:0:0:0:
412,82,38986,2,0,L|408:46,3,35,0|0|0|0,0:0|0:0|0:0|0:0,0:0:0:0:
449,94,39319,5,0,0:0:0:0:
449,178,39486,1,0,1:0:0:0:
449,262,39653,2,0,L|379:256,1,70,8|0,0:0|0:0,0:0:0:0:
367,269,39903,1,0,0:0:0:0:
354,281,39986,1,0,1:0:0:0:
341,293,40069,2,0,L|345:329,2,35,0|0|0,1:0|1:0|1:0,0:0:0:0:
310,278,40319,38,0,P|269:289|228:283,2,84,4|0|2,0:0|0:0|0:0,0:0:0:0:
312,177,40986,2,0,P|258:168|196:191,1,112,8|0,0:0|0:0,0:0:0:0:
132,256,41486,1,0,1:0:0:0:
106,158,41653,6,0,L|115:46,1,112,4|0,0:0|0:0,0:0:0:0:
212,18,42153,1,0,1:0:0:0:
308,46,42319,2,0,L|395:38,2,84,10|0|2,0:0|0:0|1:2,0:0:0:0:
294,63,42903,1,0,1:0:0:0:
280,80,42986,38,0,P|277:114|281:149,1,70,4|0,0:0|0:0,0:0:0:0:
194,187,43486,1,2,0:0:0:0:
194,187,43653,2,0,P|208:208|231:230,2,52.5,0|8|0,1:0|0:0|0:0,0:0:0:0:
156,99,44319,6,0,P|130:123|101:142,1,70,4|0,0:0|0:0,0:0:0:0:
14,180,44819,1,8,1:2:0:0:
14,180,44986,38,0,P|38:205|54:235,1,56,8|0,0:0|0:0,0:0:0:0:
60,243,45236,1,0,0:0:0:0:
71,262,45319,1,0,0:0:0:0:
82,281,45403,2,0,L|77:336,1,56,0|0,0:0|0:0,0:0:0:0:
113,359,45653,6,0,P|137:334|166:315,1,70,4|0,0:0|0:0,0:0:0:0:
255,358,46153,1,0,1:0:0:0:
255,358,46319,2,0,P|257:323|267:290,1,70,8|0,0:0|0:0,0:0:0:0:
363,265,46820,1,2,0:0:0:0:
363,265,46986,38,0,P|360:230|350:197,1,70,4|0,0:0|0:0,0:0:0:0:
431,141,47486,1,2,1:2:0:0:
431,141,47569,1,2,0:0:0:0:
431,141,47653,2,0,P|406:116|377:97,1,70,8|2,0:0|0:0,0:0:0:0:
349,99,48069,1,0,0:0:0:0:
321,101,48152,1,2,0:0:0:0:
293,104,48236,1,0,0:0:0:0:
265,106,48319,6,0,B|185:138|247:177|158:241|106:181|93:129|155:98,1,251.999992309571,4|0,0:0|0:0,0:0:0:0:
213,35,48986,38,0,L|248:32,3,35,10|0|0|0,0:0|0:0|0:0|0:0,0:0:0:0:
240,71,49319,2,0,L|275:68,3,35,2|0|0|0,0:0|0:0|0:0|0:0,0:0:0:0:
266,100,49653,2,0,L|301:97,3,35,2|0|2|0,0:0|0:0|0:0|0:0,0:0:0:0:
292,129,49986,6,0,L|327:126,5,35,2|0|2|0|2|0,0:0|0:0|0:0|0:0|0:0|0:0,0:0:0:0:
280,152,50486,1,2,1:2:0:0:
275,178,50569,1,0,0:0:0:0:
278,204,50653,1,2,1:2:0:0:
288,228,50736,2,0,L|281:297,1,70,8|8,0:0|0:0,0:0:0:0:
260,316,50986,38,0,P|219:305|178:311,2,84,4|0|2,0:0|0:0|0:0,0:0:0:0:
334,355,51653,2,0,P|388:364|450:341,1,112,8|0,0:0|0:0,0:0:0:0:
506,292,52153,1,0,1:0:0:0:
451,227,52319,6,0,L|460:115,1,112,4|0,0:0|3:0,3:0:0:0:
405,50,52819,1,0,1:0:0:0:
339,104,52986,2,0,L|252:96,2,84,10|0|0,0:0|0:0|0:0,0:0:0:0:
405,50,53653,37,0,1:0:0:0:
56,98,64319,22,0,P|90:136|143:143,1,97.9999970092774,0|0,1:0|0:0,0:0:0:0:
195,101,64819,1,0,0:0:0:0:
262,130,64986,2,0,L|253:229,1,97.9999970092774,8|0,0:0|0:0,0:0:0:0:
320,256,65486,6,0,L|328:355,2,97.9999970092774,0|0|0,1:0|0:0|1:0,0:0:0:0:
253,227,66319,38,0,P|221:263|174:273,1,97.9999970092774,8|0,0:0|1:0,0:0:0:0:
149,270,66736,1,0,1:0:0:0:
124,267,66819,1,0,0:0:0:0:
100,265,66902,1,0,1:0:0:0:
75,263,66986,6,0,L|66:165,1,97.9999970092774,2|0,1:2|0:0,0:0:0:0:
59,92,67486,1,2,1:2:0:0:
127,122,67653,2,0,L|224:113,1,97.9999970092774,8|2,0:0|0:0,0:0:0:0:
286,72,68153,1,2,1:2:0:0:
347,30,68319,38,0,L|422:36,2,73.4999977569581,2|0|0,1:2|3:0|1:0,3:0:0:0:
286,72,68986,2,0,P|297:95|298:124,1,48.9999985046387,10|0,0:0|0:0,0:0:0:0:
239,161,69319,1,0,0:0:0:0:
242,186,69402,1,0,0:0:0:0:
245,211,69485,1,2,0:0:0:0:
247,235,69569,1,0,0:0:0:0:
250,260,69653,6,0,L|146:250,2,105,2|2|2,1:2|0:0|0:0,0:0:0:0:
273,340,70319,2,0,P|324:295|324:227,1,140,8|2,0:0|0:0,0:0:0:0:
259,180,70819,38,0,P|318:147|382:171,2,140,0|2|0,0:0|0:0|0:0,0:0:0:0:
250,260,71653,2,0,L|110:247,1,140,10|0,0:0|0:0,0:0:0:0:
256,192,72319,12,2,73569,1:2:0:0:
256,192,73653,5,0,0:0:0:0:
256,192,74486,5,0,1:0:0:0:
165,134,74653,1,0,1:0:0:0:
162,159,74736,1,8,0:0:0:0:
160,185,74819,1,2,1:2:0:0:
158,211,74902,1,0,1:0:0:0:
155,238,74986,6,0,L|164:342,3,105,4|4|4|4,0:0|0:0|0:0|0:0,0:0:0:0:
241,281,75986,22,0,B|264:278|264:278|289:288|289:288|317:286,1,73.4999977569581
357,281,76319,22,0,L|366:176,3,105,4|4|4|4,0:0|0:0|0:0|0:0,0:0:0:0:
377,39,77319,21,0,0:0:0:0:
311,102,77486,1,0,0:0:0:0:
230,58,77653,22,0,L|125:48,3,105,4|4|4|4,0:0|0:0|0:0|0:0,0:0:0:0:
171,134,78653,22,0,B|174:173|174:173|154:215,1,73.4999977569581
134,241,78986,22,0,L|238:231,3,105,4|4|4|4,0:0|0:0|0:0|0:0,0:0:0:0:
375,220,79986,21,0,0:0:0:0:
375,220,80069,1,0,0:0:0:0:
375,220,80153,1,0,0:0:0:0:
315,290,80319,22,0,P|363:328|408:305,3,115.50000352478,4|4|4|4,0:0|0:0|0:0|0:0,0:0:0:0:
375,220,81319,22,0,B|372:197|372:197|382:172|382:172|380:144,1,73.4999977569581,2|0,0:0|0:0,0:0:0:0:
400,96,81653,22,0,P|352:135|291:136,3,125.999996154785,4|4|4|4,0:0|0:0|0:0|0:0,0:0:0:0:
196,120,82653,22,0,B|193:143|193:143|199:172,1,48.9999985046387,2|0,0:0|0:0,0:0:0:0:
272,231,82986,1,2,0:0:0:0:
256,192,83069,12,0,85319,0:0:0:0:
88,147,85653,6,0,L|175:139,1,83.9999974365235,4|0,0:0|0:0,0:0:0:0:
206,62,85986,1,8,0:0:0:0:
255,130,86153,2,0,P|249:173|216:211,1,83.9999974365235,0|0,0:0|0:0,0:0:0:0:
171,139,86486,1,0,1:0:0:0:
207,63,86653,2,0,P|246:47|296:57,1,83.9999974365235,8|0,0:0|0:0,0:0:0:0:
339,138,86986,6,0,L|251:130,1,83.9999974365235,0|0,1:0|0:0,0:0:0:0:
171,139,87319,1,8,0:0:0:0:
86,147,87486,2,0,B|92:191|133:214|133:214|162:258|126:316,1,167.999994873047,0|0,0:0|1:0,0:0:0:0:
90,358,87986,2,0,P|128:374|169:368,1,83.9999974365235,8|0,0:0|0:0,0:0:0:0:
218,304,88319,38,0,P|270:284|326:280,1,112,4|0,0:0|0:0,0:0:0:0:
379,344,88819,1,0,0:0:0:0:
379,344,88903,1,0,0:0:0:0:
379,344,88986,2,0,P|414:300|459:268,1,112,8|0,0:0|0:0,0:0:0:0:
383,214,89486,1,2,0:0:0:0:
383,214,89653,6,0,P|339:178|307:133,1,112,4|0,0:0|0:0,0:0:0:0:
242,206,90153,1,0,0:0:0:0:
242,206,90236,1,0,0:0:0:0:
242,206,90319,2,0,P|186:207|132:193,1,112,8|0,0:0|0:0,0:0:0:0:
59,254,90819,1,2,0:0:0:0:
59,254,90903,1,0,0:0:0:0:
59,254,90986,38,0,B|14:197|55:137|55:137|93:75|49:18,1,251.999992309571,4|0,0:0|0:0,0:0:0:0:
156,57,91653,2,0,L|197:60,3,41.9999987182618,0|0|0|0,0:0|0:0|1:0|0:0,0:0:0:0:
152,87,91986,2,0,L|193:90,3,41.9999987182618,8|0|0|0,0:0|0:0|0:0|0:0,0:0:0:0:
148,117,92319,6,0,B|144:160|144:160|158:199|158:199|154:244,3,125.999996154785,2|2|2|2,0:0|0:0|0:0|0:0,2:0:0:0:
96,299,93319,37,10,0:0:0:0:
120,318,93402,1,0,0:0:0:0:
151,325,93485,1,2,0:0:0:0:
181,320,93568,1,0,0:0:0:0:
208,304,93653,6,0,L|211:347,3,35,0|0|0|0,1:0|0:0|0:0|0:0,0:0:0:0:
240,308,93986,2,0,L|243:342,3,35,0|0|0|0,0:0|0:0|0:0|0:0,0:0:0:0:
272,312,94319,2,0,L|275:346,3,35,0|0|0|0,1:0|0:0|0:0|0:0,0:0:0:0:
304,316,94653,2,0,L|307:350,3,35,0|0|0|0,0:0|0:0|0:0|0:0,0:0:0:0:
335,288,94986,38,0,L|338:244,3,35,0|0|0|0,1:0|0:0|0:0|0:0,0:0:0:0:
367,284,95319,2,0,L|370:249,3,35,0|0|0|0,0:0|0:0|0:0|0:0,0:0:0:0:
399,280,95652,5,0,1:0:0:0:
399,280,95736,1,0,0:0:0:0:
399,280,95819,1,0,0:0:0:0:
399,280,95903,2,0,L|408:176,1,105,0|0,0:0|0:0,0:0:0:0:
378,99,96319,38,0,B|342:120|342:120|258:113,1,125.999996154785,6|0,0:0|0:0,0:0:0:0:
216,108,96653,1,8,0:0:0:0:
148,58,96819,2,0,P|132:97|142:147,1,83.9999974365235,2|0,0:0|0:0,0:0:0:0:
202,190,97153,1,0,1:0:0:0:
266,242,97319,2,0,P|271:283|256:322,1,83.9999974365235,10|0,0:0|0:0,0:0:0:0:
104,278,97653,6,0,L|192:270,1,83.9999974365235,0|0,1:0|0:0,0:0:0:0:
266,242,97986,1,8,0:0:0:0:
344,213,98153,2,0,B|453:220|453:220|496:275,1,167.999994873047,0|0,0:0|1:0,0:0:0:0:
413,302,98653,2,0,L|325:294,1,83.9999974365235,8|2,0:0|0:0,0:0:0:0:
281,160,98986,38,0,P|333:138|360:188,1,125.999996154785,6|0,0:0|0:0,0:0:0:0:
344,213,99319,1,8,0:0:0:0:
266,242,99486,2,0,P|227:225|201:193,1,83.9999974365235,2|0,0:0|0:0,0:0:0:0:
213,106,99819,1,0,1:0:0:0:
224,19,99986,2,0,L|312:27,1,83.9999974365235,10|0,0:0|0:0,0:0:0:0:
364,153,100319,6,0,L|276:161,1,83.9999974365235,0|0,1:0|0:0,0:0:0:0:
213,106,100653,2,0,L|125:114,1,83.9999974365235,8|0,0:0|0:0,0:0:0:0:
100,144,100903,2,0,P|84:183|94:233,1,83.9999974365235,0|0,1:0|0:0,0:0:0:0:
105,262,101153,1,0,1:0:0:0:
130,341,101319,2,0,L|218:349,1,83.9999974365235,8|2,0:0|0:0,0:0:0:0:
267,253,101653,38,0,B|231:274|231:274|147:267,1,125.999996154785,6|2,0:0|0:0,0:0:0:0:
105,262,101987,1,8,0:0:0:0:
131,185,102153,2,0,L|219:193,1,83.9999974365235,2|0,0:0|0:0,0:0:0:0:
267,253,102486,1,0,1:0:0:0:
319,313,102653,2,0,L|407:305,1,83.9999974365235,10|0,0:0|0:0,0:0:0:0:
473,350,102986,6,0,P|484:310|476:269,1,83.9999974365235,0|0,1:0|0:0,0:0:0:0:
408,224,103319,1,8,0:0:0:0:
340,179,103486,2,0,B|300:135|300:135|312:26,1,167.999994873047,0|0,0:0|1:0,0:0:0:0:
396,26,103986,2,0,L|385:114,1,83.9999974365235,8|2,0:0|0:0,0:0:0:0:
277,145,104319,38,0,P|217:155|159:114,1,125.999996154785,6|2,0:0|0:0,0:0:0:0:
150,81,104653,1,8,0:0:0:0:
81,128,104819,2,0,L|91:211,1,83.9999974365235,2|0,0:0|0:0,0:0:0:0:
104,295,105153,1,0,1:0:0:0:
171,242,105319,2,0,L|254:252,1,83.9999974365235,10|0,0:0|0:0,0:0:0:0:
306,322,105653,6,0,L|301:377,3,41.9999987182618,0|0|2|0,1:0|0:0|0:0|0:0,0:0:0:0:
339,318,105986,2,0,L|334:373,3,41.9999987182618,8|2|0|0,0:0|0:0|0:0|1:0,0:0:0:0:
372,314,106319,38,0,L|368:272,1,41.9999987182618,2|0,0:0|1:0,0:0:0:0:
397,241,106486,2,0,L|404:157,1,83.9999974365235,8|0,0:0|1:0,0:0:0:0:
410,115,106736,1,8,0:0:0:0:
339,68,106903,1,8,0:0:0:0:
339,68,106986,22,0,B|296:72|296:72|257:58|257:58|212:62,3,125.999996154785,14|0|0|0,0:0|2:0|2:0|2:0,2:0:0:0:
119,20,107986,22,0,P|108:60|116:101,1,83.9999974365235,10|0,0:0|0:0,0:0:0:0:
199,168,108319,2,0,B|220:204|220:204|213:288,1,125.999996154785,2|0,1:2|0:0,0:0:0:0:
207,330,108653,1,8,0:0:0:0:
305,330,108819,1,0,0:0:0:0:
305,330,108903,1,0,1:0:0:0:
305,330,108986,2,0,L|389:337,1,83.9999974365235,2|0,0:0|1:0,0:0:0:0:
460,381,109319,2,0,P|471:341|463:300,1,83.9999974365235,8|2,0:0|0:0,0:0:0:0:
394,254,109653,6,0,B|373:218|373:218|380:134,1,125.999996154785,6|0,0:0|0:0,0:0:0:0:
386,92,109987,1,8,0:0:0:0:
429,20,110153,2,0,P|389:9|348:17,1,83.9999974365235,2|0,0:0|0:0,0:0:0:0:
302,87,110486,1,0,1:0:0:0:
259,159,110653,2,0,P|218:167|177:156,1,83.9999974365235,10|0,0:0|0:0,0:0:0:0:
91,115,110986,38,0,L|98:199,1,83.9999974365235,0|0,1:0|0:0,0:0:0:0:
106,282,111319,2,0,P|146:271|187:279,1,83.9999974365235,8|0,0:0|0:0,0:0:0:0:
225,296,111569,2,0,P|265:304|306:293,1,83.9999974365235,0|0,1:0|1:0,0:0:0:0:
343,276,111819,1,0,1:0:0:0:
384,202,111986,1,8,0:0:0:0:
340,130,112153,1,2,1:2:0:0:
340,130,112236,1,8,0:0:0:0:
340,130,112320,22,0,L|345:75,3,41.9999987182618,6|0|0|2,1:2|0:0|0:0|0:0,0:0:0:0:
307,134,112653,2,0,L|312:79,3,41.9999987182618,0|0|2|0,0:0|0:0|0:0|0:0,0:0:0:0:
274,138,112986,2,0,L|279:83,3,41.9999987182618,0|2|0|0,0:0|0:0|0:0|0:0,0:0:0:0:
241,142,113319,2,0,L|246:87,3,41.9999987182618,2|0|0|2,0:0|0:0|0:0|0:0,0:0:0:0:
220,168,113653,6,0,L|225:223,3,41.9999987182618,0|0|2|0,0:0|0:0|0:0|0:0,0:0:0:0:
187,164,113986,2,0,L|192:219,3,41.9999987182618,0|2|0|0,0:0|0:0|0:0|0:0,0:0:0:0:
154,160,114319,2,0,L|159:215,3,41.9999987182618,2|0|0|2,0:0|0:0|0:0|0:0,0:0:0:0:
121,156,114652,2,0,L|126:211,3,41.9999987182618,0|0|2|0,0:0|0:0|0:0|0:0,0:0:0:0:
88,138,114986,6,0,P|48:127|7:135,1,83.9999974365235,2|0,1:2|1:0,0:0:0:0:
45,210,115319,2,0,L|52:294,1,83.9999974365235,0|2,1:0|1:2,0:0:0:0:
127,326,115653,5,0,1:0:0:0:
193,277,115819,1,0,1:0:0:0:
269,310,115986,1,2,1:2:0:0:
335,261,116153,1,0,1:0:0:0:
411,294,116319,38,0,L|466:289,3,41.9999987182618,0|0|2|0,1:0|1:0|1:2|1:0,0:0:0:0:
415,261,116653,2,0,L|470:256,3,41.9999987182618,0|2|0|0,1:0|1:2|1:1|1:0,0:0:0:0:
419,228,116986,2,0,L|474:223,3,41.9999987182618,2|0|8|2,1:2|1:0|0:0|1:2,0:0:0:0:
423,195,117319,2,0,L|478:190,3,41.9999987182618,0|8|2|8,1:0|0:0|1:2|0:0,0:0:0:0:
427,162,117653,1,4,0:0:0:0:
