osu file format v14

[General]
AudioFilename: audio.mp3
AudioLeadIn: 0
PreviewTime: 85653
Countdown: 0
SampleSet: Soft
StackLeniency: 0.4
Mode: 0
LetterboxInBreaks: 0
WidescreenStoryboard: 0

[Editor]
Bookmarks: 9653,16653,21653,26986,32319,37653,42986,53653,64319,74986,81319,82986,93653,96319,104986,105653,112319,114986,117153,117403,117569,117653
DistanceSpacing: 1
BeatDivisor: 4
GridSize: 4
TimelineZoom: 3.400004

[Metadata]
Title:Yggdrasil (Original Mix)
TitleUnicode:Yggdrasil (Original Mix)
Artist:MYTK
ArtistUnicode:MYTK
Creator:Lulu-
Version:Yamicchi's Extra
Source:
Tags:dubstep drumstep dnb artcore kac2013 voez yamicchi dtm9 nowa rvmathew underdogs lowcombofc newton-
BeatmapID:1517908
BeatmapSetID:554801

[Difficulty]
HPDrainRate:5
CircleSize:3
OverallDifficulty:8
ApproachRate:9.4
SliderMultiplier:2
SliderTickRate:1

[Events]
//Background and Video events
0,0,"60393234_p0.jpg",0,0
//Break Periods
2,21853,26446
2,53853,63779
//Storyboard Layer 0 (Background)
//Storyboard Layer 1 (Fail)
//Storyboard Layer 2 (Pass)
//Storyboard Layer 3 (Foreground)
//Storyboard Sound Samples

[TimingPoints]
320,333.333333333333,4,2,1,40,1,0
320,-169.491525423729,4,2,1,40,0,0
5653,-169.491525423729,4,2,2,40,0,0
5736,-169.491525423729,4,2,1,40,0,0
9653,-100,4,2,1,50,0,0
10319,-80,4,2,1,50,0,0
10986,-169.491525423729,4,2,1,40,0,0
13653,-169.491525423729,4,2,2,40,0,0
13736,-169.491525423729,4,2,1,40,0,0
15819,-100,4,2,1,50,0,0
16319,-100,4,2,1,5,0,0
16653,-121.951219512195,4,2,1,50,0,0
20319,-200,4,2,1,50,0,0
20419,-200,4,2,1,50,0,0
20986,-80,4,2,1,50,0,0
26986,-200,4,2,2,40,0,0
27069,-200,4,2,1,40,0,0
27653,-133.333333333333,4,2,1,45,0,0
28319,-100,4,2,1,50,0,0
28986,-80,4,2,1,55,0,0
29653,-133.333333333333,4,2,1,60,0,0
29986,-100,4,2,1,65,0,0
30319,-90.9090909090909,4,2,1,70,0,0
30986,-200,4,2,1,65,0,0
31319,-250,4,2,1,60,0,0
31653,-333.333333333333,4,2,1,50,0,0
31986,-83.3333333333333,4,2,1,40,0,0
32319,-66.6666666666667,4,2,1,70,0,0
32903,-66.6666666666667,4,2,1,5,0,0
32986,-50,4,2,1,70,0,0
33007,-50,4,2,1,30,0,0
34153,-66.6666666666667,4,2,1,70,0,0
34986,-100,4,2,1,70,0,0
35486,-100,4,2,1,70,0,0
35653,-100,4,2,1,70,0,0
36153,-100,4,2,1,70,0,0
36319,-100,4,2,1,70,0,0
36819,-100,4,2,1,70,0,0
36986,-100,4,2,1,70,0,0
37653,-66.6666666666667,4,2,1,70,0,0
38319,-100,4,2,1,60,0,0
38986,-100,4,2,1,65,0,0
39653,-66.6666666666667,4,2,1,70,0,0
40319,-133.333333333333,4,2,1,65,0,0
40986,-133.333333333333,4,2,1,65,0,0
41486,-133.333333333333,4,2,1,65,0,0
41653,-133.333333333333,4,2,1,65,0,0
42153,-133.333333333333,4,2,1,65,0,0
42986,-50,4,2,1,70,0,0
43007,-50,4,2,1,30,0,0
43486,-50,4,2,1,70,0,0
43674,-50,4,2,1,30,0,0
43903,-50,4,2,1,70,0,0
43924,-50,4,2,1,30,0,0
44153,-50,4,2,1,70,0,0
44340,-50,4,2,1,30,0,0
44736,-66.6666666666667,4,2,1,70,0,0
44986,-66.6666666666667,4,2,1,70,0,0
45403,-66.6666666666667,4,2,1,70,0,0
45653,-100,4,2,1,70,0,0
46153,-100,4,2,1,65,0,0
46319,-100,4,2,1,65,0,0
46819,-100,4,2,1,65,0,0
46986,-100,4,2,1,65,0,0
47486,-100,4,2,1,65,0,0
47653,-100,4,2,1,65,0,0
48069,-100,4,2,1,65,0,0
48153,-100,4,2,2,65,0,0
48236,-100,4,2,1,65,0,0
48319,-66.6666666666667,4,2,1,70,0,0
48903,-66.6666666666667,4,2,1,5,0,0
48986,-100,4,2,1,54,0,0
49069,-100,4,2,1,56,0,0
49153,-100,4,2,1,58,0,0
49236,-100,4,2,1,60,0,0
49319,-100,4,2,1,62,0,0
49403,-100,4,2,1,64,0,0
49486,-100,4,2,1,66,0,0
49569,-100,4,2,1,68,0,0
49653,-100,4,2,1,70,0,0
49986,-80,4,2,1,70,0,0
50319,-66.6666666666667,4,2,1,70,0,0
50653,-66.6666666666667,4,2,1,70,0,0
50986,-133.333333333333,4,2,1,70,0,0
51486,-133.333333333333,4,2,1,65,0,0
51653,-133.333333333333,4,2,1,65,0,0
52153,-133.333333333333,4,2,1,65,0,0
52319,-133.333333333333,4,2,1,65,0,0
52819,-100,4,2,1,65,0,0
52986,-83.3333333333333,4,2,1,70,0,0
53319,-83.3333333333333,4,2,1,70,0,0
53653,-83.3333333333333,4,2,1,70,0,0
64319,-142.857142857143,4,2,1,50,0,0
66986,-142.857142857143,4,2,1,55,0,0
68986,-142.857142857143,4,2,1,60,0,0
69653,-100,4,2,1,60,0,0
70653,-100,4,2,1,65,0,0
71653,-100,4,2,1,70,0,0
72319,-83.3333333333333,4,2,1,70,0,0
72569,-125,4,2,1,70,0,0
72819,-90.9090909090909,4,2,1,60,0,0
73069,-142.857142857143,4,2,1,60,0,0
73319,-100,4,2,1,50,0,0
73569,-166.666666666667,4,2,1,50,0,0
73819,-90.9090909090909,4,2,1,60,0,0
74069,-142.857142857143,4,2,1,60,0,0
74319,-83.3333333333333,4,2,1,70,0,0
74736,-66.6666666666667,4,2,1,75,0,0
74986,-55.5555555555556,4,2,1,80,0,1
75153,-166.666666666667,4,2,1,5,0,1
75236,-55.5555555555556,4,2,1,80,0,1
75403,-55.5555555555556,4,2,1,5,0,1
75486,-55.5555555555556,4,2,1,80,0,1
75653,-55.5555555555556,4,2,1,5,0,1
75736,-55.5555555555556,4,2,1,80,0,1
75903,-55.5555555555556,4,2,1,5,0,1
75986,-200,4,2,1,60,0,0
76236,-55.5555555555556,4,2,1,5,0,0
76319,-55.5555555555556,4,2,1,80,0,1
76486,-55.5555555555556,4,2,1,5,0,1
76569,-55.5555555555556,4,2,1,80,0,1
76736,-55.5555555555556,4,2,1,5,0,1
76819,-55.5555555555556,4,2,1,80,0,1
76986,-55.5555555555556,4,2,1,5,0,1
77069,-55.5555555555556,4,2,1,80,0,1
77236,-55.5555555555556,4,2,1,5,0,1
77319,-100,4,2,1,60,0,0
77403,-100,4,2,1,5,0,0
77486,-100,4,2,1,60,0,0
77569,-100,4,2,1,5,0,0
77653,-55.5555555555556,4,2,1,80,0,1
77819,-55.5555555555556,4,2,1,5,0,1
77903,-55.5555555555556,4,2,1,80,0,1
78069,-55.5555555555556,4,2,1,5,0,1
78153,-55.5555555555556,4,2,1,80,0,1
78319,-55.5555555555556,4,2,1,5,0,1
78403,-55.5555555555556,4,2,1,80,0,1
78569,-55.5555555555556,4,2,1,5,0,1
78653,-200,4,2,1,60,0,0
78903,-200,4,2,1,5,0,0
78986,-55.5555555555556,4,2,1,80,0,1
79153,-55.5555555555556,4,2,1,5,0,1
79236,-55.5555555555556,4,2,1,80,0,1
79403,-55.5555555555556,4,2,1,5,0,1
79486,-55.5555555555556,4,2,1,80,0,1
79653,-55.5555555555556,4,2,1,5,0,1
79736,-55.5555555555556,4,2,1,80,0,1
79903,-55.5555555555556,4,2,1,5,0,1
79986,-166.666666666667,4,2,1,60,0,0
80069,-166.666666666667,4,2,1,65,0,0
80153,-166.666666666667,4,2,1,70,0,0
80236,-166.666666666667,4,2,1,75,0,0
80319,-55.5555555555556,4,2,1,80,0,1
81319,-200,4,2,1,60,0,0
81653,-50,4,2,1,80,0,1
82653,-200,4,2,1,60,0,0
82986,-50,4,2,1,50,0,0
83319,-50,4,2,1,55,0,0
83653,-50,4,2,1,60,0,0
83986,-50,4,2,1,65,0,0
84319,-50,4,2,1,70,0,0
84653,-50,4,2,1,75,0,0
84986,-66.6666666666667,4,2,1,80,0,0
85319,-66.6666666666667,4,2,1,85,0,0
85653,-55.5555555555556,4,2,1,90,0,1
85986,-200,4,2,1,90,0,1
86653,-50,4,2,1,90,0,1
86674,-50,4,2,1,40,0,1
86986,-55.5555555555556,4,2,1,90,0,1
88319,-100,4,2,1,70,0,0
88819,-100,4,2,1,70,0,0
88986,-100,4,2,1,70,0,0
89486,-100,4,2,1,70,0,0
89653,-100,4,2,1,70,0,0
90153,-100,4,2,1,70,0,0
90319,-100,4,2,1,70,0,0
90653,-100,4,2,1,70,0,0
90819,-100,4,2,2,70,0,0
90903,-100,4,2,1,70,0,0
90986,-55.5555555555556,4,2,1,90,0,1
92319,-100,4,2,1,90,0,1
92403,-100,4,2,1,5,0,1
92569,-80,4,2,1,90,0,1
92653,-80,4,2,1,5,0,1
92819,-66.6666666666667,4,2,1,90,0,1
92903,-66.6666666666667,4,2,1,5,0,1
93069,-57.1428571428571,4,2,1,90,0,1
93153,-57.1428571428571,4,2,1,5,0,1
93319,-100,4,2,1,90,0,1
93653,-100,4,2,1,70,0,0
94153,-100,4,2,1,75,0,0
94653,-100,4,2,1,80,0,0
95153,-100,4,2,1,85,0,0
95653,-100,4,2,1,90,0,0
96319,-83.3333333333333,4,2,1,95,0,1
105653,-83.3333333333333,4,2,1,70,0,1
106319,-83.3333333333333,4,2,1,75,0,1
106986,-125,4,2,1,80,0,0
107986,-55.5555555555556,4,2,1,90,0,1
108319,-83.3333333333333,4,2,2,90,0,1
108403,-83.3333333333333,4,2,1,90,0,1
112319,-100,4,2,1,65,0,0
113319,-100,4,2,1,70,0,0
114319,-100,4,2,1,75,0,0
114986,-100,4,2,1,80,0,1
115319,-80,4,2,1,80,0,1
115653,-66.6666666666667,4,2,1,80,0,1
115986,-57.1428571428571,4,2,1,80,0,1
116986,-66.6666666666667,4,2,1,80,0,1
117653,-200,4,2,1,85,0,0
117986,-142.857142857143,4,2,1,5,0,0

[Colours]
Combo1 : 247,51,51
Combo2 : 255,128,255
Combo3 : 0,128,255
Combo4 : 247,124,51

[HitObjects]
216,248,320,5,4,0:0:0:0:
302,263,569,1,0,0:0:0:0:
389,278,819,1,0,0:0:0:0:
476,294,1069,1,0,0:0:0:0:
131,264,1319,5,0,0:0:0:0:
216,248,1568,1,0,0:0:0:0:
303,233,1818,1,0,0:0:0:0:
391,218,2068,1,0,0:0:0:0:
46,250,2319,1,0,0:0:0:0:
131,264,2568,1,0,0:0:0:0:
218,279,2818,1,0,0:0:0:0:
113,86,2986,38,0,L|121:179,3,88.4999968940736
218,279,3986,6,0,L|226:372,3,88.4999968940736,0|0|0|0,0:0|0:0|0:0|0:0,0:0:0:0:
200,184,4986,37,0,0:0:0:0:
208,272,5236,1,0,0:0:0:0:
216,360,5486,1,0,0:0:0:0:
376,112,5653,5,2,0:0:0:0:
312,176,5903,1,0,0:0:0:0:
376,240,6153,1,0,0:0:0:0:
440,176,6403,1,0,0:0:0:0:
202,112,6653,37,0,0:0:0:0:
225,199,6903,1,0,0:0:0:0:
312,176,7153,1,0,0:0:0:0:
289,88,7403,1,0,0:0:0:0:
138,221,7653,5,0,0:0:0:0:
201,285,7903,1,0,0:0:0:0:
225,198,8153,1,0,0:0:0:0:
40,72,8319,38,0,B|32:104|32:104|40:176,3,88.4999968940736
113,350,9319,6,0,B|121:318|121:318|113:246,1,88.4999968940736,0|0,0:0|0:0,0:0:0:0:
52,200,9653,6,0,L|44:136,5,50
144,28,10153,2,0,L|137:77,1,50,0|0,1:0|0:0,0:0:0:0:
114,262,10319,2,0,B|192:256|192:256|209:263|209:263|225:255|225:255|308:250,1,187.5,8|0,0:0|0:0,0:0:0:0:
384,296,10653,1,8,0:0:0:0:
384,296,10736,2,0,L|464:292,1,62.5,0|8,0:0|0:0,0:0:0:0:
441,70,10903,1,0,0:0:0:0:
441,70,10986,21,4,0:0:0:0:
449,158,11236,1,0,0:0:0:0:
376,208,11486,1,0,0:0:0:0:
384,296,11736,1,0,0:0:0:0:
428,64,11986,5,0,0:0:0:0:
436,152,12236,1,0,0:0:0:0:
363,202,12486,1,0,0:0:0:0:
371,290,12736,1,0,0:0:0:0:
415,58,12986,37,0,0:0:0:0:
423,146,13236,1,0,0:0:0:0:
350,196,13486,1,0,0:0:0:0:
366,372,13653,6,0,L|358:284,3,88.4999968940736,2|0|0|0,0:0|0:0|0:0|0:0,0:0:0:0:
270,157,14653,38,0,L|278:68,3,88.4999968940736
344,280,15653,5,0,0:0:0:0:
127,230,15819,5,0,1:0:0:0:
127,230,15903,2,0,P|92:224|60:224,1,50,0|0,0:0|1:0,0:0:0:0:
239,196,16069,2,0,P|261:168|277:140,1,50,0|0,1:0|0:0,0:0:0:0:
212,309,16236,1,0,1:0:0:0:
256,72,16653,37,4,0:0:0:0:
256,192,16736,12,0,20153,0:0:0:0:
366,125,20319,38,0,L|353:268,1,125,2|0,0:0|0:0,0:0:0:0:
347,340,20819,1,0,1:0:0:0:
456,145,20986,22,0,B|381:138|381:138|366:125|366:125|349:135|349:135|245:126,1,187.5,8|0,0:0|0:0,0:0:0:0:
184,92,21319,1,0,1:0:0:0:
184,92,21403,2,0,B|177:121|177:121|181:153,1,62.5,0|0,1:0|1:0,0:0:0:0:
212,360,21569,1,0,1:0:0:0:
212,360,21653,21,0,1:0:0:0:
188,176,26986,54,0,P|199:197|208:221,1,50,2|0,0:0|0:0,0:0:0:0:
307,154,27319,2,0,P|303:178|303:203,1,50,0|0,0:0|0:0,0:0:0:0:
138,108,27653,6,0,P|168:129|192:158,1,75.0000028610231
329,74,27986,2,0,P|307:104|295:139,1,75.0000028610231,0|0,0:0|0:0,0:0:0:0:
43,78,28319,38,0,P|92:70|139:85,1,100
409,14,28653,2,0,P|360:23|321:54,1,100,0|0,0:0|0:0,0:0:0:0:
172,380,28986,6,0,P|148:320|160:260,1,125,0|0,0:0|0:0,0:0:0:0:
448,152,29319,1,0,0:0:0:0:
256,312,29486,1,0,0:0:0:0:
252,304,29569,1,0,0:0:0:0:
248,296,29653,6,0,P|244:268|244:236,1,37.5000014305115,0|0,0:0|0:0,0:0:0:0:
272,104,29819,2,0,P|270:122|267:141,1,37.5000014305115,0|0,0:0|0:0,0:0:0:0:
168,324,29986,6,0,P|163:282|166:247,1,50,0|0,0:0|0:0,0:0:0:0:
352,104,30153,2,0,P|351:128|347:153,1,50,0|0,0:0|0:0,0:0:0:0:
152,184,30319,37,0,0:0:0:0:
113,180,30403,1,0,0:0:0:0:
81,160,30486,1,0,0:0:0:0:
61,128,30569,1,0,0:0:0:0:
35,229,30653,5,0,0:0:0:0:
80,231,30737,1,0,0:0:0:0:
122,216,30820,1,0,0:0:0:0:
152,184,30903,1,0,0:0:0:0:
144,96,30986,6,0,L|140:56,3,25
224,133,31319,6,0,L|236:100,3,20,0|0|0|0,0:0|0:0|0:0|0:0,0:0:0:0:
231,220,31653,38,0,L|256:212,3,14.9999995422363
159,269,31986,1,2,0:0:0:0:
160,275,32069,1,0,0:0:0:0:
161,281,32153,1,0,0:0:0:0:
162,287,32236,1,0,0:0:0:0:
176,372,32319,22,0,B|184:344|220:320|220:320|171:341|123:325|139:317|91:301|35:325|35:325|91:301|123:229|83:165|-5:165|-29:221|6:247,1,525.000020027161,4|0,0:0|0:0,0:0:0:0:
6,248,32986,6,0,L|40:252,52,25,8|0|0|0|0|0|0|0|0|0|0|0|0|0|0|0|0|0|0|0|0|0|0|0|0|0|0|0|0|0|0|0|0|0|0|0|0|0|0|0|0|0|0|0|0|0|0|0|0|0|0|0|0,0:0|0:0|0:0|0:0|0:0|0:0|0:0|0:0|0:0|0:0|0:0|0:0|0:0|0:0|0:0|0:0|0:0|0:0|0:0|0:0|0:0|0:0|0:0|0:0|0:0|0:0|0:0|0:0|0:0|0:0|0:0|0:0|0:0|0:0|0:0|0:0|0:0|0:0|0:0|0:0|0:0|0:0|0:0|0:0|0:0|0:0|0:0|0:0|0:0|0:0|0:0|0:0|0:0,0:0:0:0:
120,184,34153,1,0,1:0:0:0:
320,344,34319,38,0,L|224:352,1,75.0000028610231,8|0,0:0|0:0,0:0:0:0:
208,192,34486,1,0,1:0:0:0:
208,192,34569,2,0,L|304:200,1,75.0000028610231,0|0,1:0|0:0,0:0:0:0:
480,328,34736,2,0,L|384:336,1,75.0000028610231,0|0,1:0|0:0,0:0:0:0:
160,360,34903,1,0,1:0:0:0:
160,360,34986,22,0,B|88:304|144:220|144:220|204:252|204:296,1,250,4|0,0:0|0:0,0:0:0:0:
203,285,35486,1,2,1:2:0:0:
412,200,35653,6,0,B|484:144|428:60|428:60|368:92|368:136,1,250,8|0,0:0|0:0,0:0:0:0:
324,216,36153,1,2,1:2:0:0:
324,216,36236,1,2,0:0:0:0:
324,216,36319,38,0,B|288:301|288:301|220:225|220:225|296:216,1,250,4|0,0:0|0:0,0:0:0:0:
420,208,36819,1,2,1:2:0:0:
420,208,36903,1,2,1:2:0:0:
420,208,36986,6,0,B|500:196|500:196|460:132,1,150,8|0,0:0|0:0,0:0:0:0:
416,64,37319,1,0,0:0:0:0:
416,64,37403,1,0,0:0:0:0:
416,64,37486,2,0,L|384:16,1,50,0|0,0:0|0:0,0:0:0:0:
264,48,37653,6,0,B|240:56|240:56|212:48|212:48|208:68|208:68|140:40|72:64|19:145|68:220|100:269|195:273|252:224|256:171|249:127,1,525.000020027161,4|0,0:0|0:0,0:0:0:0:
165,147,38319,21,8,0:0:0:0:
128,175,38403,1,0,0:0:0:0:
112,216,38486,1,0,0:0:0:0:
118,259,38569,1,0,0:0:0:0:
143,296,38653,1,0,0:0:0:0:
186,307,38736,1,0,0:0:0:0:
230,302,38819,1,0,0:0:0:0:
269,279,38903,1,0,0:0:0:0:
304,316,38986,5,0,0:0:0:0:
352,328,39069,1,0,0:0:0:0:
400,316,39152,1,0,0:0:0:0:
436,280,39236,1,0,0:0:0:0:
444,232,39319,1,0,0:0:0:0:
428,184,39402,1,0,0:0:0:0:
384,160,39486,22,0,L|298:168,1,50,0|0,1:0|0:0,0:0:0:0:
143,296,39653,2,0,B|134:208|134:208|150:180|150:180|138:56,1,225.000008583069,8|0,0:0|0:0,0:0:0:0:
48,72,39986,1,0,1:0:0:0:
48,72,40069,2,0,L|56:160,1,75.0000028610231,0|0,1:0|1:0,0:0:0:0:
230,302,40236,1,0,1:0:0:0:
230,302,40319,21,4,0:0:0:0:
230,302,40486,2,0,B|344:292|344:292|316:324,1,150.000005722046,0|2,0:0|0:0,0:0:0:0:
120,208,40986,5,8,0:0:0:0:
120,208,41153,2,0,B|6:198|6:198|34:230,1,150.000005722046,0|0,0:0|1:0,0:0:0:0:
230,114,41652,37,4,0:0:0:0:
230,114,41819,2,0,B|344:104|344:104|316:136,1,150.000005722046,0|0,0:0|1:0,0:0:0:0:
120,20,42319,5,10,0:0:0:0:
120,20,42486,2,0,B|6:10|6:10|34:42,1,150.000005722046,0|2,0:0|1:2,0:0:0:0:
112,104,42903,1,0,1:0:0:0:
112,104,42986,6,0,L|144:108,20,25,4|0|0|0|0|0|0|0|0|0|0|0|0|0|0|0|0|0|0|0|0,0:0|0:0|0:0|0:0|0:0|0:0|0:0|0:0|0:0|0:0|0:0|0:0|0:0|0:0|0:0|0:0|0:0|0:0|0:0|0:0|0:0,0:0:0:0:
208,36,43486,1,2,0:0:0:0:
300,232,43653,6,0,L|268:236,8,25,0|0|0|0|0|0|0|0|0,1:0|0:0|0:0|0:0|0:0|0:0|0:0|0:0|0:0,0:0:0:0:
136,204,43903,2,0,L|168:208,8,25,8|0|0|0|0|0|0|0|0,0:0|0:0|0:0|0:0|0:0|0:0|0:0|0:0|0:0,0:0:0:0:
232,136,44153,1,0,0:0:0:0:
204,300,44319,38,0,L|200:332,16,25,4|0|0|0|0|0|0|0|0|0|0|0|0|0|0|0|0,0:0|0:0|0:0|0:0|0:0|0:0|0:0|0:0|0:0|0:0|0:0|0:0|0:0|0:0|0:0|0:0|0:0,0:0:0:0:
300,232,44736,1,0,0:0:0:0:
300,232,44819,2,0,L|308:324,1,75.0000028610231,8|0,1:2|0:0,0:0:0:0:
396,164,44986,6,0,L|404:72,1,75.0000028610231,8|0,0:0|0:0,0:0:0:0:
268,12,45153,1,0,0:0:0:0:
268,12,45236,2,0,L|276:104,1,75.0000028610231,0|0,0:0|0:0,0:0:0:0:
287,243,45403,2,0,L|295:335,1,75.0000028610231,0|0,0:0|0:0,0:0:0:0:
408,152,45569,1,0,0:0:0:0:
408,152,45653,6,0,B|432:92|508:92|508:92|532:172|468:216,1,250,4|0,0:0|0:0,0:0:0:0:
480,206,46153,2,0,P|460:228|432:240,1,50,0|2,1:0|0:0,0:0:0:0:
323,186,46319,6,0,B|268:158|211:219|211:219|249:285|313:276,1,250,8|2,0:0|0:0,0:0:0:0:
311,276,46819,1,2,0:0:0:0:
336,95,46986,38,0,B|352:180|352:180|348:244|348:244|372:348,1,250,4|0,0:0|0:0,0:0:0:0:
440,252,47486,1,2,1:2:0:0:
440,252,47569,1,2,0:0:0:0:
440,252,47653,6,0,B|372:236|372:236|232:256,1,200,8|2,0:0|0:0,0:0:0:0:
139,252,48069,2,0,P|146:214|160:190,1,50,0|2,0:0|0:0,0:0:0:0:
340,96,48236,1,0,0:0:0:0:
234,343,48319,6,0,B|212:352|212:352|188:344|188:344|164:368|164:368|104:380|44:360|4:292|20:224|20:224|64:216|96:168|96:168|152:192|136:296,1,525.000020027161,4|0,0:0|0:0,0:0:0:0:
276,184,48986,6,0,P|240:168|216:164,7,50,10|0|0|0|2|0|0|0,0:0|0:0|0:0|0:0|0:0|0:0|0:0|0:0,0:0:0:0:
251,64,49653,1,2,0:0:0:0:
201,64,49736,1,0,0:0:0:0:
158,88,49819,1,2,0:0:0:0:
131,130,49903,1,0,0:0:0:0:
82,40,49986,37,2,0:0:0:0:
139,18,50070,1,0,0:0:0:0:
201,27,50153,1,2,0:0:0:0:
251,64,50236,1,0,0:0:0:0:
296,152,50319,6,0,L|288:252,1,75.0000028610231,2|0,0:0|0:0,0:0:0:0:
422,74,50486,2,0,B|388:64|388:64|350:70,1,75.0000028610231,2|0,1:2|0:0,0:0:0:0:
163,303,50653,1,2,1:2:0:0:
163,303,50736,2,0,B|197:313|197:313|235:307,1,75.0000028610231,8|2,0:0|1:2,0:0:0:0:
499,200,50903,1,8,0:0:0:0:
499,200,50986,5,4,0:0:0:0:
424,256,51153,2,0,B|436:372|436:372|464:344,1,150.000005722046,0|2,0:0|0:0,0:0:0:0:
296,152,51653,5,8,0:0:0:0:
221,208,51820,2,0,B|233:324|233:324|261:296,1,150.000005722046,0|0,0:0|1:0,0:0:0:0:
93,104,52319,37,4,0:0:0:0:
18,160,52486,2,0,B|30:276|30:276|58:248,1,150.000005722046,0|0,0:0|1:0,0:0:0:0:
296,152,52986,5,10,0:0:0:0:
93,104,53236,1,0,0:0:0:0:
153,304,53486,1,0,0:0:0:0:
180,190,53653,37,0,1:0:0:0:
260,340,64319,54,0,L|268:184,1,139.999995727539,0|0,1:0|0:0,0:0:0:0:
488,124,64986,2,0,P|428:156|344:140,1,139.999995727539,8|0,0:0|0:0,0:0:0:0:
266,95,65486,2,0,B|216:72|168:96|168:96|120:120|64:96,1,209.999993591309,0|0,1:0|0:0,0:0:0:0:
63,95,66153,1,0,1:0:0:0:
142,317,66319,1,8,0:0:0:0:
168,184,66486,1,0,1:0:0:0:
38,229,66653,1,0,1:0:0:0:
38,229,66736,1,0,1:0:0:0:
142,317,66903,1,0,1:0:0:0:
142,317,66986,6,0,L|298:325,1,139.999995727539,2|0,1:2|0:0,0:0:0:0:
396,104,67486,1,2,1:2:0:0:
396,104,67653,2,0,L|240:112,1,139.999995727539,8|2,0:0|0:0,0:0:0:0:
256,348,68153,1,2,1:2:0:0:
256,348,68319,2,0,L|412:356,1,139.999995727539,2|0,1:2|0:0,0:0:0:0:
180,176,68819,1,0,1:0:0:0:
180,176,68903,1,0,1:0:0:0:
180,176,68986,2,0,L|24:184,1,139.999995727539,10|0,0:0|0:0,0:0:0:0:
396,104,69486,1,2,0:0:0:0:
256,348,69653,37,2,1:2:0:0:
252,256,69903,1,2,0:0:0:0:
325,114,70153,1,2,0:0:0:0:
329,206,70403,1,2,0:0:0:0:
244,344,70653,5,2,0:0:0:0:
240,252,70903,1,2,0:0:0:0:
313,110,71153,1,2,0:0:0:0:
317,202,71403,1,2,0:0:0:0:
232,340,71653,37,10,0:0:0:0:
228,248,71903,1,2,0:0:0:0:
305,198,72153,1,2,0:0:0:0:
500,348,72319,6,0,L|508:216,1,119.999996337891,2|0,1:2|0:0,0:0:0:0:
511,148,72569,2,0,L|506:227,1,80,2|0,0:0|0:0,0:0:0:0:
384,296,72819,38,0,L|376:167,1,110.000003356934,2|8,0:0|0:0,0:0:0:0:
374,116,73069,2,0,L|377:185,1,69.9999978637696,2|0,0:0|0:0,0:0:0:0:
256,364,73319,6,0,L|256:260,1,100,2|0,0:0|0:0,0:0:0:0:
256,204,73569,2,0,L|255:263,1,59.9999981689454,2|0,0:0|0:0,0:0:0:0:
128,296,73819,38,0,L|135:167,1,110.000003356934,2|0,0:0|0:0,0:0:0:0:
138,116,74069,2,0,L|134:185,1,69.9999978637696,2|0,0:0|0:0,0:0:0:0:
12,348,74319,22,0,L|4:216,1,119.999996337891,2|0,0:0|1:0,0:0:0:0:
0,140,74569,1,2,0:0:0:0:
0,140,74653,1,0,1:0:0:0:
104,200,74736,2,0,L|96:324,1,75.0000028610231,8|2,0:0|1:2,0:0:0:0:
104,80,74903,1,0,1:0:0:0:
104,80,74986,6,0,B|153:22|229:58|229:58|209:78|209:93,1,179.999994506836,4|0,0:0|0:0,0:0:0:0:
228,176,75236,2,0,P|264:204|262:113,1,179.999994506836,4|0,0:0|0:0,0:0:0:0:
146,151,75486,2,0,B|138:223|193:264|193:264|170:295|166:339,1,179.999994506836,4|0,0:0|0:0,0:0:0:0:
255,339,75736,2,0,B|255:315|283:287|283:287|335:331|403:315,1,179.999994506836,4|0,0:0|0:0,0:0:0:0:
480,304,75986,22,0,L|476:228,1,75
426,148,76319,22,0,B|390:200|390:200|394:336,1,179.999994506836,4|0,0:0|0:0,0:0:0:0:
376,308,76569,2,0,B|372:191|372:191|408:139,1,179.999994506836,4|0,0:0|0:0,0:0:0:0:
390,130,76819,2,0,B|354:182|354:182|358:299,1,179.999994506836,4|0,0:0|0:0,0:0:0:0:
339,289,77069,2,0,B|336:173|336:173|372:121,1,179.999994506836,4|0,0:0|0:0,0:0:0:0:
504,64,77319,22,0,L|454:60,1,50
248,168,77486,2,0,L|198:164,1,50,0|0,0:0|0:0,0:0:0:0:
0,64,77653,22,0,B|21:22|21:22|28:155,1,179.999994506836,4|0,0:0|0:0,0:0:0:0:
82,224,77903,2,0,B|89:357|89:357|115:307,1,179.999994506836,4|0,0:0|0:0,0:0:0:0:
169,207,78153,2,0,P|112:141|27:154,1,179.999994506836,4|0,0:0|0:0,0:0:0:0:
58,309,78403,2,0,P|141:289|168:207,1,179.999994506836,4|0,0:0|0:0,0:0:0:0:
344,44,78653,22,0,P|331:16|320:43,1,75
316,132,78986,22,0,B|380:128|380:128|416:108|416:108|496:104,1,179.999994506836,4|0,0:0|0:0,0:0:0:0:
496,120,79236,2,0,B|421:123|421:123|385:143|385:143|321:147,1,179.999994506836,4|0,0:0|0:0,0:0:0:0:
326,162,79486,2,0,B|390:158|390:158|426:138|426:138|501:135,1,179.999994506836,4|0,0:0|0:0,0:0:0:0:
506,150,79736,2,0,B|431:153|431:153|395:173|395:173|331:177,1,179.999994506836,4|0,0:0|0:0,0:0:0:0:
204,76,79986,21,0,0:0:0:0:
206,135,80069,1,0,0:0:0:0:
209,195,80152,1,0,0:0:0:0:
212,255,80235,1,0,0:0:0:0:
215,315,80319,22,0,P|136:368|48:312,1,179.999994506836,4|0,0:0|0:0,0:0:0:0:
120,186,80569,2,0,P|128:231|132:276,1,89.9999972534181,4|0,0:0|0:0,0:0:0:0:
300,348,80736,1,0,0:0:0:0:
300,348,80819,2,0,P|303:303|311:258,1,89.9999972534181,4|0,0:0|0:0,0:0:0:0:
488,188,80986,1,0,0:0:0:0:
488,188,81069,2,0,P|495:232|499:277,1,89.9999972534181,4|0,0:0|0:0,0:0:0:0:
471,99,81236,1,0,0:0:0:0:
471,99,81319,22,0,P|436:112|412:140,1,75,2|0,0:0|0:0,0:0:0:0:
377,164,81653,22,0,B|376:112|404:80|404:80|460:64|512:80,1,200,4|0,0:0|0:3,0:0:0:0:
413,272,81903,2,0,P|376:280|304:248,1,100,4|0,0:0|0:0,0:0:0:0:
227,73,82069,1,0,0:0:0:0:
227,73,82153,2,0,P|252:101|260:179,1,100,4|0,0:0|0:0,0:0:0:0:
148,334,82319,1,0,0:0:0:0:
148,334,82403,2,0,P|159:297|223:251,1,100,4|0,0:0|0:0,0:0:0:0:
404,256,82569,1,0,0:0:0:0:
404,256,82653,22,0,P|362:258|312:236,1,75,2|0,0:0|0:0,0:0:0:0:
212,80,82986,6,0,B|160:68|160:68|104:80,1,100,2|0,0:0|0:0,0:0:0:0:
107,255,83153,2,0,B|159:267|159:267|215:255,1,100,2|0,0:0|0:0,0:0:0:0:
213,63,83319,6,0,B|161:51|161:51|105:63,1,100,2|0,0:0|0:0,0:0:0:0:
106,272,83486,2,0,B|158:284|158:284|214:272,1,100,2|0,0:0|0:0,0:0:0:0:
160,156,83653,37,2,0:0:0:0:
165,155,83736,1,0,0:0:0:0:
171,155,83819,1,2,0:0:0:0:
177,155,83903,1,0,0:0:0:0:
183,154,83986,1,2,0:0:0:0:
171,139,84069,1,0,0:0:0:0:
151,133,84153,1,2,0:0:0:0:
131,137,84236,1,0,0:0:0:0:
116,150,84319,5,2,0:0:0:0:
67,140,84403,1,0,0:0:0:0:
37,102,84486,1,2,0:0:0:0:
26,54,84569,1,0,0:0:0:0:
44,9,84653,1,2,0:0:0:0:
92,16,84736,1,0,0:0:0:0:
136,40,84819,1,2,0:0:0:0:
160,84,84903,1,0,0:0:0:0:
160,140,84986,38,0,L|152:220,1,75.0000028610231,2|0,1:2|0:0,0:0:0:0:
72,344,85153,2,0,L|64:264,1,75.0000028610231,2|0,1:2|0:0,0:0:0:0:
264,108,85319,1,2,1:2:0:0:
264,108,85403,2,0,L|256:188,1,75.0000028610231,8|2,0:0|1:2,0:0:0:0:
472,352,85569,1,8,0:0:0:0:
472,352,85653,6,0,B|372:368|304:288|304:288|324:336|304:380,1,269.999991760254,4|0,0:0|0:0,0:0:0:0:
196,356,85986,38,0,P|196:316|224:348,1,100,8|0,0:0|0:0,0:0:0:0:
4,232,86486,1,0,1:0:0:0:
352,136,86653,2,0,L|356:168,12,25,8|0|0|0|0|0|0|0|0|0|0|0|0,0:0|0:0|0:0|0:0|0:0|0:0|0:0|0:0|0:0|0:0|0:0|0:0|0:0,0:0:0:0:
296,244,86986,6,0,B|320:24|320:24|392:84,1,269.999991760254,0|0,1:0|0:0,0:0:0:0:
486,182,87319,2,0,B|522:217|522:217|394:233,1,179.999994506836,8|0,0:0|0:0,0:0:0:0:
160,200,87569,2,0,B|123:164|123:164|251:148,1,179.999994506836,0|0,1:0|0:0,0:0:0:0:
352,136,87819,1,0,1:0:0:0:
156,368,87986,1,8,0:0:0:0:
229,110,88153,1,0,0:0:0:0:
229,110,88236,1,0,0:0:0:0:
229,110,88319,5,4,0:0:0:0:
72,172,88486,2,0,P|176:180|232:96,1,200,0|0,0:0|0:0,0:0:0:0:
360,216,88903,1,0,0:0:0:0:
360,216,88986,2,0,P|266:198|229:110,1,200,8|0,0:0|0:0,0:0:0:0:
192,336,89486,1,2,0:0:0:0:
329,121,89653,5,4,0:0:0:0:
329,121,89819,2,0,B|360:80|360:80|456:72|488:168,1,200,0|0,0:0|0:0,0:0:0:0:
403,240,90236,1,0,0:0:0:0:
403,240,90319,37,8,0:0:0:0:
412,336,90486,2,0,P|396:288|414:220,1,100,0|0,0:0|0:0,0:0:0:0:
480,148,90736,2,0,P|492:176|496:208,2,50,0|2|0,0:0|0:0|0:0,0:0:0:0:
329,121,90986,22,0,L|228:132,1,89.9999972534181,4|0,0:0|0:0,0:0:0:0:
172,280,91153,2,0,B|160:238|160:238|168:192,1,89.9999972534181,0|0,0:0|0:0,0:0:0:0:
357,41,91319,2,0,L|132:64,1,179.999994506836,8|0,0:0|0:0,0:0:0:0:
106,120,91569,1,0,0:0:0:0:
23,76,91653,2,0,P|12:120|23:164,1,89.9999972534181
172,280,91819,1,0,1:0:0:0:
256,4,91986,1,8,0:0:0:0:
406,121,92153,2,0,P|432:132|464:128,2,44.999998626709,0|0|0,0:0|0:0|0:0,0:0:0:0:
392,108,92319,22,0,P|384:156|424:156,1,100,2|0,0:0|0:0,0:0:0:0:
386,89,92569,6,0,P|340:107|359:178,1,125,2|0,0:0|0:0,0:0:0:0:
390,69,92819,6,0,P|330:56|280:134,1,150.000005722046,2|0,0:0|0:0,0:0:0:0:
403,53,93069,6,0,P|362:5|243:42,1,175.00000166893,2|0,0:0|0:0,0:0:0:0:
176,256,93319,5,10,0:0:0:0:
260,248,93402,1,0,0:0:0:0:
344,240,93485,1,2,0:0:0:0:
428,232,93569,1,0,0:0:0:0:
512,224,93653,6,0,P|504:268|488:292,7,50,0|0|0|0|0|0|0|0,1:0|0:0|0:0|0:0|0:0|0:0|0:0|0:0,0:0:0:0:
456,344,94319,2,0,P|413:359|385:357,7,50,0|0|0|0|0|0|0|0,1:0|0:0|0:0|0:0|0:0|0:0|0:0|0:0,0:0:0:0:
344,304,94986,5,0,1:0:0:0:
307,287,95069,1,0,0:0:0:0:
266,290,95153,1,0,0:0:0:0:
229,306,95236,1,0,0:0:0:0:
202,335,95319,1,0,0:0:0:0:
239,352,95403,1,0,0:0:0:0:
280,349,95487,1,0,0:0:0:0:
317,333,95570,1,0,0:0:0:0:
344,304,95653,5,0,1:0:0:0:
324,247,95736,1,0,0:0:0:0:
332,187,95819,1,0,0:0:0:0:
371,141,95903,1,0,0:0:0:0:
430,133,95986,1,0,0:0:0:0:
481,163,96069,1,0,0:0:0:0:
485,223,96153,1,0,0:0:0:0:
442,265,96236,1,0,0:0:0:0:
385,280,96319,38,0,B|328:260|328:260|200:272,1,179.999994506836,6|0,0:0|0:0,0:0:0:0:
116,280,96653,1,8,0:0:0:0:
107,73,96819,1,2,0:0:0:0:
109,88,96903,1,0,0:0:0:0:
110,102,96986,1,0,0:0:0:0:
116,280,97153,1,0,1:0:0:0:
105,58,97319,2,0,B|89:110|89:110|101:182,1,119.999996337891,10|0,0:0|0:0,0:0:0:0:
280,344,97653,6,0,P|328:288|440:324,1,179.999994506836,0|0,1:0|0:0,0:0:0:0:
364,368,97986,1,8,0:0:0:0:
220,238,98153,1,0,0:0:0:0:
222,223,98237,1,0,1:0:0:0:
223,209,98320,1,2,0:0:0:0:
431,166,98486,1,0,1:0:0:0:
158,342,98653,2,0,P|116:304|100:224,1,119.999996337891,8|2,0:0|0:0,0:0:0:0:
216,40,98986,38,0,B|260:72|260:72|124:88,1,179.999994506836,6|0,0:0|0:0,0:0:0:0:
48,96,99319,1,8,0:0:0:0:
223,209,99486,1,2,0:0:0:0:
219,192,99569,1,0,0:0:0:0:
215,176,99653,2,0,L|351:160,1,119.999996337891,0|0,0:0|1:0,0:0:0:0:
160,344,99986,2,0,P|128:292|140:220,1,119.999996337891,10|0,0:0|0:0,0:0:0:0:
360,78,100319,6,0,B|408:122|388:186|388:186|352:186|324:150,1,179.999994506836,0|0,1:0|0:0,0:0:0:0:
275,96,100653,1,8,0:0:0:0:
493,51,100819,2,0,P|505:79|513:115,1,59.9999981689454,0|0,0:0|1:0,0:0:0:0:
460,236,100986,1,2,0:0:0:0:
460,236,101069,2,0,P|448:264|440:300,2,59.9999981689454,0|0|2,0:0|1:0|0:0,0:0:0:0:
512,108,101319,2,0,P|448:96|372:128,1,119.999996337891,8|2,0:0|0:0,0:0:0:0:
216,220,101653,38,0,B|232:356|232:356|268:304,1,179.999994506836,6|2,0:0|0:0,0:0:0:0:
304,244,101986,1,8,0:0:0:0:
112,164,102153,1,2,0:0:0:0:
92,168,102236,1,0,0:0:0:0:
72,172,102319,1,0,0:0:0:0:
288,124,102486,1,0,1:0:0:0:
320,364,102653,2,0,L|452:348,1,119.999996337891,10|0,0:0|0:0,0:0:0:0:
123,333,102986,6,0,B|101:278|125:230|133:254|152:201|132:160,1,179.999994506836,0|0,1:0|0:0,0:0:0:0:
80,80,103319,1,8,0:0:0:0:
32,272,103486,1,0,0:0:0:0:
30,296,103569,1,0,1:0:0:0:
32,320,103653,1,2,0:0:0:0:
222,217,103819,1,0,1:0:0:0:
388,360,103986,2,0,P|408:304|384:236,1,119.999996337891,8|2,0:0|0:0,0:0:0:0:
171,118,104319,38,0,B|108:148|48:120|48:120|56:92|79:79,1,179.999994506836,6|2,0:0|0:0,0:0:0:0:
148,20,104653,1,8,0:0:0:0:
195,217,104819,1,2,0:0:0:0:
188,236,104903,1,0,0:0:0:0:
181,255,104986,1,0,0:0:0:0:
244,48,105153,1,0,1:0:0:0:
20,200,105319,2,0,L|32:324,1,119.999996337891,10|0,0:0|0:0,0:0:0:0:
236,348,105653,22,0,P|272:340|304:340,3,59.9999981689454,0|0|2|0,1:0|0:0|0:0|0:0,0:0:0:0:
404,248,105986,2,0,P|392:283|376:310,3,59.9999981689454,8|2|0|0,0:0|0:0|0:0|1:0,0:0:0:0:
140,336,106319,1,2,0:0:0:0:
140,336,106403,1,0,1:0:0:0:
140,336,106486,2,0,P|115:308|99:281,1,59.9999981689454,8|2,0:0|0:0,0:0:0:0:
144,144,106653,1,0,1:0:0:0:
144,144,106736,2,0,P|132:179|116:206,1,59.9999981689454,8|2,0:0|1:2,0:0:0:0:
36,228,106903,1,8,0:0:0:0:
36,228,106986,6,0,B|112:224|112:224|160:248|160:248|352:240,1,320,14|0,0:0|0:0,0:0:0:0:
350,240,107819,1,0,1:0:0:0:
126,9,107986,1,10,0:0:0:0:
126,9,108319,6,0,B|132:80|132:80|125:97|125:97|135:112|135:112|142:200,1,179.999994506836,2|0,1:2|0:0,0:0:0:0:
151,277,108653,1,8,0:0:0:0:
268,84,108819,1,0,0:0:0:0:
244,86,108903,1,0,1:0:0:0:
220,88,108986,1,2,0:0:0:0:
32,104,109153,1,0,1:0:0:0:
343,142,109319,2,0,P|363:78|331:10,1,119.999996337891,8|2,0:0|0:0,0:0:0:0:
209,225,109653,6,0,B|257:201|297:225|297:225|337:249|393:225,1,179.999994506836,6|0,0:0|0:0,0:0:0:0:
464,184,109986,1,8,0:0:0:0:
264,36,110153,1,2,0:0:0:0:
266,60,110236,1,0,0:0:0:0:
268,84,110320,1,0,0:0:0:0:
280,288,110486,1,0,1:0:0:0:
72,152,110653,2,0,L|191:145,1,119.999996337891,10|0,0:0|0:0,0:0:0:0:
428,323,110986,38,0,P|344:345|279:287,1,179.999994506836,0|0,1:0|0:0,0:0:0:0:
272,196,111319,2,0,P|328:208|368:264,1,119.999996337891,8|0,0:0|0:0,0:0:0:0:
189,306,111569,2,0,P|188:276|196:248,1,59.9999981689454,0|2,1:0|0:0,0:0:0:0:
284,104,111736,1,0,1:0:0:0:
284,104,111819,2,0,P|309:88|338:80,1,59.9999981689454,0|2,1:0|0:0,0:0:0:0:
500,232,111986,2,0,P|471:224|445:208,1,59.9999981689454,8|0,0:0|1:0,0:0:0:0:
228,32,112153,1,2,1:2:0:0:
184,40,112236,1,8,0:0:0:0:
140,48,112319,22,0,P|124:24|112:4,7,50,6|0|0|2|0|0|2|0,1:2|0:0|0:0|0:0|0:0|0:0|0:0|0:0,0:0:0:0:
68,120,112986,2,0,P|52:144|40:164,7,50,0|2|0|0|2|0|0|2,0:0|0:0|0:0|0:0|0:0|0:0|0:0|0:0,0:0:0:0:
168,144,113653,5,0,0:0:0:0:
204,154,113736,1,0,0:0:0:0:
241,152,113819,1,2,0:0:0:0:
276,143,113902,1,0,0:0:0:0:
305,120,113986,1,0,0:0:0:0:
341,115,114069,1,2,0:0:0:0:
375,129,114152,1,0,0:0:0:0:
398,157,114236,1,0,0:0:0:0:
403,193,114319,1,2,0:0:0:0:
390,227,114402,1,0,0:0:0:0:
361,250,114486,1,0,0:0:0:0:
325,255,114569,1,2,0:0:0:0:
291,241,114652,1,0,0:0:0:0:
269,213,114736,1,0,0:0:0:0:
263,177,114819,1,2,0:0:0:0:
276,143,114902,1,0,0:0:0:0:
305,120,114986,6,0,L|372:116,1,50,2|0,1:2|0:0,0:0:0:0:
305,345,115153,2,0,L|372:349,1,50,0|2,1:0|0:0,0:0:0:0:
232,112,115319,6,0,L|312:108,1,62.5,0|0,1:0|0:0,0:0:0:0:
232,352,115486,2,0,L|312:356,1,62.5,2|0,1:2|0:0,0:0:0:0:
148,104,115653,38,0,L|228:100,1,75.0000028610231,0|2,1:0|0:0,0:0:0:0:
148,360,115819,2,0,L|228:364,1,75.0000028610231,0|0,1:0|0:0,0:0:0:0:
52,96,115986,6,0,L|140:92,1,87.500000834465,2|0,1:2|0:0,0:0:0:0:
52,368,116153,2,0,L|140:372,1,87.500000834465,0|2,1:0|0:0,0:0:0:0:
472,192,116319,37,0,1:0:0:0:
416,196,116402,1,0,1:0:0:0:
360,201,116485,1,2,1:2:0:0:
304,206,116569,1,0,1:0:0:0:
259,242,116653,1,0,1:0:0:0:
203,247,116736,1,2,1:2:0:0:
148,252,116819,1,0,1:1:0:0:
92,257,116903,1,0,1:0:0:0:
36,262,116986,6,0,P|72:224|120:216,1,75.0000028610231,2|0,1:2|1:0,0:0:0:0:
352,320,117153,1,8,0:0:0:0:
352,320,117236,2,0,P|301:307|270:270,1,75.0000028610231,2|0,1:2|1:0,0:0:0:0:
245,18,117403,1,8,0:0:0:0:
245,18,117486,2,0,P|259:68|242:113,1,75.0000028610231,2|8,1:2|0:0,0:0:0:0:
190,205,117653,22,0,P|198:191|196:220,1,100,4|0,0:0|0:0,0:0:0:0:
