osu file format v14

[General]
AudioFilename: audio.mp3
AudioLeadIn: 0
PreviewTime: 85653
Countdown: 0
SampleSet: Soft
StackLeniency: 0.4
Mode: 0
LetterboxInBreaks: 0
WidescreenStoryboard: 1

[Editor]
DistanceSpacing: 0.5
BeatDivisor: 4
GridSize: 4
TimelineZoom: 3.800004

[Metadata]
Title:Yggdrasil (Original Mix)
TitleUnicode:Yggdrasil (Original Mix)
Artist:MYTK
ArtistUnicode:MYTK
Creator:Lulu-
Version:Underdogs' Another
Source:
Tags:dubstep drumstep dnb artcore kac2013 voez yamicchi dtm9 nowa rvmathew underdogs lowcombofc newton-
BeatmapID:1578889
BeatmapSetID:554801

[Difficulty]
HPDrainRate:6
CircleSize:3
OverallDifficulty:7
ApproachRate:9
SliderMultiplier:1.6
SliderTickRate:1

[Events]
//Background and Video events
0,0,"60393234_p0.jpg",0,0
//Break Periods
2,53853,63719
//Storyboard Layer 0 (Background)
//Storyboard Layer 1 (Fail)
//Storyboard Layer 2 (Pass)
//Storyboard Layer 3 (Foreground)
//Storyboard Sound Samples

[TimingPoints]
320,333.333333333333,4,2,1,40,1,0
320,-133.333333333333,4,2,1,40,0,0
819,-142.857142857143,4,2,1,40,0,0
1319,-153.846153846154,4,2,1,40,0,0
1819,-166.666666666667,4,2,1,40,0,0
2319,-181.818181818182,4,2,1,40,0,0
2986,-133.333333333333,4,2,1,40,0,0
3486,-142.857142857143,4,2,1,40,0,0
3986,-153.846153846154,4,2,1,40,0,0
4486,-166.666666666667,4,2,1,40,0,0
5653,-166.666666666667,4,2,2,40,0,0
5736,-166.666666666667,4,2,1,40,0,0
9653,-166.666666666667,4,2,1,50,0,0
10319,-76.9230769230769,4,2,1,50,0,0
10653,-66.6666666666667,4,2,1,50,0,0
10986,-66.6666666666667,4,2,1,40,0,0
13653,-66.6666666666667,4,2,2,40,0,0
13736,-66.6666666666667,4,2,1,40,0,0
15819,-66.6666666666667,4,2,1,50,0,0
16319,-66.6666666666667,4,2,1,5,0,0
16653,-66.6666666666667,4,2,1,50,0,0
21653,-133.333333333333,4,2,1,50,0,0
21736,-133.333333333333,4,2,1,5,0,0
23153,-133.333333333333,4,2,1,40,0,0
26986,-117.647058823529,4,2,2,40,0,0
27069,-117.647058823529,4,2,1,40,0,0
28319,-117.647058823529,4,2,1,45,0,0
28986,-117.647058823529,4,2,1,50,0,0
29653,-117.647058823529,4,2,1,55,0,0
30319,-117.647058823529,4,2,1,60,0,0
30986,-166.666666666667,4,2,1,65,0,0
31319,-166.666666666667,4,2,1,70,0,0
31653,-166.666666666667,4,2,1,65,0,0
31986,-166.666666666667,4,2,1,60,0,0
32319,-133.333333333333,4,2,1,70,0,0
32903,-133.333333333333,4,2,1,5,0,0
32986,-188.679245283019,4,2,1,70,0,0
33986,-188.679245283019,4,2,1,5,0,0
34153,-188.679245283019,4,2,1,50,0,0
34319,-66.6666666666667,4,2,1,50,0,0
34986,-133.333333333333,4,2,1,60,0,0
37319,-133.333333333333,4,2,1,50,0,0
37653,-133.333333333333,4,2,1,70,0,0
38319,-100,4,2,1,50,0,0
38986,-100,4,2,1,55,0,0
39653,-100,4,2,1,60,0,0
40319,-133.333333333333,4,2,1,60,0,0
42153,-133.333333333333,4,2,1,50,0,0
42986,-83.3333333333333,4,2,1,60,0,0
44736,-83.3333333333333,4,2,1,50,0,0
44986,-100,4,2,1,60,0,0
45403,-100,4,2,1,50,0,0
45653,-100,4,2,1,60,0,0
48069,-100,4,2,1,50,0,0
48153,-100,4,2,2,50,0,0
48236,-100,4,2,1,50,0,0
48319,-83.3333333333333,4,2,1,70,0,0
48903,-83.3333333333333,4,2,1,5,0,0
48986,-83.3333333333333,4,2,1,50,0,0
49986,-83.3333333333333,4,2,1,55,0,0
50319,-83.3333333333333,4,2,1,60,0,0
50653,-83.3333333333333,4,2,1,65,0,0
50986,-133.333333333333,4,2,1,70,0,0
51486,-133.333333333333,4,2,1,60,0,0
52319,-100,4,2,1,60,0,0
52819,-100,4,2,1,65,0,0
52986,-100,4,2,1,70,0,0
53319,-100,4,2,1,60,0,0
53653,-100,4,2,1,50,0,0
64319,-133.333333333333,4,2,1,40,0,0
66986,-133.333333333333,4,2,1,45,0,0
68986,-133.333333333333,4,2,1,50,0,0
70319,-105.263157894737,4,2,1,50,0,0
70653,-105.263157894737,4,2,1,55,0,0
71653,-105.263157894737,4,2,1,60,0,0
73319,-105.263157894737,4,2,1,65,0,0
73653,-76.9230769230769,4,2,2,65,0,0
73736,-76.9230769230769,4,2,1,65,0,0
73819,-76.9230769230769,4,2,1,70,0,0
74986,-58.8235294117647,4,2,1,80,0,0
75153,-58.8235294117647,4,2,1,5,0,0
75236,-58.8235294117647,4,2,1,80,0,0
75403,-58.8235294117647,4,2,1,5,0,0
75486,-58.8235294117647,4,2,1,80,0,0
75653,-58.8235294117647,4,2,1,5,0,0
75736,-58.8235294117647,4,2,1,80,0,0
75903,-58.8235294117647,4,2,1,5,0,0
75986,-86.9565217391304,4,2,1,60,0,0
76236,-86.9565217391304,4,2,1,5,0,0
76319,-58.8235294117647,4,2,1,80,0,0
76486,-58.8235294117647,4,2,1,5,0,0
76569,-58.8235294117647,4,2,1,80,0,0
76736,-58.8235294117647,4,2,1,5,0,0
76819,-58.8235294117647,4,2,1,80,0,0
76986,-58.8235294117647,4,2,1,5,0,0
77069,-58.8235294117647,4,2,1,80,0,0
77236,-58.8235294117647,4,2,1,5,0,0
77319,-58.8235294117647,4,2,1,60,0,0
77403,-58.8235294117647,4,2,1,5,0,0
77486,-58.8235294117647,4,2,1,60,0,0
77569,-58.8235294117647,4,2,1,5,0,0
77653,-58.8235294117647,4,2,1,80,0,0
77819,-58.8235294117647,4,2,1,5,0,0
77903,-58.8235294117647,4,2,1,80,0,0
78069,-58.8235294117647,4,2,1,5,0,0
78153,-58.8235294117647,4,2,1,80,0,0
78319,-58.8235294117647,4,2,1,5,0,0
78403,-58.8235294117647,4,2,1,80,0,0
78569,-58.8235294117647,4,2,1,5,0,0
78653,-142.857142857143,4,2,1,60,0,0
78903,-142.857142857143,4,2,1,5,0,0
78986,-58.8235294117647,4,2,1,80,0,0
79153,-58.8235294117647,4,2,1,5,0,0
79236,-58.8235294117647,4,2,1,80,0,0
79403,-58.8235294117647,4,2,1,5,0,0
79486,-58.8235294117647,4,2,1,80,0,0
79653,-58.8235294117647,4,2,1,5,0,0
79736,-58.8235294117647,4,2,1,80,0,0
79903,-58.8235294117647,4,2,1,5,0,0
79986,-58.8235294117647,4,2,1,60,0,0
80069,-58.8235294117647,4,2,1,5,0,0
80153,-58.8235294117647,4,2,1,60,0,0
80236,-58.8235294117647,4,2,1,5,0,0
80319,-58.8235294117647,4,2,1,80,0,0
81319,-58.8235294117647,4,2,1,50,0,0
81653,-58.8235294117647,4,2,1,80,0,0
82986,-58.8235294117647,4,2,1,50,0,0
83319,-58.8235294117647,4,2,1,55,0,0
83653,-58.8235294117647,4,2,1,60,0,0
83986,-58.8235294117647,4,2,1,65,0,0
84319,-58.8235294117647,4,2,1,70,0,0
84653,-58.8235294117647,4,2,1,75,0,0
84986,-58.8235294117647,4,2,1,80,0,0
85319,-58.8235294117647,4,2,1,85,0,0
85653,-66.6666666666667,4,2,1,90,0,1
87653,-66.6666666666667,4,2,1,70,0,1
88319,-142.857142857143,4,2,1,70,0,1
90319,-100,4,2,1,70,0,1
90819,-100,4,2,2,70,0,1
90903,-100,4,2,1,70,0,1
90986,-83.3333333333333,4,2,1,90,0,1
92403,-83.3333333333333,4,2,1,5,0,1
92569,-83.3333333333333,4,2,1,90,0,1
92653,-83.3333333333333,4,2,1,5,0,1
92819,-83.3333333333333,4,2,1,90,0,1
92903,-83.3333333333333,4,2,1,5,0,1
93069,-83.3333333333333,4,2,1,90,0,1
93153,-83.3333333333333,4,2,1,5,0,1
93319,-83.3333333333333,4,2,1,90,0,1
93653,-83.3333333333333,4,2,1,70,0,1
94153,-83.3333333333333,4,2,1,75,0,1
94653,-83.3333333333333,4,2,1,80,0,1
95153,-83.3333333333333,4,2,1,85,0,1
95653,-83.3333333333333,4,2,1,90,0,1
96319,-66.6666666666667,4,2,1,95,0,1
98653,-90.9090909090909,4,2,1,95,0,1
98986,-66.6666666666667,4,2,1,95,0,1
105653,-66.6666666666667,4,2,1,70,0,1
106319,-66.6666666666667,4,2,1,75,0,1
106986,-100,4,2,1,80,0,0
107986,-100,4,2,1,90,0,0
108319,-66.6666666666667,4,2,2,90,0,1
108403,-66.6666666666667,4,2,1,90,0,1
112319,-66.6666666666667,4,2,1,65,0,1
113319,-66.6666666666667,4,2,1,70,0,1
114319,-66.6666666666667,4,2,1,75,0,1
114986,-66.6666666666667,4,2,1,80,0,1
117653,-133.333333333333,4,2,1,85,0,0
117986,-133.333333333333,4,2,1,5,0,0

[Colours]
Combo1 : 194,18,18
Combo2 : 255,128,255
Combo3 : 0,128,255
Combo4 : 234,101,21

[HitObjects]
160,335,320,6,0,P|138:309|143:232,1,90.0000034332277,4|0,0:0|0:0,0:0:0:0:
167,340,819,2,0,P|145:314|148:244,1,83.9999974365235,0|0,0:0|0:0,0:0:0:0:
174,341,1319,2,0,P|152:315|152:257,1,77.9999964294435,0|0,0:0|0:0,0:0:0:0:
183,344,1819,2,0,P|161:318|160:266,1,71.9999978027344,0|0,0:0|0:0,0:0:0:0:
193,347,2319,2,0,P|171:321|169:275,2,66.0000020141602,0|0|0,0:0|0:0|0:0,0:0:0:0:
324,217,2986,6,0,P|312:249|243:283,1,90.0000034332277,0|0,0:0|0:0,0:0:0:0:
324,208,3486,2,0,P|312:240|250:272,1,83.9999974365235
322,201,3986,2,0,P|310:233|260:262,1,77.9999964294435,0|0,0:0|0:0,0:0:0:0:
320,192,4485,2,0,P|308:224|263:250,1,71.9999978027344,0|0,0:0|0:0,0:0:0:0:
317,182,4985,2,0,P|305:214|266:238,2,66.0000020141602,0|0|0,0:0|0:0|0:0,0:0:0:0:
88,132,5653,38,0,B|97:95|97:95|88:48,1,71.9999978027344,2|0,0:0|0:0,0:0:0:0:
211,7,6153,2,0,B|202:44|202:44|211:91,1,71.9999978027344,0|0,0:0|0:0,0:0:0:0:
326,147,6653,2,0,B|335:110|335:110|326:63,1,71.9999978027344,0|0,0:0|0:0,0:0:0:0:
462,27,7153,2,0,B|453:64|453:64|462:111,1,71.9999978027344,0|0,0:0|0:0,0:0:0:0:
489,247,7653,2,0,L|399:238,1,71.9999978027344,0|0,0:0|0:0,0:0:0:0:
288,255,8153,1,0,0:0:0:0:
271,247,8319,6,0,B|278:288|278:288|267:329,1,71.9999978027344,0|0,0:0|0:0,0:0:0:0:
68,300,8819,2,0,L|154:290,1,71.9999978027344,0|0,0:0|0:0,0:0:0:0:
184,185,9319,2,0,L|98:175,1,71.9999978027344,0|0,0:0|0:0,0:0:0:0:
67,69,9819,2,0,L|153:59,1,71.9999978027344,0|0,0:0|0:0,0:0:0:0:
168,45,10153,1,0,1:0:0:0:
330,40,10319,38,0,B|382:71|382:71|395:166|395:166|361:218,1,207.999990478516,8|8,0:0|0:0,0:0:0:0:
220,166,10736,22,0,B|250:151|250:151|317:170,1,60.0000022888184,0|8,0:0|0:0,0:0:0:0:
294,275,10903,5,0,0:0:0:0:
274,243,10986,1,4,0:0:0:0:
256,192,11069,12,2,13653,0:0:0:0:
106,127,15819,5,0,1:0:0:0:
106,158,15903,2,0,B|199:168,1,60.0000022888184,0|0,0:0|1:0,0:0:0:0:
323,258,16236,2,0,B|230:268,1,60.0000022888184,0|0,1:0|0:0,0:0:0:0:
136,323,16653,1,4,0:0:0:0:
256,192,16736,12,0,21653,1:0:0:0:
90,102,23153,5,2,0:0:0:0:
77,180,23319,2,0,P|116:182|171:123,1,120.000004577637,2|2,0:0|0:0,0:0:0:0:
226,48,23819,2,0,B|257:62|257:62|290:58,1,60.0000022888184,2|0,0:0|0:0,0:0:0:0:
413,102,24153,2,0,B|382:116|382:116|349:112,1,60.0000022888184,2|0,0:0|0:0,0:0:0:0:
268,157,24486,37,2,0:0:0:0:
317,231,24653,2,0,L|321:362,1,120.000004577637,2|2,0:0|0:0,0:0:0:0:
177,344,25153,2,0,L|243:337,1,60.0000022888184,2|0,0:0|0:0,0:0:0:0:
209,235,25486,2,0,L|143:228,1,60.0000022888184,2|0,0:0|0:0,0:0:0:0:
0,316,25819,5,2,0:0:0:0:
61,368,25986,1,2,0:0:0:0:
88,286,26153,1,2,0:0:0:0:
68,53,26486,1,2,0:0:0:0:
24,152,26653,1,2,0:0:0:0:
109,202,26819,1,2,0:0:0:0:
209,157,26986,38,0,L|200:67,1,68.0000012969971,2|0,0:0|0:0,0:0:0:0:
321,57,27319,2,0,L|314:124,1,68.0000012969971,0|0,0:0|0:0,0:0:0:0:
407,197,27653,2,0,L|419:130,1,68.0000012969971,0|0,0:0|0:0,0:0:0:0:
512,221,27986,2,0,L|493:286,1,68.0000012969971,0|0,0:0|0:0,0:0:0:0:
356,300,28319,6,0,P|317:307|278:294,1,68.0000012969971,0|0,0:0|0:0,0:0:0:0:
241,373,28653,2,0,P|208:350|190:313,1,68.0000012969971,0|0,0:0|0:0,0:0:0:0:
107,358,28986,2,0,P|99:319|113:280,1,68.0000012969971,0|0,0:0|0:0,0:0:0:0:
150,174,29319,1,0,0:0:0:0:
201,244,29486,1,0,0:0:0:0:
44,208,29653,5,0,0:0:0:0:
41,174,29736,1,0,0:0:0:0:
38,140,29819,1,0,0:0:0:0:
36,106,29902,1,0,0:0:0:0:
36,80,29986,6,0,L|96:88,3,34.0000006484985,0|0|0|0,0:0|0:0|0:0|0:0,0:0:0:0:
152,40,30319,2,0,L|200:44,1,34.0000006484985,0|0,0:0|0:0,0:0:0:0:
256,88,30486,2,0,L|289:85,1,34.0000006484985,0|0,0:0|0:0,0:0:0:0:
356,36,30653,1,0,0:0:0:0:
429,66,30736,1,0,0:0:0:0:
427,143,30819,1,0,0:0:0:0:
362,194,30903,1,0,0:0:0:0:
281,168,30986,6,0,B|262:251|352:278|352:278|361:311|336:334|336:334|255:278|204:331,1,347.999989379883,0|0,0:0|0:0,0:0:0:0:
133,366,32319,6,0,P|117:327|209:339,1,180.000006866455,4|0,0:0|0:0,0:0:0:0:
29,348,32986,38,0,B|23:306|23:306|30:293|30:293|23:219|23:219|28:210|28:210|19:126|19:126|26:118|26:118|19:48,1,296.800000452881,8|0,0:0|1:0,0:0:0:0:
152,47,34319,22,0,B|221:35|221:35|207:104,1,120.000004577637,8|0,0:0|1:0,0:0:0:0:
153,251,34569,6,0,B|141:213|141:213|159:173|159:173|147:123,1,120.000004577637,0|0,1:0|1:0,0:0:0:0:
292,226,34819,6,0,L|198:224,1,60.0000022888184,0|0,0:0|1:0,0:0:0:0:
173,335,34986,2,0,B|214:308|214:308|311:323|311:323|342:364,1,180.000006866455,4|2,0:0|1:2,0:0:0:0:
330,349,35653,2,0,B|384:380|384:380|389:254,1,180.000006866455,8|2,0:0|1:2,0:0:0:0:
404,224,36236,1,2,0:0:0:0:
412,202,36319,6,0,P|463:204|475:320,1,180.000006866455,4|2,0:0|1:2,0:0:0:0:
475,120,36986,2,0,B|434:104|381:123|381:123|347:93|289:98,1,180.000006866455,8|0,0:0|0:0,0:0:0:0:
280,125,37569,1,0,0:0:0:0:
280,125,37653,38,0,P|287:82|183:95,1,180.000006866455,4|0,0:0|0:0,0:0:0:0:
120,178,38319,2,0,L|130:245,3,40,8|0|0|0,0:0|0:0|0:0|0:0,0:0:0:0:
204,256,38653,2,0,L|194:323,3,40,0|0|0|0,0:0|0:0|0:0|0:0,0:0:0:0:
124,334,38986,1,0,0:0:0:0:
150,362,39069,1,0,0:0:0:0:
188,375,39152,1,0,0:0:0:0:
227,368,39236,1,0,0:0:0:0:
257,342,39319,22,0,L|317:351,1,40
430,334,39486,2,0,L|370:342,1,40,0|0,1:0|0:0,0:0:0:0:
283,253,39653,6,0,L|341:266,1,40,8|0,0:0|0:0,0:0:0:0:
450,241,39819,2,0,L|391:254,1,40,0|0,0:0|0:0,0:0:0:0:
294,146,39986,38,0,L|350:164,1,40,0|0,1:0|1:0,0:0:0:0:
470,132,40153,2,0,L|413:150,1,40,0|0,1:0|1:0,0:0:0:0:
182,217,40319,22,0,B|189:173|189:173|173:146|173:146|189:70|189:70|212:100,1,180.000006866455,4|2,0:0|0:0,0:0:0:0:
205,90,40986,2,0,P|144:112|89:69,1,120.000004577637,8|2,0:0|0:0,0:0:0:0:
35,23,41486,1,0,1:0:0:0:
15,220,41653,6,0,P|68:208|61:309,1,180.000006866455,4|0,0:0|1:0,0:0:0:0:
225,364,42319,38,0,P|188:324|279:279,1,180.000006866455,10|2,0:0|1:2,0:0:0:0:
372,329,42986,22,0,L|412:338,12,23.9999992675781,4|0|0|0|0|0|0|0|0|0|0|0|2,0:0|0:0|0:0|0:0|0:0|0:0|0:0|0:0|0:0|0:0|0:0|0:0|0:0,0:0:0:0:
460,221,43653,6,0,B|417:194|417:194|437:144,1,95.9999970703126,0|0,1:0|0:0,0:0:0:0:
312,91,43903,38,0,B|355:118|355:118|335:168,1,95.9999970703126,8|0,0:0|0:0,0:0:0:0:
370,263,44153,2,0,L|309:236,1,47.9999985351563,0|0,0:0|0:0,0:0:0:0:
201,141,44319,6,0,L|208:175,12,23.9999992675781,4|0|0|0|0|0|0|0|0|0|0|0|8,0:0|0:0|0:0|0:0|0:0|0:0|0:0|0:0|0:0|0:0|0:0|0:0|1:2,0:0:0:0:
165,288,44986,38,0,L|124:277,2,40,8|0|0,0:0|0:0|0:0,0:0:0:0:
205,364,45236,1,0,0:0:0:0:
263,350,45319,1,0,0:0:0:0:
322,337,45402,1,0,0:0:0:0:
372,324,45486,1,0,0:0:0:0:
419,308,45569,1,0,0:0:0:0:
459,280,45653,22,0,P|418:262|512:210,1,240,4|0,0:0|1:0,0:0:0:0:
510,205,46319,2,0,B|418:184|418:184|363:201|363:201|267:184,1,240,8|2,0:0|0:0,0:0:0:0:
92,164,46986,6,0,B|120:128|120:128|140:328,1,240,4|2,0:0|1:2,0:0:0:0:
156,352,47569,1,2,0:0:0:0:
184,356,47653,2,0,B|276:335|276:335|331:352|331:352|427:335,1,240,8|2,0:0|0:0,0:0:0:0:
512,226,48319,6,0,B|482:222|457:178|457:178|406:216|332:182|332:182|322:230|294:254,1,287.999991210938,4|0,0:0|0:0,0:0:0:0:
142,277,48986,1,10,0:0:0:0:
111,241,49069,1,0,0:0:0:0:
120,196,49152,1,0,0:0:0:0:
160,173,49236,1,0,0:0:0:0:
200,170,49319,1,2,0:0:0:0:
240,147,49403,1,0,0:0:0:0:
248,102,49486,1,0,0:0:0:0:
218,66,49569,1,0,0:0:0:0:
196,51,49653,6,0,L|134:57,1,47.9999985351563,2|0,0:0|0:0,0:0:0:0:
28,116,49819,38,0,L|90:122,1,47.9999985351563,2|0,0:0|0:0,0:0:0:0:
244,208,49986,6,0,L|181:213,1,47.9999985351563,2|0,0:0|0:0,0:0:0:0:
39,282,50153,38,0,L|101:288,1,47.9999985351563,2|0,0:0|0:0,0:0:0:0:
167,337,50319,1,2,0:0:0:0:
213,313,50403,1,0,0:0:0:0:
272,312,50486,2,0,L|270:368,1,47.9999985351563,2|0,1:2|0:0,0:0:0:0:
400,272,50653,2,0,L|358:310,1,47.9999985351563,2|8,1:2|0:0,0:0:0:0:
504,344,50819,2,0,L|448:342,1,47.9999985351563,2|8,1:2|0:0,0:0:0:0:
364,188,50986,22,0,B|408:176|452:204|452:204|444:156|472:108,1,180.000006866455,4|2,0:0|0:0,0:0:0:0:
392,40,51653,2,0,B|348:52|304:24|304:24|312:72|284:120,1,180.000006866455,8|0,0:0|1:0,0:0:0:0:
168,224,52319,6,0,P|152:252|124:160,1,240,4|0,0:0|1:0,0:0:0:0:
272,200,52986,2,0,B|252:224|228:184|268:100|308:160|316:184|308:216|240:240|296:332,1,240,10|0,0:0|0:0,0:0:0:0:
356,360,53653,37,0,1:0:0:0:
72,344,64319,6,0,P|160:340|264:336,1,180.000006866455,0|0,1:0|0:0,0:0:0:0:
348,328,64986,2,0,P|364:292|312:228,1,120.000004577637,8|0,0:0|0:0,0:0:0:0:
144,168,65486,2,0,P|167:199|248:186,1,120.000004577637,0|0,1:0|0:0,0:0:0:0:
384,68,65986,2,0,P|344:72|315:149,1,120.000004577637,0|8,0:0|0:0,0:0:0:0:
424,200,66486,1,0,1:0:0:0:
453,195,66569,1,0,1:0:0:0:
483,190,66652,1,0,1:0:0:0:
512,184,66736,37,0,1:0:0:0:
480,164,66819,1,0,1:0:0:0:
460,144,66903,1,0,1:0:0:0:
440,128,66986,6,0,B|436:200|436:200|456:236|456:236|452:312,1,180.000006866455,2|2,1:2|1:2,0:0:0:0:
352,348,67653,2,0,B|260:328|260:328|296:312,1,120.000004577637,8|2,0:0|0:0,0:0:0:0:
144,236,68153,1,2,1:2:0:0:
144,236,68319,2,0,B|236:256|236:256|200:272,1,120.000004577637,2|0,1:2|0:0,0:0:0:0:
104,320,68819,1,0,1:0:0:0:
104,320,68903,1,0,1:0:0:0:
104,320,68986,2,0,P|68:296|56:244,2,90.0000034332277,10|2|2,0:0|0:0|0:0,0:0:0:0:
84,152,69653,37,2,1:2:0:0:
256,192,69736,12,2,73653,1:2:0:0:
108,72,74486,21,0,1:0:0:0:
104,80,74569,1,2,0:0:0:0:
100,88,74653,2,0,B|72:76|72:76|28:76,1,51.999997619629,0|8,1:0|0:0,0:0:0:0:
4,172,74819,2,0,B|28:176|28:180|76:160,1,51.999997619629,2|0,1:2|1:0,0:0:0:0:
172,176,74986,6,0,B|168:208|168:208|172:216|172:216|168:268|168:268|172:280|172:280|168:316,1,136.000002593994,4|0,0:0|0:0,0:0:0:0:
428,360,75236,38,0,B|432:328|432:328|428:320|428:320|432:268|432:268|428:256|428:256|432:220,1,136.000002593994,4|0,0:0|0:0,0:0:0:0:
268,120,75486,6,0,B|260:168|260:168|276:208|276:208|264:272,1,136.000002593994,4|0,0:0|0:0,0:0:0:0:
403,146,75736,38,0,B|411:98|411:98|395:58|395:58|407:-6,1,136.000002593994,4|0,0:0|0:0,0:0:0:0:
268,120,75986,22,0,L|412:148,1,138.000002632141
124,28,76319,22,0,B|116:80|116:80|108:92|108:92|112:108|112:108|100:188,1,136.000002593994,4|0,0:0|0:0,0:0:0:0:
164,336,76569,6,0,B|172:284|172:284|180:272|180:272|176:256|176:256|188:176,1,136.000002593994,4|0,0:0|0:0,0:0:0:0:
112,28,76819,38,0,B|104:80|104:80|96:92|96:92|100:108|100:108|88:188,1,136.000002593994,4|0,0:0|0:0,0:0:0:0:
172,336,77069,6,0,B|180:284|180:284|188:272|188:272|184:256|184:256|196:176,1,136.000002593994,4|0,0:0|0:0,0:0:0:0:
272,48,77319,6,0,B|260:80|260:80|268:136,1,68.0000012969971
384,128,77486,2,0,B|396:96|396:96|388:40,1,68.0000012969971,0|0,0:0|0:0,0:0:0:0:
402,241,77653,22,0,B|428:216|428:216|328:224,1,136.000002593994,4|0,0:0|0:0,0:0:0:0:
404,328,77903,6,0,B|429:353|429:353|329:345,1,136.000002593994,4|0,0:0|0:0,0:0:0:0:
328,224,78153,38,0,L|172:236,1,136.000002593994,4|0,0:0|0:0,0:0:0:0:
329,345,78403,6,0,L|193:334,1,136.000002593994,4|0,0:0|0:0,0:0:0:0:
48,264,78653,6,0,B|56:296|56:296|52:312|52:312|64:356,1,83.9999974365235,0|0,0:0|0:0,0:0:0:0:
61,345,78986,22,0,P|120:296|120:224,1,136.000002593994,4|0,0:0|0:0,0:0:0:0:
44,132,79236,6,0,B|36:176|36:176|52:208|52:208|44:304,1,136.000002593994,4|0,0:0|0:0,0:0:0:0:
204,104,79486,38,0,B|220:148|220:148|132:156,1,136.000002593994,4|0,0:0|0:0,0:0:0:0:
204,104,79736,6,0,B|188:60|188:60|276:52,1,136.000002593994,4|0,0:0|0:0,0:0:0:0:
336,116,79986,5,0,0:0:0:0:
376,116,80069,1,0,0:0:0:0:
424,48,80153,1,0,0:0:0:0:
464,52,80236,1,0,0:0:0:0:
504,64,80319,22,0,B|484:112|484:112|492:144|492:144|456:224,1,136.000002593994,4|0,0:0|0:0,0:0:0:0:
388,240,80569,6,0,P|452:288|520:268,1,136.000002593994,4|0,0:0|0:0,0:0:0:0:
404,128,80819,38,0,P|324:139|290:201,1,136.000002593994,4|0,0:0|0:0,0:0:0:0:
284,276,81069,6,0,L|296:356,2,68.0000012969971,4|0|0,0:0|0:0|0:0,0:0:0:0:
244,84,81319,5,2,0:0:0:0:
248,88,81653,22,0,B|208:128|208:128|100:104,1,136.000002593994,4|0,0:0|0:3,0:0:0:0:
64,296,81903,6,0,L|48:112,1,136.000002593994,4|0,0:0|0:0,0:0:0:0:
196,228,82153,38,0,L|184:363,1,136.000002593994,4|0,0:0|0:0,0:0:0:0:
332,304,82403,6,0,L|320:168,1,136.000002593994,4|0,0:0|0:0,0:0:0:0:
180,32,82653,5,2,0:0:0:0:
196,228,82819,1,0,0:0:0:0:
332,180,82986,5,2,0:0:0:0:
332,180,83069,1,0,0:0:0:0:
332,180,83153,1,2,0:0:0:0:
332,180,83236,1,0,0:0:0:0:
344,172,83319,1,2,0:0:0:0:
356,168,83403,1,0,0:0:0:0:
368,164,83486,1,2,0:0:0:0:
380,160,83569,1,0,0:0:0:0:
404,148,83653,5,2,0:0:0:0:
337,135,83736,1,0,0:0:0:0:
270,122,83819,1,2,0:0:0:0:
216,112,83903,1,0,0:0:0:0:
180,92,83986,6,0,B|172:60|172:60|188:8,1,68.0000012969971,2|0,0:0|0:0,0:0:0:0:
112,152,84153,2,0,B|88:174|88:174|35:187,1,68.0000012969971,2|0,0:0|0:0,0:0:0:0:
200,192,84319,2,0,B|231:201|231:201|268:240,1,68.0000012969971,2|0,0:0|0:0,0:0:0:0:
168,92,84486,38,0,B|160:60|160:60|176:8,1,68.0000012969971,2|0,0:0|0:0,0:0:0:0:
116,164,84653,2,0,B|92:186|92:186|39:199,1,68.0000012969971,2|0,0:0|0:0,0:0:0:0:
208,184,84819,2,0,B|239:193|239:193|276:232,1,68.0000012969971,2|0,0:0|0:0,0:0:0:0:
180,360,84986,21,2,1:2:0:0:
188,328,85069,1,0,0:0:0:0:
216,312,85153,1,2,1:2:0:0:
252,320,85236,1,0,0:0:0:0:
288,356,85319,5,2,1:2:0:0:
344,356,85403,1,8,0:0:0:0:
372,312,85486,1,2,1:2:0:0:
352,264,85569,1,8,0:0:0:0:
320,236,85653,6,0,P|260:184|356:156,1,180.000006866455,4|0,0:0|0:0,0:0:0:0:
320,132,85986,2,0,B|272:108|232:132|232:132|216:108|216:108|156:148|76:100,1,240.000009155274,8|0,0:0|0:0,0:0:0:0:
28,296,86486,2,0,L|104:288,1,60.0000022888184,0|0,1:0|0:0,0:0:0:0:
152,224,86653,2,0,P|180:264|164:336,1,120.000004577637,8|0,0:0|0:0,0:0:0:0:
364,352,86986,6,0,B|388:208|388:208|340:264,1,180.000006866455,0|0,1:0|0:0,0:0:0:0:
365,233,87319,2,0,L|508:228,1,120.000004577637,8|0,0:0|0:0,0:0:0:0:
496,128,87569,38,0,P|416:124|280:120,1,180.000006866455,0|0,1:0|1:0,0:0:0:0:
104,48,87986,1,8,0:0:0:0:
96,88,88069,1,0,0:0:0:0:
112,128,88153,1,0,0:0:0:0:
152,140,88236,1,0,0:0:0:0:
184,124,88319,22,0,B|220:72|220:72|192:188,1,167.999994873047,4|0,0:0|0:0,0:0:0:0:
120,280,88903,1,0,0:0:0:0:
120,280,88986,6,0,B|84:228|84:228|108:329,1,167.999994873047,8|2,0:0|0:0,0:0:0:0:
248,360,89653,38,0,P|292:328|240:244,1,167.999994873047,4|0,0:0|0:0,0:0:0:0:
224,256,90236,1,0,0:0:0:0:
232,272,90319,2,0,L|416:268,1,160,8|0,0:0|0:0,0:0:0:0:
480,216,90819,1,2,0:0:0:0:
444,52,90986,22,0,B|372:84|320:20|320:20|352:184,1,287.999991210938,4|0,0:0|0:0,0:0:0:0:
300,336,91653,1,0,0:0:0:0:
140,224,91819,2,0,L|212:208,1,47.9999985351563,0|0,1:0|0:0,0:0:0:0:
92,300,91986,2,0,P|56:256|64:188,1,95.9999970703126,8|0,0:0|0:0,0:0:0:0:
56,196,92236,1,0,0:0:0:0:
64,176,92319,22,0,L|56:100,1,47.9999985351563,2|0,0:0|0:0,0:0:0:0:
224,28,92569,6,0,L|218:75,1,47.9999985351563,2|0,0:0|0:0,0:0:0:0:
340,200,92819,38,0,L|334:152,1,47.9999985351563,2|0,0:0|0:0,0:0:0:0:
488,40,93069,6,0,L|482:87,1,47.9999985351563,2|0,0:0|0:0,0:0:0:0:
482,87,93319,6,0,L|488:40,1,47.9999985351563,10|0,0:0|0:0,0:0:0:0:
334,152,93486,6,0,L|340:200,1,47.9999985351563,2|0,0:0|0:0,0:0:0:0:
368,320,93653,37,0,1:0:0:0:
411,339,93736,1,0,0:0:0:0:
457,332,93819,1,0,0:0:0:0:
493,300,93902,1,0,0:0:0:0:
404,84,93986,6,0,L|412:156,1,47.9999985351563,0|0,0:0|0:0,0:0:0:0:
416,212,94153,2,0,L|424:284,1,47.9999985351563,0|0,0:0|0:0,0:0:0:0:
340,332,94319,37,0,1:0:0:0:
292,330,94402,1,0,0:0:0:0:
244,329,94485,1,0,0:0:0:0:
196,328,94568,1,0,0:0:0:0:
152,328,94653,2,0,B|148:304|148:304|160:264,1,47.9999985351563,0|0,0:0|0:0,0:0:0:0:
52,232,94819,2,0,B|64:252|64:252|57:279,1,47.9999985351563,0|0,0:0|0:0,0:0:0:0:
132,184,94986,6,0,L|196:196,1,47.9999985351563,0|0,1:0|0:0,0:0:0:0:
260,104,95153,2,0,L|196:116,1,47.9999985351563,0|0,0:0|0:0,0:0:0:0:
168,36,95319,2,0,L|131:89,1,47.9999985351563,0|0,0:0|0:0,0:0:0:0:
52,60,95486,2,0,L|64:124,1,47.9999985351563,0|0,0:0|0:0,0:0:0:0:
44,192,95653,2,0,L|12:184,14,23.9999992675781,0|0|0|0|0|0|0|0|0|0|0|0|0|0|0,1:0|0:0|0:0|0:0|0:0|0:0|0:0|0:0|0:0|0:0|0:0|0:0|0:0|0:0|0:0,0:0:0:0:
20,186,96319,38,0,B|60:212|96:200|96:200|68:256|120:316,1,180.000006866455,6|0,0:0|0:0,0:0:0:0:
144,308,96653,1,10,0:0:0:0:
296,320,96819,2,0,L|432:312,1,120.000004577637,2|0,0:0|0:0,0:0:0:0:
240,132,97153,1,0,1:0:0:0:
228,156,97236,1,0,0:0:0:0:
232,184,97319,2,0,L|440:168,1,180.000006866455,10|2,0:0|0:0,0:0:0:0:
448,60,97653,6,0,L|192:44,1,240.000009155274,0|8,1:0|0:0,0:0:0:0:
52,200,98153,1,0,0:0:0:0:
52,200,98236,2,0,B|32:156|32:156|48:64,1,120.000004577637,0|0,1:0|0:0,0:0:0:0:
272,168,98486,1,0,1:0:0:0:
124,336,98653,2,0,B|136:236|136:236|160:272,1,132.00000402832,8|0,0:0|0:0,0:0:0:0:
153,262,98986,38,0,B|224:252|224:252|268:268|268:268|356:256,1,180.000006866455,6|0,0:0|0:0,0:0:0:0:
372,292,99319,1,8,0:0:0:0:
308,63,99486,2,0,P|268:119|276:179,1,120.000004577637,2|0,0:0|0:0,0:0:0:0:
448,224,99819,1,0,1:0:0:0:
448,224,99986,2,0,P|419:161|363:138,1,120.000004577637,10|0,0:0|0:0,0:0:0:0:
40,199,100319,6,0,B|136:179|136:179|176:195|176:195|272:167,1,240.000009155274,0|8,1:0|0:0,0:0:0:0:
104,296,100819,1,0,0:0:0:0:
128,308,100903,2,0,L|288:316,1,120.000004577637,0|0,1:0|0:0,0:0:0:0:
344,308,101153,2,0,L|332:376,1,60.0000022888184,0|2,1:0|0:0,0:0:0:0:
281,226,101319,2,0,L|270:166,1,60.0000022888184,8|0,0:0|0:0,0:0:0:0:
345,61,101486,1,2,0:0:0:0:
345,61,101653,38,0,B|297:84|297:84|164:51,1,180.000006866455,6|2,0:0|0:0,0:0:0:0:
146,33,101986,2,0,P|159:101|125:164,1,120.000004577637,8|2,0:0|0:0,0:0:0:0:
17,236,102319,1,0,0:0:0:0:
65,71,102486,1,0,1:0:0:0:
251,246,102653,2,0,L|107:238,1,120.000004577637,10|0,0:0|0:0,0:0:0:0:
44,364,102986,6,0,B|92:366|121:336|121:336|271:353,1,180.000006866455,0|0,1:0|0:0,0:0:0:0:
270,348,103319,1,8,0:0:0:0:
477,337,103486,1,0,0:0:0:0:
477,337,103569,2,0,P|422:288|466:182,1,180.000006866455,0|0,1:0|1:0,0:0:0:0:
495,71,103986,2,0,P|452:97|363:66,1,120.000004577637,8|2,0:0|0:0,0:0:0:0:
204,164,104319,38,0,P|247:138|336:169,1,120.000004577637,6|0,0:0|0:0,0:0:0:0:
157,253,104653,1,8,0:0:0:0:
224,45,104819,1,2,0:0:0:0:
213,104,104902,1,0,0:0:0:0:
203,163,104985,5,0,0:0:0:0:
90,138,105153,1,0,1:0:0:0:
287,235,105319,1,10,0:0:0:0:
55,237,105486,1,0,0:0:0:0:
330,147,105653,6,0,L|412:138,1,60.0000022888184,0|0,1:0|0:0,0:0:0:0:
485,235,105819,2,0,L|403:226,1,60.0000022888184,2|0,0:0|0:0,0:0:0:0:
330,138,105986,6,0,L|412:129,1,60.0000022888184,8|2,0:0|0:0,0:0:0:0:
486,245,106153,2,0,L|404:236,1,60.0000022888184,0|0,0:0|1:0,0:0:0:0:
352,337,106319,37,8,0:0:0:0:
336,313,106403,1,0,1:0:0:0:
328,292,106486,2,0,L|334:220,2,60.0000022888184,0|8|0,0:0|0:0|1:0,0:0:0:0:
225,274,106736,2,0,L|229:333,2,60.0000022888184,0|8|0,0:0|1:2|0:0,0:0:0:0:
203,167,106986,6,0,B|225:122|225:122|110:163|7:114|7:114|47:184|44:257,1,400,14|0,0:0|1:0,0:0:0:0:
70,322,107986,1,10,0:0:0:0:
381,62,108319,6,0,P|321:21|237:153,1,240.000009155274,2|8,1:2|0:0,0:0:0:0:
379,198,108819,1,0,0:0:0:0:
405,184,108903,2,0,L|499:169,1,60.0000022888184,0|2,1:0|0:0,0:0:0:0:
370,292,109069,1,0,0:0:0:0:
344,278,109153,2,0,L|250:263,1,60.0000022888184,0|2,1:0|0:0,0:0:0:0:
176,232,109319,2,0,B|141:285|141:285|172:362,1,120.000004577637,8|2,0:0|0:0,0:0:0:0:
234,148,109653,6,0,B|160:123|113:159|113:159|70:115|-7:120,1,240.000009155274,6|8,0:0|0:0,0:0:0:0:
292,367,110153,1,2,0:0:0:0:
292,367,110236,2,0,P|355:334|366:220,1,180.000006866455,0|0,0:0|1:0,0:0:0:0:
225,275,110653,2,0,L|318:264,1,60.0000022888184,10|0,0:0|0:0,0:0:0:0:
412,149,110819,2,0,L|319:138,1,60.0000022888184,0|2,0:0|0:0,0:0:0:0:
274,60,110986,38,0,B|253:2|253:2|226:213,1,240.000009155274,0|8,1:0|0:0,0:0:0:0:
104,297,111486,1,0,0:0:0:0:
104,297,111569,2,0,B|81:243|81:243|95:156,1,120.000004577637,0|0,1:0|1:0,0:0:0:0:
261,269,111819,2,0,L|181:261,1,60.0000022888184,0|2,1:0|0:0,0:0:0:0:
49,90,111986,2,0,L|129:82,1,60.0000022888184,8|0,0:0|1:0,0:0:0:0:
231,180,112153,1,2,1:2:0:0:
204,156,112236,1,8,0:0:0:0:
217,126,112319,22,0,L|307:117,3,60.0000022888184,6|0|0|2,1:2|0:0|0:0|0:0,0:0:0:0:
319,36,112653,2,0,L|389:93,3,60.0000022888184,0|0|2|0,0:0|0:0|0:0|0:0,0:0:0:0:
447,37,112986,2,0,L|456:126,3,60.0000022888184,0|2|0|0,0:0|0:0|0:0|0:0,0:0:0:0:
512,164,113319,2,0,L|455:234,3,60.0000022888184,2|0|0|2,0:0|0:0|0:0|0:0,0:0:0:0:
377,230,113653,6,0,P|402:275|443:289,3,60.0000022888184,0|0|2|0,0:0|0:0|0:0|0:0,0:0:0:0:
314,304,113986,2,0,P|300:353|319:392,3,60.0000022888184,0|2|0|0,0:0|0:0|0:0|0:0,0:0:0:0:
217,312,114319,2,0,P|172:338|159:379,3,60.0000022888184,2|0|0|2,0:0|0:0|0:0|0:0,0:0:0:0:
143,250,114653,2,0,P|94:236|55:255,3,60.0000022888184,0|0|2|0,0:0|0:0|0:0|0:0,0:0:0:0:
232,185,114986,6,0,B|243:159|243:159|244:111,1,60.0000022888184,2|0,1:2|0:0,0:0:0:0:
154,73,115153,2,0,B|143:99|143:99|142:147,1,60.0000022888184,0|2,1:0|0:0,0:0:0:0:
238,187,115319,2,0,B|249:161|249:161|250:113,1,60.0000022888184,0|0,1:0|0:0,0:0:0:0:
145,72,115486,2,0,B|134:98|134:98|133:146,1,60.0000022888184,2|0,1:2|0:0,0:0:0:0:
364,49,115653,6,0,L|283:42,1,60.0000022888184,0|2,1:0|0:0,0:0:0:0:
369,141,115819,2,0,L|450:134,1,60.0000022888184,0|0,1:0|0:0,0:0:0:0:
364,40,115986,2,0,L|283:33,1,60.0000022888184,2|0,1:2|0:0,0:0:0:0:
369,149,116153,2,0,L|450:142,1,60.0000022888184,0|2,1:0|0:0,0:0:0:0:
481,240,116319,37,0,1:0:0:0:
421,239,116402,1,0,1:0:0:0:
361,238,116485,1,2,1:2:0:0:
301,237,116568,1,0,0:0:0:0:
225,178,116653,5,0,1:0:0:0:
205,233,116736,1,2,1:2:0:0:
222,290,116819,1,0,1:1:0:0:
268,326,116902,1,0,1:0:0:0:
301,237,116986,37,2,1:2:0:0:
321,182,117069,1,0,1:0:0:0:
304,125,117152,1,8,0:0:0:0:
258,89,117236,6,0,L|174:72,2,60.0000022888184,2|0|8,1:2|1:0|0:0,0:0:0:0:
354,28,117486,2,0,L|438:11,1,60.0000022888184,2|8,1:2|0:0,0:0:0:0:
481,105,117653,6,0,B|437:128|459:149|459:149|479:135|419:97,1,120.000004577637,4|0,0:0|0:0,0:0:0:0:
