osu file format v14

[General]
AudioFilename: audio.mp3
AudioLeadIn: 0
PreviewTime: 85653
Countdown: 0
SampleSet: Soft
StackLeniency: 0.2
Mode: 0
LetterboxInBreaks: 0
WidescreenStoryboard: 1

[Editor]
Bookmarks: 9653,16653,21653,26986,32319,38319,42986,53653,64319,74986,82986,96319,105653,112319,114986,117653
DistanceSpacing: 0.3
BeatDivisor: 4
GridSize: 16
TimelineZoom: 4.299998

[Metadata]
Title:Yggdrasil (Original Mix)
TitleUnicode:Yggdrasil (Original Mix)
Artist:MYTK
ArtistUnicode:MYTK
Creator:Lulu-
Version:Ultra
Source:
Tags:dubstep drumstep dnb artcore kac2013 voez yamicchi dtm9 nowa rvmathew underdogs lowcombofc newton-
BeatmapID:1718496
BeatmapSetID:554801

[Difficulty]
HPDrainRate:6
CircleSize:4
OverallDifficulty:8.5
ApproachRate:9.8
SliderMultiplier:2
SliderTickRate:1

[Events]
//Background and Video events
0,0,"60393234_p0.jpg",0,0
//Break Periods
2,770,4753
2,5936,8753
2,11436,12753
2,13936,15310
2,53852,63119
//Storyboard Layer 0 (Background)
//Storyboard Layer 1 (Fail)
//Storyboard Layer 2 (Pass)
//Storyboard Layer 3 (Foreground)
//Storyboard Sound Samples

[TimingPoints]
320,333.333333333333,4,2,1,80,1,0
320,-40,4,2,1,80,0,0
5653,-142.857142857143,4,2,2,40,0,0
5736,-142.857142857143,4,2,1,5,0,0
9653,-125,4,2,1,50,0,0
9819,-100,4,2,1,50,0,0
9986,-83.3333333333333,4,2,1,50,0,0
10153,-66.6666666666667,4,2,1,50,0,0
10319,-66.6666666666667,4,2,1,50,0,0
10986,-40,4,2,1,40,0,0
13653,-142.857142857143,4,2,2,40,0,0
13736,-142.857142857143,4,2,1,5,0,0
15819,-142.857142857143,4,2,1,50,0,0
16319,-142.857142857143,4,2,1,5,0,0
16653,-181.818181818182,4,2,1,50,0,0
20236,-200,4,2,1,5,0,0
20319,-100,4,2,1,50,0,0
20986,-66.6666666666667,4,2,1,50,0,0
21653,-1000,4,2,1,50,0,0
21736,-66.6666666666667,4,2,1,5,0,0
23153,-100,4,2,1,40,0,0
24486,-142.857142857143,4,2,1,40,0,0
25819,-100,4,2,1,40,0,0
26986,-100,4,2,2,40,0,0
27153,-100,4,2,1,20,0,0
28319,-100,4,2,1,50,0,0
29319,-76.9230769230769,4,2,1,50,0,0
29653,-66.6666666666667,4,2,1,50,0,0
29986,-58.8235294117647,4,2,1,50,0,0
30319,-52.6315789473684,4,2,1,50,0,0
30653,-47.6190476190476,4,2,1,50,0,0
30986,-43.4782608695652,4,2,1,50,0,0
31653,-55.5555555555556,4,2,1,50,0,0
31986,-76.9230769230769,4,2,1,50,0,0
32319,-100,4,2,1,70,0,0
32903,-100,4,2,1,5,0,0
32986,-166.666666666667,4,2,1,70,0,0
34069,-166.666666666667,4,2,1,5,0,0
34153,-66.6666666666667,4,2,1,50,0,0
34319,-50,4,2,1,50,0,0
34569,-66.6666666666667,4,2,1,50,0,0
34986,-142.857142857143,4,2,1,60,0,0
35403,-142.857142857143,4,2,1,5,0,0
35486,-25,4,2,1,60,0,0
35653,-100,4,2,1,60,0,0
36153,-25,4,2,1,60,0,0
36319,-100,4,2,1,60,0,0
36819,-25,4,2,1,60,0,0
36986,-75.187969924812,4,2,1,60,0,0
37236,-125,4,2,1,5,0,0
37319,-66.6666666666667,4,2,1,50,0,0
37653,-50,4,2,1,70,0,0
38319,-66.6666666666667,4,2,1,50,0,0
38653,-58.8235294117647,4,2,1,50,0,0
38986,-52.6315789473684,4,2,1,55,0,0
39319,-47.6190476190476,4,2,1,55,0,0
39486,-40,4,2,1,55,0,0
39653,-40,4,2,1,60,0,0
40319,-100,4,2,1,60,0,0
40736,-100,4,2,1,5,0,0
40819,-25,4,2,1,60,0,0
40986,-100,4,2,1,60,0,0
41486,-25,4,2,1,60,0,0
41653,-100,4,2,1,60,0,0
42153,-25,4,2,1,50,0,0
42319,-50,4,2,1,50,0,0
42986,-100,4,2,1,60,0,0
43486,-25,4,2,1,60,0,0
43653,-100,4,2,1,60,0,0
43819,-100,4,2,1,5,0,0
43903,-100,4,2,1,60,0,0
44069,-100,4,2,1,5,0,0
44153,-50,4,2,1,60,0,0
44319,-100,4,2,1,60,0,0
44736,-25,4,2,1,50,0,0
44986,-40,4,2,1,60,0,0
45653,-100,4,2,1,60,0,0
46153,-25,4,2,1,60,0,0
46319,-100,4,2,1,60,0,0
46819,-25,4,2,1,60,0,0
46986,-100,4,2,1,60,0,0
47486,-25,4,2,1,60,0,0
47653,-75.187969924812,4,2,1,60,0,0
47986,-40,4,2,1,60,0,0
48153,-40,4,2,2,60,0,0
48236,-40,4,2,1,60,0,0
48903,-83.3333333333333,4,2,1,5,0,0
48986,-66.6666666666667,4,2,1,50,0,0
49319,-62.5,4,2,1,50,0,0
49653,-58.8235294117647,4,2,1,50,0,0
49819,-55.5555555555556,4,2,1,50,0,0
49986,-52.6315789473684,4,2,1,55,0,0
50153,-50,4,2,1,55,0,0
50319,-47.6190476190476,4,2,1,60,0,0
50486,-45.4545454545455,4,2,1,60,0,0
50653,-43.4782608695652,4,2,1,65,0,0
50819,-41.6666666666667,4,2,1,65,0,0
50986,-40,4,2,1,70,0,0
51486,-25,4,2,1,60,0,0
51653,-100,4,2,1,60,0,0
52153,-25,4,2,1,60,0,0
52319,-100,4,2,1,60,0,0
52819,-25,4,2,1,65,0,0
52986,-33.3333333333333,4,2,1,70,0,0
64319,-333.333333333333,4,2,1,40,0,0
64986,-111.111111111111,4,2,1,40,0,0
65486,-333.333333333333,4,2,1,40,0,0
66153,-200,4,2,1,40,0,0
66653,-100,4,2,1,40,0,0
66986,-200,4,2,1,45,0,0
67653,-133.333333333333,4,2,1,45,0,0
68319,-200,4,2,1,45,0,0
68986,-100,4,2,1,50,0,0
70319,-90.9090909090909,4,2,1,50,0,0
70819,-83.3333333333333,4,2,1,55,0,0
71486,-76.9230769230769,4,2,1,60,0,0
71653,-71.4285714285714,4,2,1,60,0,0
71986,-66.6666666666667,4,2,1,60,0,0
72153,-62.5,4,2,1,60,0,0
72319,-58.8235294117647,4,2,1,60,0,0
72986,-55.5555555555556,4,2,1,60,0,0
73653,-55.5555555555556,4,2,2,65,0,0
73736,-52.6315789473684,4,2,1,65,0,0
73819,-50,4,2,1,70,0,0
74486,-71.4285714285714,4,2,1,70,0,0
74653,-66.6666666666667,4,2,1,70,0,0
74819,-62.5,4,2,1,70,0,0
74986,-333.333333333333,4,2,1,80,0,1
75153,-333.333333333333,4,2,1,5,0,1
75236,-40,4,2,1,80,0,1
75403,-40,4,2,1,5,0,1
75486,-333.333333333333,4,2,1,80,0,1
75653,-333.333333333333,4,2,1,5,0,1
75736,-40,4,2,1,80,0,1
75903,-40,4,2,1,5,0,1
75986,-500,4,2,1,60,0,0
76236,-333.333333333333,4,2,1,5,0,0
76319,-333.333333333333,4,2,1,80,0,1
76486,-333.333333333333,4,2,1,5,0,1
76569,-40,4,2,1,80,0,1
76736,-40,4,2,1,5,0,1
76819,-333.333333333333,4,2,1,80,0,1
76986,-333.333333333333,4,2,1,5,0,1
77069,-40,4,2,1,80,0,1
77236,-40,4,2,1,5,0,1
77319,-166.666666666667,4,2,1,60,0,0
77403,-166.666666666667,4,2,1,5,0,0
77486,-166.666666666667,4,2,1,60,0,0
77569,-166.666666666667,4,2,1,5,0,0
77653,-200,4,2,1,80,0,1
77819,-200,4,2,1,5,0,1
77903,-40,4,2,1,80,0,1
78069,-40,4,2,1,5,0,1
78153,-200,4,2,1,80,0,1
78319,-200,4,2,1,5,0,1
78403,-40,4,2,1,80,0,1
78569,-40,4,2,1,5,0,1
78653,-100,4,2,1,60,0,0
78903,-100,4,2,1,5,0,0
78986,-200,4,2,1,80,0,1
79153,-200,4,2,1,5,0,1
79236,-40,4,2,1,80,0,1
79403,-40,4,2,1,5,0,1
79486,-200,4,2,1,80,0,1
79653,-200,4,2,1,5,0,1
79736,-40,4,2,1,80,0,1
79903,-40,4,2,1,5,0,1
79986,-100,4,2,1,60,0,0
80069,-100,4,2,1,5,0,0
80153,-100,4,2,1,60,0,0
80236,-100,4,2,1,5,0,0
80319,-100,4,2,1,80,0,1
81319,-40,4,2,1,80,0,0
81653,-33.3333333333333,4,2,1,80,0,0
81903,-100,4,2,1,80,0,1
82653,-28.5714285714286,4,2,1,80,0,0
82986,-66.6666666666667,4,2,1,50,0,0
83653,-50,4,2,1,60,0,0
84319,-40,4,2,1,70,0,0
84986,-33.3333333333333,4,2,1,80,0,0
85653,-33.3333333333333,4,2,1,90,0,1
85986,-50,4,2,1,90,0,1
86653,-33.3333333333333,4,2,1,90,0,1
86986,-40,4,2,1,90,0,1
87653,-52.6315789473684,4,2,1,70,0,0
87819,-62.5,4,2,1,70,0,0
87986,-76.9230769230769,4,2,1,70,0,0
88153,-100,4,2,1,70,0,0
88319,-142.857142857143,4,2,1,70,0,0
88819,-25,4,2,1,70,0,0
88986,-100,4,2,1,70,0,0
89486,-25,4,2,1,70,0,0
89653,-100,4,2,1,70,0,0
90153,-25,4,2,1,70,0,0
90319,-100,4,2,1,70,0,0
90653,-100,4,2,1,70,0,0
90819,-33.3333333333333,4,2,2,70,0,0
90903,-100,4,2,1,70,0,0
90986,-33.3333333333333,4,2,1,90,0,0
91319,-50,4,2,1,90,0,0
91653,-50,4,2,1,90,0,0
92153,-66.6666666666667,4,2,1,90,0,0
92319,-50,4,2,1,90,0,1
92403,-50,4,2,1,5,0,0
92569,-50,4,2,1,90,0,1
92653,-50,4,2,1,5,0,0
92819,-50,4,2,1,90,0,1
92903,-50,4,2,1,5,0,0
93069,-50,4,2,1,90,0,1
93153,-50,4,2,1,5,0,0
93319,-50,4,2,1,90,0,1
93653,-100,4,2,1,70,0,0
94319,-66.6666666666667,4,2,1,75,0,0
94986,-50,4,2,1,75,0,0
95653,-40,4,2,1,75,0,0
96319,-33.3333333333333,4,2,1,95,0,1
96819,-40,4,2,1,95,0,1
97319,-50,4,2,1,95,0,1
97819,-66.6666666666667,4,2,1,95,0,1
98986,-33.3333333333333,4,2,1,80,0,1
99486,-40,4,2,1,80,0,1
99986,-50,4,2,1,80,0,1
100486,-40,4,2,1,80,0,1
101653,-33.3333333333333,4,2,1,80,0,1
102153,-40,4,2,1,80,0,1
102653,-50,4,2,1,80,0,1
103153,-66.6666666666667,4,2,1,80,0,1
104319,-33.3333333333333,4,2,1,80,0,1
104819,-40,4,2,1,80,0,1
105319,-50,4,2,1,80,0,1
106986,-500,4,2,1,85,0,0
107653,-500,4,2,1,5,0,0
107819,-66.6666666666667,4,2,1,85,0,0
108319,-40,4,2,2,90,0,1
108403,-40,4,2,1,90,0,1
109653,-33.3333333333333,4,2,1,90,0,1
110153,-40,4,2,1,90,0,1
110653,-50,4,2,1,90,0,1
111153,-40,4,2,1,90,0,1
112319,-50,4,2,1,65,0,0
112986,-45.4545454545455,4,2,1,65,0,0
113653,-41.6666666666667,4,2,1,65,0,0
114319,-38.4615384615385,4,2,1,65,0,0
114986,-35.7142857142857,4,2,1,80,0,1
117653,-25,4,2,1,85,0,0
117986,-25,4,2,1,5,0,0

[Colours]
Combo1 : 247,51,51
Combo2 : 255,128,255
Combo3 : 0,128,255
Combo4 : 247,124,51

[HitObjects]
206,210,320,54,0,B|158:114|270:50|398:114|302:274|238:338,1,375,4|0,0:0|0:0,0:0:0:0:
262,310,5653,6,0,P|259:334|252:358,1,34.9999989318848,2|0,0:0|0:0,0:0:0:0:
256,328,9653,6,0,P|262:307|266:287,1,40,2|2,0:0|0:0,0:0:0:0:
176,81,9819,2,0,P|182:106|193:130,1,50,2|2,0:0|0:0,0:0:0:0:
418,254,9986,2,0,P|390:232|359:215,1,59.9999981689454,2|2,0:0|0:0,0:0:0:0:
121,235,10153,6,0,B|81:245|81:245|26:229,1,75.0000028610231,2|2,1:2|0:0,0:0:0:0:
338,78,10319,2,0,B|322:9|390:-56|456:-23|451:41|409:60,1,225.000008583069,10|2,0:0|0:0,0:0:0:0:
176,81,10653,2,0,B|149:53|149:53|114:39,1,75.0000028610231,2|10,1:2|0:2,0:2:0:0:
71,146,10819,2,0,B|32:148|32:148|-1:166,1,75.0000028610231,2|10,1:2|0:2,0:2:0:0:
14,257,10986,6,0,B|78:321|142:257|142:225|206:193|295:208|316:365|185:354|186:297,1,375,4|0,0:0|0:0,0:0:0:0:
188,309,13653,6,0,P|212:309|237:314,1,34.9999989318848,2|0,0:0|0:0,0:0:0:0:
138,277,15819,54,0,P|146:254|161:234,1,34.9999989318848,0|0,1:0|1:0,0:0:0:0:
256,98,15986,2,0,P|268:106|276:115,1,17.4999994659424,0|0,1:0|0:0,0:0:0:0:
266,88,16069,2,0,P|282:107|293:129,1,34.9999989318848,8|0,0:0|0:0,0:0:0:0:
366,292,16236,2,0,P|341:296|316:295,1,34.9999989318848,0|0,1:0|0:0,0:0:0:0:
75,236,16653,6,0,B|97:263|86:301|86:301|113:248|105:194|79:194|77:156|83:119|83:119|93:12|-58:0|-33:186|83:119|83:119|150:96|230:128|198:160|278:192|387:127|387:127|275:130|191:43|257:-32|358:-42|353:52|314:95,1,1182.50003608704,4|0,0:0|0:0,0:0:0:0:
313,86,20319,6,0,B|357:16|297:-27|245:-1|210:34|253:132|374:129,1,300,2|0,0:0|1:0,0:0:0:0:
478,313,20986,2,0,P|489:236|379:262,1,225.000008583069,8|0,0:0|0:0,0:0:0:0:
301,320,21319,6,0,P|264:323|228:311,1,75.0000028610231,0|8,1:0|0:0,0:0:0:0:
15,97,21486,2,0,P|52:94|87:104,1,75.0000028610231,0|8,1:0|0:0,0:0:0:0:
158,248,21653,22,0,L|153:165,1,80,4|0,0:0|0:0,0:0:0:0:
111,6,23153,38,0,P|94:52|111:98,1,100,2|2,0:0|0:0,0:0:0:0:
360,57,23653,2,0,P|328:19|280:11,1,100,2|2,0:0|0:0,0:0:0:0:
192,246,24153,2,0,P|241:237|271:199,1,100,2|2,0:0|0:0,0:0:0:0:
360,57,24486,6,0,B|358:96|358:96|366:126,1,69.9999978637696,2|2,0:0|0:0,0:0:0:0:
442,297,24986,2,0,B|409:275|409:275|379:267,1,69.9999978637696,2|2,0:0|0:0,0:0:0:0:
193,248,25486,2,0,B|227:230|227:230|249:208,1,69.9999978637696,2|2,0:0|0:0,0:0:0:0:
122,133,25819,38,0,P|91:96|43:89,2,100,2|2|2,0:0|0:0|0:0,0:0:0:0:
193,248,26486,6,0,P|177:294|194:339,2,100,2|2|2,0:0|0:0|0:0,0:0:0:0:
334,134,26986,38,0,B|385:134|443:173|406:191|470:227|534:222,3,200,2|0|0|0,1:2|1:0|1:0|1:0,0:0:0:0:
345,277,28319,6,0,B|386:234|335:170|276:202|250:265|277:316,2,200,0|0|0,1:0|1:0|1:0,1:0:0:0:
152,206,29153,2,0,P|125:198|107:183,1,50,2|2,0:0|0:0,0:0:0:0:
207,64,29319,38,0,P|201:32|204:0,3,64.9999970245363,2|2|2|2,1:2|0:2|0:2|0:2,0:2:0:0:
285,102,29653,6,0,P|304:71|337:53,3,75.0000028610231,2|2|2|2,1:2|0:2|0:2|0:2,0:2:0:0:
314,186,29986,38,0,P|356:177|398:183,3,85.0000016212464,2|2|2|2,1:2|0:2|0:2|0:2,0:2:0:0:
274,264,30319,6,0,P|317:285|344:324,3,94.9999974632264,2|2|2|2,1:2|0:2|0:2|0:2,0:2:0:0:
188,289,30653,6,0,P|176:352|148:378,3,104.999996795654,2|2|2|2,1:2|0:2|0:2|0:2,0:2:0:0:
96,299,30986,6,0,P|50:264|22:214,1,115.000002193451,2|2,1:2|0:2,0:2:0:0:
91,3,31153,2,0,P|75:58|83:115,1,115.000002193451,2|2,0:2|0:2,0:2:0:0:
188,289,31319,38,0,P|153:243|139:188,1,115.000002193451,2|2,0:2|0:2,0:2:0:0:
258,2,31486,2,0,P|228:50|221:107,1,115.000002193451,2|2,0:2|0:2,0:2:0:0:
281,280,31653,6,0,P|272:235|279:191,1,89.9999972534181,2|2,0:2|0:2,0:2:0:0:
416,41,31819,2,0,P|383:71|360:110,1,89.9999972534181,2|2,0:2|0:2,0:2:0:0:
373,270,31986,38,0,P|382:238|398:211,3,64.9999970245363,2|2|2|2,0:0|0:0|0:0|0:0,0:0:0:0:
330,107,32319,22,0,B|290:55|200:79|205:158|248:193|291:192|316:192|338:132|356:100|471:140,1,350,4|0,0:0|0:0,0:0:0:0:
505,326,32986,6,0,B|464:262|504:190|552:184|501:73|501:73|536:149|475:212,1,389.999988098145,8|0,0:0|0:0,0:0:0:0:
276,171,34153,6,0,P|238:165|200:183,1,75.0000028610231,0|0,1:0|0:0,0:0:0:0:
141,310,34319,2,0,B|207:337|252:353|280:277|283:301|280:336|273:294|250:239,1,200,8|0,0:0|1:0,0:0:0:0:
121,166,34569,22,0,P|135:132|166:111,1,75.0000028610231,0|0,1:0|0:0,0:0:0:0:
47,239,34736,2,0,P|19:172|42:102,1,150.000005722046,0|10,1:0|0:0,0:0:0:0:
444,168,34986,6,0,B|414:163|384:157|395:163|401:151|376:165|387:155|406:171|392:146|374:143|386:183|378:156|360:169|342:181|334:155|346:194|328:191|316:167|333:183|344:172|319:187|325:175|336:180|306:175|276:170,1,174.999994659424,4|0,0:0|0:0,0:0:0:0:
178,185,35486,22,0,B|110:164|86:72|147:45|205:72|187:122,1,200,2|0,0:0|0:0,0:0:0:0:
179,108,35653,22,0,B|174:82|132:57|84:90|97:171|168:194,1,200,8|0,0:0|0:0,0:0:0:0:
320,272,36153,22,0,B|215:226|235:309|128:272,1,200,2|2,1:2|0:2,1:2:0:0:
133,287,36319,22,0,B|240:324|220:241|325:287,1,200,0|0,1:0|0:0,0:0:0:0:
451,251,36819,22,0,L|467:51,1,200,2|2,1:2|0:2,0:2:0:0:
447,32,36986,22,0,L|430:231,1,200,8|0,0:0|0:0,0:0:0:0:
285,317,37319,38,2,P|313:316|289:301,1,75.0000028610231
175,357,37486,2,2,P|188:331|163:345,1,75.0000028610231
70,297,37653,38,0,B|-58:329|-24:92|70:199|102:137|201:238|209:321|339:246|370:212|373:113|366:42|255:-49|182:100|172:75|164:62|257:27|285:51|275:154,1,700,4|0,0:0|0:0,0:0:0:0:
387,233,38319,6,0,P|426:216|472:226,3,75.0000028610231,10|2|2|2,0:0|0:0|0:0|0:0,0:0:0:0:
324,147,38653,2,0,P|340:108|375:83,3,85.0000016212464,2|2|2|2,0:0|0:0|0:0|0:0,0:0:0:0:
206,39,38986,6,0,P|202:86|222:129,3,94.9999974632264,2|2|2|2,0:0|0:0|0:0|0:0,0:0:0:0:
51,134,39319,6,0,P|86:172|135:188,1,104.999996795654,2|2,0:0|0:0,0:0:0:0:
0,313,39486,2,0,P|60:317|116:290,1,125,2|2,1:2|0:0,0:0:0:0:
324,147,39653,6,0,B|362:127|376:81|314:57|260:81|261:149|321:171|339:192|332:283|332:283|326:241|300:215,1,375,10|2,0:0|0:0,0:0:0:0:
285,19,39986,38,0,P|345:15|401:42,1,125,2|2,1:2|0:2,0:2:0:0:
242,269,40153,2,0,P|207:217|204:155,1,125,2|2,1:2|0:2,0:2:0:0:
481,182,40319,22,0,B|447:283|301:258|318:147|394:141|410:177,1,250,4|0,0:0|0:0,0:0:0:0:
242,269,40819,38,0,P|177:312|193:236,1,200,2|0,0:0|0:0,0:0:0:0:
204,246,40986,22,0,P|186:322|252:280,1,200,8|2,0:0|0:0,0:0:0:0:
257,175,41486,22,0,B|295:181|334:189|320:181|312:197|345:178|331:191|306:171|324:203|347:207|332:155|342:190|366:173|389:158|399:191|384:141|407:145|423:176|401:155|386:169|419:150|411:165|397:159|436:165|475:172,1,200,0|0,1:0|0:0,0:0:0:0:
475,188,41653,22,0,B|461:185|422:179|436:185|444:170|411:189|426:175|448:196|432:165|409:161|424:211|414:178|391:193|367:210|357:175|372:227|349:223|331:191|356:211|370:198|337:217|345:201|359:209|320:201|282:195,1,200,0|0,1:0|0:0,0:0:0:0:
88,210,42153,22,0,B|134:148|96:79|96:79|95:115|77:136,1,200,0|0,1:0|0:0,0:0:0:0:
142,323,42319,38,0,B|197:316|197:316|229:285,1,100,10|0,0:0|0:0,0:0:0:0:
422,162,42486,6,0,P|359:161|300:143,1,100,0|2,1:0|0:0,0:0:0:0:
100,127,42653,2,0,P|150:163|187:213,1,100,0|0,1:0|0:0,0:0:0:0:
341,344,42819,2,0,P|321:284|321:222,1,100,2|8,1:2|0:0,0:0:0:0:
273,28,42986,22,0,B|161:12|177:60|65:28,1,200,0|0,1:0|0:0,1:0:0:0:
71,51,43486,22,0,B|172:80|156:32|268:48,1,200,2|0,1:2|0:0,1:0:0:0:
455,188,43653,22,0,B|405:159|410:201|359:177,1,100,0|0,1:0|0:0,1:0:0:0:
349,192,43903,2,0,B|400:215|394:173|444:202,1,100,0|0,1:0|0:0,1:0:0:0:
438,217,44153,22,0,B|388:188|393:230|342:206,1,100,2|0,1:2|0:0,1:0:0:0:
79,303,44319,22,0,B|144:285|144:285|184:324|184:324|257:304,1,200,0|0,1:0|0:0,0:0:0:0:
228,345,44736,22,0,B|154:364|154:364|115:325|115:325|49:343,2,200,0|2|0,1:0|0:0|0:0,0:0:0:0:
358,197,44986,22,0,B|318:137|247:132|258:176|159:156|136:68,1,250,8|0,0:0|0:0,0:0:0:0:
221,45,45236,22,0,P|264:29|234:64,1,125,0|0,1:0|0:0,1:0:0:0:
273,246,45403,2,0,P|251:304|255:366,2,125,8|0|0,0:0|0:0|1:0,0:0:0:0:
412,48,45653,22,0,B|364:52|364:52|333:70|333:70|299:41|299:41|268:60|268:60|233:63,1,200,0|0,1:0|0:0,0:0:0:0:
47,153,46153,22,0,B|73:92|73:92|91:225,1,200,2|2,1:2|0:0,0:0:0:0:
101,235,46319,22,0,B|83:102|83:102|57:163,1,200,8|0,0:0|0:0,0:0:0:0:
316,304,46819,22,0,B|290:243|290:243|238:307|272:376,1,200,2|0,1:2|0:0,0:0:0:0:
288,377,46986,22,0,B|258:317|310:253|310:253|336:314,1,200,0|0,1:0|0:0,0:0:0:0:
252,39,47486,22,0,B|250:15|203:-17|143:47|199:125|262:110,1,200,0|2,1:0|0:0,0:0:0:0:
246,125,47653,22,0,B|183:140|127:62|187:-2|234:30|236:54,1,200,8|0,0:0|0:0,0:0:0:0:
445,232,47986,6,0,B|465:241|465:241|468:187|418:156,1,125
305,274,48153,2,0,B|286:286|286:286|331:316|383:288,1,125,2|0,0:0|0:0,0:0:0:0:
320,133,48319,6,0,B|336:108|336:108|287:133|286:192|286:192|249:133|162:124|162:124|162:168|132:202|132:202|68:196|59:103|59:103|72:196|11:222|11:222|-18:295|17:350|83:356|83:356|43:340|42:299,1,875,0|0,1:0|0:0,0:0:0:0:
254,265,48986,6,0,P|290:272|326:263,3,75.0000028610231,10|0|0|0,0:0|0:0|0:0|0:0,0:0:0:0:
400,292,49319,2,0,P|425:261|437:223,3,80,2|0|0|0,0:0|0:0|0:0|0:0,0:0:0:0:
498,174,49653,22,0,P|483:134|454:103,1,85.0000016212464,2|0,0:0|0:0,0:0:0:0:
336,0,49819,2,0,P|335:44|352:86,1,89.9999972534181,2|0,0:0|0:0,0:0:0:0:
400,292,49986,6,0,P|408:245|399:199,1,94.9999974632264,2|0,0:0|0:0,0:0:0:0:
249,8,50153,2,0,P|240:57|250:106,1,100,2|0,0:0|0:0,0:0:0:0:
256,344,50319,38,0,P|291:306|311:258,1,104.999996795654,2|0,0:0|0:0,0:0:0:0:
162,15,50486,2,0,P|142:66|144:121,1,110.000003356934,2|0,1:2|0:0,0:0:0:0:
104,316,50653,6,0,P|159:301|209:273,1,115.000002193451,2|8,1:2|0:0,0:0:0:0:
73,22,50819,2,0,P|36:75|22:137,1,119.999996337891,2|8,1:2|0:0,0:0:0:0:
341,141,50986,38,0,B|345:186|476:174|428:23|338:24|280:67|286:98|234:172|149:127|149:127|211:127|252:67,1,500,4|0,0:0|0:0,0:0:0:0:
465,40,51486,6,0,P|486:135|442:223,1,200,2|0,0:0|0:0,0:0:0:0:
452,233,51653,22,0,P|496:145|476:50,1,200,8|0,0:0|0:0,0:0:0:0:
213,147,52153,22,0,B|102:87|218:-49|286:91|212:107,1,200,0|0,1:0|0:0,0:0:0:0:
224,94,52319,22,0,B|225:14|103:59|154:143|197:161,1,200,0|0,1:0|0:0,0:0:0:0:
453,224,52819,22,0,P|373:251|432:312,1,200,0|0,1:0|0:0,0:0:0:0:
443,318,52986,38,0,B|349:329|349:182|428:182|508:182|547:263|509:345|451:343|378:356|310:377|229:229|229:229|245:219|245:219|230:229|230:229|167:98|-98:108|-47:383|153:375|245:219,1,1200.00004577637,8|0,0:0|1:0,0:0:0:0:
354,58,64319,22,0,P|331:97|323:141,1,89.9999972534181,0|0,1:0|0:0,0:0:0:0:
255,324,64986,22,0,P|238:237|179:171,1,179.999994506836,8|0,0:0|0:0,0:0:0:0:
74,106,65486,22,0,P|118:106|160:91,1,89.9999972534181,0|0,1:0|0:0,0:0:0:0:
370,217,66153,6,0,B|359:243|359:243|360:245|360:245|351:269,2,50,0|8|0,1:0|0:0|1:0,0:0:0:0:
396,138,66653,6,0,P|371:134|346:137,1,50,0|8,1:0|0:0,0:0:0:0:
426,280,66819,2,0,P|441:260|451:237,1,50,0|8,1:0|0:0,0:0:0:0:
288,234,66986,22,0,P|244:297|264:366,1,150,0|0,1:0|1:0,0:0:0:0:
315,104,67653,22,0,P|419:112|456:13,1,225.000008583069,8|0,0:0|1:0,0:0:0:0:
189,146,68319,22,0,P|155:76|85:59,1,150,0|0,1:0|1:0,0:0:0:0:
379,69,68986,22,0,B|372:144|372:144|376:149|376:149|370:217,2,150,8|0|0,0:0|0:0|0:0,0:0:0:0:
218,42,69653,22,0,P|194:41|169:47,7,50,0|0|0|0|0|0|0|0,1:0|0:0|0:0|0:0|0:0|0:0|0:0|0:0,0:0:0:0:
92,49,70319,6,0,P|71:69|54:95,5,55.0000016784668,8|0|0|0|0|0,0:0|0:0|0:0|0:0|0:0|0:0,0:0:0:0:
1,153,70819,38,0,P|-2:184|4:212,7,59.9999981689454,0|0|0|0|0|0|0|0,1:0|0:0|0:0|0:0|0:0|0:0|0:0|0:0,0:0:0:0:
6,304,71486,6,0,P|24:329|53:347,1,64.9999970245363,0|0,1:0|0:0,0:0:0:0:
146,380,71653,38,0,P|181:385|215:378,3,69.9999978637696,8|0|0|0,0:0|0:0|0:0|0:0,0:0:0:0:
306,323,71986,6,0,P|341:300|357:268,1,75.0000028610231,0|8,1:0|0:0,0:0:0:0:
218,42,72153,2,0,P|217:81|239:113,1,80,0|8,1:0|0:0,0:0:0:0:
505,105,72319,38,0,B|485:83|457:83|466:94|441:96|419:82,7,85.0000016212464,0|0|0|0|0|0|0|0,1:0|0:0|0:0|0:0|0:0|0:0|0:0|0:0,0:0:0:0:
295,333,72986,6,0,B|323:327|337:301|323:304|334:282|355:271,7,89.9999972534181,8|0|0|0|0|0|0|0,0:0|0:0|0:0|0:0|0:0|0:0|0:0|0:0,0:0:0:0:
213,27,73653,38,0,B|203:54|218:79|223:65|237:86|235:110,9,89.9999972534181,2|0|0|0|0|0|0|0|0|0,1:2|0:0|0:0|0:0|0:0|0:0|0:0|0:0|0:0|0:0,0:0:0:0:
462,266,74486,22,0,B|457:229|457:229|438:202,1,69.9999978637696,0|0,1:0|0:0,0:0:0:0:
190,206,74653,2,0,B|226:220|226:220|260:218,1,75.0000028610231,0|8,1:0|0:0,0:0:0:0:
378,0,74819,2,0,B|344:25|344:25|328:59,1,80,0|8,1:0|0:0,0:0:0:0:
124,356,74986,38,0,B|151:343,1,29.9999990844727,4|0,0:0|0:0,0:0:0:0:
190,181,75236,22,0,B|206:21|206:21|136:76,1,250,4|0,0:0|0:0,0:0:0:0:
373,228,75486,22,0,B|348:210,1,29.9999990844727,4|0,0:0|0:0,0:0:0:0:
188,258,75736,22,0,B|41:324|41:324|124:356,1,250,4|0,0:0|0:0,0:0:0:0:
136,77,75986,6,0,B|133:106,1,29.9999990844727,2|0,1:2|0:0,0:0:0:0:
256,222,76319,6,0,B|280:239,1,29.9999990844727,4|0,0:0|0:0,0:0:0:0:
442,169,76569,22,0,B|333:90|333:90|273:136|273:136|361:200,1,250,4|0,0:0|0:0,0:0:0:0:
394,356,76819,22,0,B|396:326,1,29.9999990844727,4|0,0:0|0:0,0:0:0:0:
256,222,77069,22,0,B|242:355|242:355|312:384|312:384|323:275,1,250,4|0,0:0|0:0,0:0:0:0:
442,169,77319,6,0,B|414:181,1,29.9999990844727,2|0,1:2|0:0,0:0:0:0:
256,222,77486,2,0,B|259:191,1,29.9999990844727,2|0,1:2|0:0,0:0:0:0:
303,33,77653,6,0,B|343:63,1,50,4|0,0:0|0:0,0:0:0:0:
199,324,77903,22,0,B|110:227|110:227|182:132,1,250,4|0,0:0|0:0,0:0:0:0:
503,270,78153,22,0,B|457:289,1,50,4|0,0:0|0:0,0:0:0:0:
303,34,78403,22,0,B|431:5|431:5|477:115,1,250,4|0,0:0|0:0,0:0:0:0:
329,339,78653,6,0,B|297:333|297:333|271:345|271:345|247:316|247:316|217:327|217:327|199:324,1,150,2|0,1:2|0:0,0:0:0:0:
181,133,78986,6,0,L|193:84,1,50,4|0,0:0|0:0,0:0:0:0:
211,244,79236,22,0,B|115:218|115:218|81:159|81:159|2:138,1,250,4|0,0:0|0:0,0:0:0:0:
293,163,79486,22,0,L|328:198,1,50,4|0,0:0|0:0,0:0:0:0:
181,133,79736,22,0,B|250:63|250:63|318:63|318:63|377:4,1,250,4|0,0:0|0:0,0:0:0:0:
462,109,79986,6,2,P|479:128|491:150,1,50,2|2,1:2|1:2,1:2:0:0:
473,288,80153,2,2,P|460:309|443:327,1,50,2|2,1:2|1:2,1:2:0:0:
255,332,80319,6,0,P|277:343|302:349,2,50,4|0|0,0:0|0:0|0:0,0:0:0:0:
187,160,80569,2,0,P|185:185|188:210,2,50,4|0|0,0:0|0:0|0:0,0:0:0:0:
331,42,80819,2,0,P|306:47|284:58,2,50,4|0|0,0:0|0:0|0:0,0:0:0:0:
490,149,81069,2,0,P|478:127|462:109,2,50,4|0|0,0:0|0:0|0:0,0:0:0:0:
409,172,81319,6,8,B|332:136|332:136|276:196|276:196|315:267|315:267|396:252|396:252|402:207,1,375,2|0,1:2|0:0,0:0:0:0:
111,73,81653,6,0,B|224:100|224:100|141:188|141:188|124:127,1,300.000011444092,4|0,0:0|0:0,0:0:0:0:
304,40,81903,6,0,P|287:22|264:11,2,50,4|0|0,0:0|0:0|0:0,0:0:0:0:
204,267,82153,2,0,P|184:281|160:288,2,50,4|0|0,0:0|0:0|0:0,0:0:0:0:
13,87,82403,2,0,P|11:63|17:39,2,50,4|0|0,0:0|0:0|0:0,0:0:0:0:
247,333,82653,38,0,B|165:387|36:304|92:137|246:77|301:252|355:314|491:224,1,525.00000500679,2|0,1:2|0:0,0:0:0:0:
410,107,82986,6,0,P|389:137|390:174,1,75.0000028610231,2|2,0:0|0:0,0:0:0:0:
404,100,83153,2,0,P|378:126|373:162,1,75.0000028610231,2|2,0:0|0:0,0:0:0:0:
399,92,83319,2,0,P|369:113|357:148,1,75.0000028610231,2|2,0:0|0:0,0:0:0:0:
395,83,83486,2,0,P|361:99|344:131,1,75.0000028610231,2|2,0:0|0:0,0:0:0:0:
310,121,83653,6,0,P|345:85|393:74,1,100,2|2,0:0|0:0,0:0:0:0:
302,96,83819,2,0,P|342:67|392:64,1,100,2|2,0:0|0:0,0:0:0:0:
298,69,83986,2,0,P|342:47|392:53,1,100,2|2,0:0|0:0,0:0:0:0:
298,41,84153,2,0,P|345:28|393:42,1,100,2|2,0:0|0:0,0:0:0:0:
423,254,84319,6,0,P|384:302|371:362,1,125,2|2,0:0|0:0,0:0:0:0:
318,201,84486,2,0,P|308:262|327:321,1,125,2|2,0:0|0:0,0:0:0:0:
199,207,84653,2,0,P|221:264|267:306,1,125,2|2,0:0|0:0,0:0:0:0:
100,271,84819,2,0,P|148:309|208:322,1,125,2|2,0:0|0:0,0:0:0:0:
482,161,84986,6,0,P|498:90|448:38,1,150.000005722046,2|2,1:2|0:0,0:0:0:0:
322,90,85153,2,0,P|277:32|206:37,1,150.000005722046,2|2,1:2|0:0,0:0:0:0:
146,108,85319,2,0,P|73:105|31:163,1,150.000005722046,2|10,1:2|0:0,0:0:0:0:
46,254,85486,2,0,P|18:320|58:380,1,150.000005722046,2|10,1:2|0:0,0:0:0:0:
504,255,85653,38,0,B|387:196|271:225|329:342|212:371|96:313,1,450.000017166138,0|0,1:0|0:0,0:0:0:0:
191,218,85986,2,0,B|296:256|296:256|289:321|289:321|409:365,1,300.000011444092,8|0,0:0|0:0,0:0:0:0:
504,255,86319,6,0,B|505:173|450:134|450:134|470:162|467:197,1,200,0|0,0:0|1:0,0:0:0:0:
191,218,86653,2,0,B|159:282|95:282|47:234|47:170|95:122|159:122|207:170|175:202|264:246|360:178,1,450.000017166138,8|0,0:0|0:0,0:0:0:0:
398,90,86986,38,0,B|446:-6|334:-70|206:-6|302:154|366:218,1,375,0|0,1:0|0:0,0:0:0:0:
433,323,87319,2,0,B|369:334|369:334|328:373|328:373|264:287|264:287|225:343|225:343|146:357,1,375,8|0,0:0|1:0,0:0:0:0:
121,384,87653,6,0,P|86:351|66:308,1,94.9999974632264,2|0,0:0|0:0,0:0:0:0:
107,41,87819,2,0,P|94:78|94:118,1,80,2|0,1:2|0:0,0:0:0:0:
206,314,87986,2,0,P|195:284|192:252,1,64.9999970245363,10|2,0:0|0:0,0:0:0:0:
310,99,88153,2,0,P|300:122|296:146,1,50,2|2,0:0|0:0,0:0:0:0:
433,323,88319,22,0,P|503:312|453:261,1,174.999994659424,0|0,1:0|0:0,0:0:0:0:
303,291,88819,22,0,B|327:248|321:178|287:202|286:129|310:99,1,200,2|2,1:2|0:0,0:0:0:0:
325,89,88986,22,0,B|301:119|302:192|336:168|342:238|318:281,1,200,8|0,0:0|0:0,0:0:0:0:
226,239,89486,22,0,B|191:233|156:226|169:233|176:219|147:235|160:224|182:242|166:213|145:210|159:256|150:225|129:240|108:253|99:224|113:268|92:265|78:237|98:256|110:243|82:260|89:247|101:252|67:247|32:241,1,200,2|0,1:2|0:0,0:0:0:0:
22,263,89653,22,0,B|56:268|91:274|78:268|71:282|100:265|87:277|68:259|81:287|102:290|88:245|97:275|118:261|139:246|148:277|134:231|155:235|171:264|149:245|137:257|165:241|158:254|146:248|180:254|215:260,1,200,0|0,1:0|0:0,0:0:0:0:
392,148,90153,22,0,B|455:163|511:85|451:21|404:53|402:77,1,200,2|2,1:2|0:0,0:0:0:0:
417,91,90319,22,0,B|419:67|466:35|526:99|470:177|407:162,1,200,8|0,0:0|0:0,0:0:0:0:
169,88,90819,38,0,B|152:97|114:78|132:15|205:22|218:69,1,150.000005722046,2|0,1:2|0:0,0:0:0:0:
326,302,90986,38,0,P|194:207|354:236,1,450.000017166138,0|0,1:0|0:0,0:0:0:0:
271,240,91319,38,0,B|207:192|127:240|159:272|64:341|-17:256,1,300,8|0,0:0|0:0,0:0:0:0:
16,117,91653,2,0,B|42:58|42:58|62:193,1,200,0|0,0:0|1:0,0:0:0:0:
182,384,91986,2,0,P|213:346|217:297,1,100,8|0,0:0|0:0,0:0:0:0:
195,275,92153,2,0,L|145:279,2,50
254,213,92319,22,0,P|235:168|240:119,1,100,2|0,1:2|0:2,0:2:0:0:
404,280,92569,6,0,P|446:304|470:348,1,100,2|0,1:2|0:2,0:2:0:0:
323,139,92819,38,0,P|359:106|408:96,1,100,2|0,1:2|0:2,0:2:0:0:
305,300,93069,6,0,P|294:348|260:384,1,100,2|0,1:2|0:2,0:2:0:0:
254,213,93319,22,0,P|241:193|235:168,1,50,10|0,0:0|0:0,0:0:0:0:
323,139,93403,2,0,P|338:119|359:106,1,50,2|0,0:0|0:0,0:0:0:0:
414,180,93486,2,0,P|437:189|456:204,1,50,2|0,0:0|0:0,0:0:0:0:
404,280,93569,2,0,P|402:304|393:328,1,50,2|0,0:0|0:0,0:0:0:0:
305,300,93653,6,0,P|281:310|256:312,7,50,2|2|2|2|2|2|2|2,1:2|0:0|0:0|0:0|0:0|0:0|0:0|0:0,0:0:0:0:
142,374,94319,6,0,P|115:348|102:313,7,75.0000028610231,2|2|2|2|2|2|2|2,1:2|0:0|0:0|0:0|0:0|0:0|0:0|0:0,0:0:0:0:
20,239,94986,6,0,P|20:189|47:148,7,100,2|2|2|2|2|2|2|2,1:2|0:0|0:0|0:0|0:0|0:0|0:0|0:0,0:0:0:0:
39,29,95653,6,0,P|100:39|145:81,1,125,2|2,1:2|0:0,0:0:0:0:
226,17,95819,2,0,P|247:74|233:134,1,125,2|2,0:2|0:0,0:0:0:0:
329,172,95986,38,0,P|289:219|230:236,1,125,2|2,0:2|0:0,0:0:0:0:
246,338,96153,2,0,P|185:327|140:285,1,125,2|2,0:2|0:0,0:0:0:0:
9,73,96319,6,0,B|233:201|233:-54|457:73,1,450.000017166138,6|2,0:0|0:0,0:0:0:0:
354,206,96653,2,0,P|301:169|354:133,1,150.000005722046,8|0,0:0|0:0,0:0:0:0:
422,332,96819,38,0,B|447:383|498:383|537:344|537:293|498:255|447:255|409:293|434:319|363:354|286:300,1,375,2|2,0:0|0:0,0:0:0:0:
100,247,97153,2,0,P|76:303|101:359,1,125,0|0,1:0|0:0,0:0:0:0:
354,206,97319,6,0,B|416:100|374:8|374:8|386:58|347:100,1,300,10|2,0:0|0:0,0:0:0:0:
277,29,97653,2,0,P|233:6|185:14,1,100,0|0,1:0|0:0,0:0:0:0:
228,163,97819,38,0,B|193:200|193:200|213:104,1,150.000005722046,2|8,0:0|0:0,0:0:0:0:
354,206,98069,2,0,B|404:218|404:218|310:249,1,150.000005722046,2|0,0:0|1:0,0:0:0:0:
329,77,98319,2,0,B|314:27|314:27|388:92,1,150.000005722046,2|0,0:0|1:0,0:0:0:0:
311,249,98653,6,0,B|382:225,1,75.0000028610231,8|0,0:0|0:0,0:0:0:0:
213,104,98819,2,0,B|198:178,1,75.0000028610231,2|0,0:0|0:0,0:0:0:0:
191,313,98986,38,0,P|32:237|198:177,1,450.000017166138,6|2,0:0|0:0,0:0:0:0:
127,242,99319,2,0,P|102:173|133:106,1,150.000005722046,8|0,0:0|0:0,0:0:0:0:
495,195,99486,6,0,B|337:211|337:211|321:295|321:295|191:312,1,375,2|2,0:0|0:0,0:0:0:0:
198,177,99819,2,0,B|233:140|233:140|219:212,1,125,0|0,1:0|0:0,0:0:0:0:
63,81,99986,38,0,B|169:19|261:61|261:61|210:45|167:87,1,300,10|2,0:0|0:0,0:0:0:0:
294,215,100319,2,0,P|326:168|325:112,1,100,0|0,1:0|0:0,0:0:0:0:
200,231,100486,6,0,P|236:290|304:309,1,125,2|0,0:0|0:0,0:0:0:0:
230,139,100653,2,0,B|100:115|140:232|5:223,1,250,8|0,0:0|0:0,0:0:0:0:
25,112,100903,38,0,P|17:50|47:-3,1,125,0|2,1:0|0:0,0:0:0:0:
200,231,101069,2,0,P|206:293|177:347,1,125,0|0,1:0|1:0,0:0:0:0:
25,112,101319,6,0,B|114:144|114:144|107:201|107:201|200:231,1,250,8|2,0:0|1:2,0:0:0:0:
406,184,101653,38,0,B|491:102|400:-5|243:13|282:214|324:304,1,450.000017166138,6|2,0:0|0:0,0:0:0:0:
505,192,101986,2,0,P|519:124|493:42,1,150.000005722046,8|0,0:0|0:0,0:0:0:0:
272,153,102153,6,0,B|247:102|196:102|157:141|157:192|196:230|247:230|285:192|260:166|331:131|408:185,1,375,2|2,0:0|0:0,0:0:0:0:
459,277,102486,2,0,P|399:292|342:269,1,125,0|0,1:0|0:0,0:0:0:0:
11,69,102653,38,0,B|156:152|156:-14|301:69,1,300,10|2,0:0|0:0,0:0:0:0:
220,347,102986,2,0,P|173:330|141:292,1,100,0|0,1:0|0:0,0:0:0:0:
229,154,103153,6,0,B|278:182|272:250|272:250|234:244,1,150.000005722046,2|8,0:0|0:0,0:0:0:0:
143,104,103403,2,0,B|142:47|204:18|204:18|218:54,1,150.000005722046,2|0,0:0|1:0,0:0:0:0:
143,204,103653,2,0,B|94:232|38:193|38:193|62:163,1,150.000005722046,2|0,0:0|1:0,0:0:0:0:
173,38,103986,38,0,P|150:67|142:103,1,75.0000028610231,8|0,0:0|0:0,0:0:0:0:
270,212,104153,2,0,P|257:178|229:154,1,75.0000028610231,2|0,0:0|0:0,0:0:0:0:
49,280,104319,6,0,B|137:308|188:231|188:231|216:339|376:319|382:197|325:148,1,450.000017166138,6|2,0:0|0:0,0:0:0:0:
203,88,104653,2,0,B|218:142|218:142|257:164|257:164|270:212,1,150.000005722046,8|0,0:0|0:0,0:0:0:0:
108,143,104819,38,0,P|162:-13|309:64,1,375,2|2,0:0|0:0,0:0:0:0:
162,228,105153,2,0,P|102:243|45:220,1,125,0|0,1:0|0:0,0:0:0:0:
209,139,105319,6,0,B|365:110|317:250|479:239,1,300,10|2,0:0|0:0,0:0:0:0:
454,107,105653,38,0,P|450:57|420:18,1,100,0|0,1:0|0:0,0:0:0:0:
319,57,105819,2,0,P|273:40|224:50,1,100,2|0,0:0|0:0,0:0:0:0:
241,269,105986,6,0,P|245:318|275:357,1,100,8|2,0:0|0:0,0:0:0:0:
376,318,106153,2,0,P|422:335|471:325,1,100,0|0,0:0|1:0,0:0:0:0:
420,18,106319,38,0,P|450:57|454:107,1,100,0|0,0:0|1:0,0:0:0:0:
275,357,106486,2,0,P|245:318|241:269,1,100,10|2,0:0|0:0,0:0:0:0:
224,50,106653,6,0,P|273:40|319:57,1,100,0|8,1:0|0:0,0:0:0:0:
471,325,106819,2,0,P|422:335|376:318,1,100,0|8,1:0|0:0,0:0:0:0:
339,153,106986,22,0,L|345:233,1,80,4|0,0:0|0:0,0:0:0:0:
387,2,107819,6,0,L|378:110,1,75.0000028610231,0|0,1:0|0:0,0:0:0:0:
296,383,107986,2,0,P|214:331|290:271,1,225.000008583069,8|0,0:0|0:0,0:0:0:0:
308,302,108319,6,0,B|144:292|144:292|122:208|122:208|0:198,1,375,2|0,0:0|0:0,0:0:0:0:
93,108,108653,2,0,B|159:-11|159:-11|218:218,1,375,8|0,0:0|1:0,0:0:0:0:
295,382,108986,38,0,P|395:323|362:212,1,250,2|0,0:0|1:0,0:0:0:0:
166,287,109319,2,0,B|82:328|82:328|110:253|110:253|308:289,1,375,8|0,0:0|0:0,0:0:0:0:
362,212,109653,6,0,B|457:254|576:127|504:9|435:-37|322:81|491:200,1,450.000017166138,2|2,1:2|0:0,0:0:0:0:
512,248,109986,2,0,P|462:193|389:195,1,150.000005722046,8|0,0:0|0:0,0:0:0:0:
185,293,110153,38,0,B|118:243|134:123|134:123|87:235|1:245,1,375,2|2,0:0|0:0,0:0:0:0:
76,65,110486,2,0,P|132:42|190:62,1,125,0|0,1:0|0:0,0:0:0:0:
429,266,110653,6,0,B|375:342|375:342|269:241|334:139,1,300,10|2,0:0|0:0,0:0:0:0:
501,222,110986,2,0,P|512:271|494:317,1,100,0|0,1:0|0:0,0:0:0:0:
270,82,111153,2,0,P|330:68|387:89,1,125,2|0,0:0|0:0,0:0:0:0:
381,283,111319,38,0,P|218:241|270:82,1,375,8|0,0:0|1:0,0:0:0:0:
322,185,111653,2,0,P|267:213|206:204,1,125,2|0,0:0|1:0,0:0:0:0:
31,64,111819,2,0,P|85:35|146:44,1,125,0|2,1:0|0:0,0:0:0:0:
274,247,111986,6,0,P|212:246|163:209,1,125,8|0,0:0|1:0,0:0:0:0:
78,1,112153,2,0,P|140:2|189:39,1,125,2|8,1:2|0:0,0:0:0:0:
130,216,112319,6,0,P|158:257|202:279,1,100,6|2,0:0|0:0,0:0:0:0:
90,182,112486,2,0,P|95:231|123:273,1,100,2|2,0:0|0:0,0:0:0:0:
72,133,112653,2,0,P|52:178|57:228,1,100,2|2,0:0|0:0,0:0:0:0:
80,80,112819,2,0,P|41:110|21:156,1,100,2|2,0:0|0:0,0:0:0:0:
282,92,112986,6,0,P|228:95|180:121,1,110.000003356934,2|2,0:0|0:0,0:0:0:0:
343,67,113153,2,0,P|286:41|224:45,1,110.000003356934,2|2,0:0|0:0,0:0:0:0:
408,79,113320,2,0,P|371:29|315:2,1,110.000003356934,2|2,0:0|0:0,0:0:0:0:
459,120,113486,2,0,P|450:58|414:8,1,110.000003356934,2|2,0:0|0:0,0:0:0:0:
344,293,113653,38,0,P|371:241|358:183,1,119.999996337891,2|2,0:0|0:0,0:0:0:0:
206,303,113819,2,0,P|261:281|288:229,1,119.999996337891,2|2,0:0|0:0,0:0:0:0:
94,223,113986,2,0,P|150:240|204:218,1,119.999996337891,2|2,0:0|0:0,0:0:0:0:
59,88,114153,2,0,P|90:137|146:155,1,119.999996337891,2|2,0:0|0:0,0:0:0:0:
370,0,114319,6,0,P|307:11|262:57,1,129.999994049073,2|2,0:0|0:0,0:0:0:0:
467,144,114486,2,0,P|417:104|354:99,1,129.999994049073,2|2,0:0|0:0,0:0:0:0:
418,312,114653,2,0,P|417:247|380:195,1,129.999994049073,2|2,0:0|0:0,0:0:0:0:
258,381,114819,2,0,P|306:339|322:277,1,129.999994049073,2|2,0:0|0:0,0:0:0:0:
31,1,114986,6,0,P|7:66|25:133,1,139.999995727539,6|2,1:2|0:2,0:2:0:0:
120,35,115153,2,0,P|71:84|58:152,1,139.999995727539,2|2,1:2|0:2,0:2:0:0:
391,347,115319,6,0,P|439:299|453:231,1,139.999995727539,0|0,1:2|0:2,0:2:0:0:
481,382,115486,2,0,P|504:318|487:251,1,139.999995727539,0|0,1:2|0:2,0:2:0:0:
119,348,115653,38,0,P|71:300|57:232,1,139.999995727539,4|0,0:2|0:2,0:2:0:0:
30,382,115820,2,0,P|7:318|24:251,1,139.999995727539,0|0,1:2|0:2,0:2:0:0:
392,35,115986,6,0,P|440:83|454:151,1,139.999995727539,0|0,1:2|0:2,0:2:0:0:
481,1,116153,2,0,P|504:65|487:132,1,139.999995727539,0|0,1:2|0:2,0:2:0:0:
139,177,116319,38,0,P|185:126|252:111,1,139.999995727539,6|2,1:2|1:2,1:2:0:0:
373,207,116486,2,0,P|326:257|259:272,1,139.999995727539,2|2,1:2|1:2,1:2:0:0:
99,163,116653,6,0,P|119:97|173:55,1,139.999995727539,6|2,1:2|1:2,1:2:0:0:
413,221,116820,2,0,P|392:286|338:328,1,139.999995727539,2|2,1:2|1:2,1:2:0:0:
60,149,116986,38,0,P|50:80|82:18,1,139.999995727539,6|2,1:2|1:2,1:2:0:0:
452,235,117153,2,0,P|461:303|429:365,1,139.999995727539,2|2,1:2|1:2,1:2:0:0:
21,136,117319,6,0,P|-7:73|4:5,1,139.999995727539,6|10,0:2|0:2,0:2:0:0:
491,248,117486,2,0,P|519:311|508:379,1,139.999995727539,2|10,0:2|0:2,0:2:0:0:
104,222,117653,38,0,B|158:256|191:224|191:192|212:192|256:229|256:229|297:192|297:192|297:120|297:120|260:62|260:62|263:42|263:42|256:27|256:27|247:42|247:42|249:62|249:62|212:118|212:118|212:192|212:192|256:229|256:229|318:192|318:224|351:256|405:222,1,800,4|0,0:0|0:0,0:0:0:0:
