osu file format v14

[General]
AudioFilename: audio.mp3
AudioLeadIn: 0
PreviewTime: 85653
Countdown: 0
SampleSet: Soft
StackLeniency: 0.4
Mode: 0
LetterboxInBreaks: 0
WidescreenStoryboard: 1

[Editor]
Bookmarks: 34486,34569,34653,34903,45236,69986,80653,80986,81986,82319
DistanceSpacing: 2.1
BeatDivisor: 8
GridSize: 4
TimelineZoom: 3.400004

[Metadata]
Title:Yggdrasil (Original Mix)
TitleUnicode:Yggdrasil (Original Mix)
Artist:MYTK
ArtistUnicode:MYTK
Creator:Lulu-
Version:Nowa's Expert
Source:
Tags:dubstep drumstep dnb artcore kac2013 voez yamicchi dtm9 nowa rvmathew underdogs lowcombofc newton-
BeatmapID:1527867
BeatmapSetID:554801

[Difficulty]
HPDrainRate:5
CircleSize:2
OverallDifficulty:7.8
ApproachRate:9.3
SliderMultiplier:2.3
SliderTickRate:1

[Events]
//Background and Video events
0,0,"60393234_p0.jpg",0,0
//Break Periods
2,53853,63765
//Storyboard Layer 0 (Background)
//Storyboard Layer 1 (Fail)
//Storyboard Layer 2 (Pass)
//Storyboard Layer 3 (Foreground)
//Storyboard Sound Samples

[TimingPoints]
320,333.333333333333,4,2,1,40,1,0
320,-33.333333333333,4,2,1,40,0,0
486,-33.333333333333,4,2,1,5,0,0
569,-600.491525423729,4,2,1,40,0,0
2986,-285.714285714286,4,2,1,40,0,0
4986,-222.222222222222,4,2,1,40,0,0
5319,-285.714285714286,4,2,1,40,0,0
5653,-600.491525423729,4,2,2,40,0,0
5736,-600.491525423729,4,2,1,40,0,0
8319,-285.714285714286,4,2,1,40,0,0
9653,-200,4,2,1,50,0,0
10153,-50,4,2,1,50,0,0
10319,-80,4,2,1,50,0,0
10986,-600.491525423729,4,2,1,40,0,0
13653,-285.714285714286,4,2,2,40,0,0
13736,-285.714285714286,4,2,1,40,0,0
15819,-100,4,2,1,50,0,0
16319,-100,4,2,1,5,0,0
16653,-370.37037037037,4,2,1,40,0,0
20319,-66.6666666666667,4,2,1,50,0,0
20819,-50,4,2,1,50,0,0
20986,-80,4,2,1,50,0,0
26986,-1000,4,2,2,40,0,0
27319,-666.666666666667,4,2,2,40,0,0
27653,-500,4,2,2,40,0,0
27986,-400,4,2,2,40,0,0
28319,-333.333333333333,4,2,2,40,0,0
28653,-285.714285714286,4,2,2,40,0,0
28986,-250,4,2,2,40,0,0
29319,-111.111111111111,4,2,2,40,0,0
29653,-133.333333333333,4,2,1,55,0,0
29986,-100,4,2,1,55,0,0
30319,-90.9090909090909,4,2,1,60,0,0
30986,-200,4,2,1,65,0,0
31319,-250,4,2,1,70,0,0
31653,-333.333333333333,4,2,1,65,0,0
31986,-83.3333333333333,4,2,1,60,0,0
32319,-500,4,2,2,40,0,0
32903,-66.6666666666667,4,2,1,5,0,0
32986,-50,4,2,1,70,0,1
34153,-66.6666666666667,4,2,1,50,0,1
34653,-66.6666666666667,4,2,1,50,0,1
34986,-100,4,2,1,60,0,0
35486,-100,4,2,1,40,0,0
35653,-100,4,2,1,60,0,0
36319,-83.3333333333333,4,2,1,60,0,0
36819,-83.3333333333333,4,2,1,40,0,0
36986,-83.3333333333333,4,2,1,60,0,0
37319,-100,4,2,1,50,0,0
37653,-250,4,2,1,70,0,0
38319,-50,4,2,1,50,0,1
39653,-66.6666666666667,4,2,1,60,0,1
40319,-133.333333333333,4,2,1,60,0,0
40986,-133.333333333333,4,2,1,60,0,0
41486,-133.333333333333,4,2,1,60,0,0
41653,-133.333333333333,4,2,1,60,0,0
42153,-133.333333333333,4,2,1,50,0,0
42986,-50,4,2,1,60,0,1
43007,-50,4,2,1,60,0,1
43653,-43.4782608695647,4,2,1,40,0,1
44319,-50,4,2,1,40,0,1
44819,-66.6666666666667,4,2,1,50,0,1
44986,-66.6666666666667,4,2,1,60,0,1
45403,-66.6666666666667,4,2,1,50,0,1
45653,-100,4,2,1,60,0,0
46153,-100,4,2,1,60,0,0
46319,-100,4,2,1,60,0,0
46819,-100,4,2,1,60,0,0
46986,-100,4,2,1,60,0,0
47486,-100,4,2,1,60,0,0
47653,-100,4,2,1,60,0,0
48069,-100,4,2,1,50,0,0
48153,-100,4,2,2,50,0,0
48236,-100,4,2,1,50,0,0
48319,-100,4,2,1,70,0,0
48903,-66.6666666666667,4,2,1,5,0,0
48986,-39.9999999999995,4,2,1,40,0,1
49653,-133.333333333333,4,2,1,40,0,1
49986,-80,4,2,1,55,0,1
50319,-66.6666666666667,4,2,1,60,0,1
50653,-66.6666666666667,4,2,1,65,0,1
50986,-133.333333333333,4,2,1,70,0,0
51486,-133.333333333333,4,2,1,60,0,0
51653,-133.333333333333,4,2,1,60,0,0
52153,-133.333333333333,4,2,1,60,0,0
52319,-133.333333333333,4,2,1,60,0,0
52819,-100,4,2,1,65,0,0
52986,-83.3333333333333,4,2,1,70,0,0
53153,-62.5,4,2,1,70,0,0
53319,-83.3333333333333,4,2,1,60,0,0
53653,-83.3333333333333,4,2,1,50,0,0
64319,-400,4,2,2,40,0,0
66986,-200,4,2,1,45,0,0
68986,-133.333333333333,4,2,1,50,0,0
69653,-133.333333333333,4,2,1,50,0,0
70653,-133.333333333333,4,2,1,55,0,0
71653,-133.333333333333,4,2,1,60,0,0
72319,-111.111111111111,4,2,1,60,0,0
72653,-95.2380952380952,4,2,1,60,0,0
72986,-83.3333333333333,4,2,1,60,0,0
73319,-74.0740740740741,4,2,1,65,0,0
73653,-74.0740740740741,4,2,2,65,0,0
74486,-74.0740740740741,4,2,1,65,0,0
74986,-55.5555555555556,4,2,1,80,0,1
75153,-166.666666666667,4,2,1,5,0,1
75236,-55.5555555555556,4,2,1,80,0,1
75403,-55.5555555555556,4,2,1,5,0,1
75486,-55.5555555555556,4,2,1,80,0,1
75653,-55.5555555555556,4,2,1,5,0,1
75736,-55.5555555555556,4,2,1,80,0,1
75903,-55.5555555555556,4,2,1,5,0,1
75986,-200,4,2,1,60,0,0
76236,-55.5555555555556,4,2,1,5,0,0
76319,-52.6315789473684,4,2,1,80,0,1
76486,-52.6315789473684,4,2,1,5,0,1
76569,-52.6315789473684,4,2,1,80,0,1
76736,-52.6315789473684,4,2,1,5,0,1
76819,-52.6315789473684,4,2,1,80,0,1
76986,-52.6315789473684,4,2,1,5,0,1
77069,-52.6315789473684,4,2,1,80,0,1
77236,-52.6315789473684,4,2,1,5,0,1
77319,-100,4,2,1,60,0,0
77403,-100,4,2,1,5,0,0
77486,-100,4,2,1,60,0,0
77569,-100,4,2,1,5,0,0
77653,-55.5555555555556,4,2,1,80,0,1
77819,-55.5555555555556,4,2,1,5,0,1
77903,-55.5555555555556,4,2,1,80,0,1
78069,-55.5555555555556,4,2,1,5,0,1
78153,-55.5555555555556,4,2,1,80,0,1
78319,-55.5555555555556,4,2,1,5,0,1
78403,-55.5555555555556,4,2,1,80,0,1
78569,-55.5555555555556,4,2,1,5,0,1
78653,-200,4,2,1,60,0,0
78903,-200,4,2,1,5,0,0
78986,-55.5555555555556,4,2,1,80,0,1
79153,-55.5555555555556,4,2,1,5,0,1
79236,-55.5555555555556,4,2,1,80,0,1
79403,-55.5555555555556,4,2,1,5,0,1
79486,-55.5555555555556,4,2,1,80,0,1
79653,-55.5555555555556,4,2,1,5,0,1
79736,-55.5555555555556,4,2,1,80,0,1
79903,-55.5555555555556,4,2,1,5,0,1
79986,-166.666666666667,4,2,1,60,0,0
80319,-55.5555555555556,4,2,1,80,0,1
80569,-66.6666666666667,4,2,1,80,0,1
81319,-200,4,2,1,50,0,0
81653,-55.5555555555556,4,2,1,80,0,1
81903,-66.6666666666667,4,2,1,80,0,1
82653,-200,4,2,1,80,0,0
82986,-100,4,2,1,50,0,0
83319,-100,4,2,1,55,0,0
83653,-76.9230769230769,4,2,1,60,0,0
83986,-76.9230769230769,4,2,1,65,0,0
84319,-66.6666666666667,4,2,1,70,0,0
84653,-66.6666666666667,4,2,1,75,0,0
84986,-66.6666666666667,4,2,1,80,0,0
85319,-66.6666666666667,4,2,1,85,0,0
85653,-66.6666666666667,4,2,1,90,0,1
85986,-55.5555555555556,4,2,1,90,0,1
86653,-50,4,2,1,90,0,1
86986,-66.6666666666667,4,2,1,90,0,1
87653,-100,4,2,1,70,0,0
88319,-100,4,2,1,70,0,0
88819,-100,4,2,1,70,0,0
88986,-100,4,2,1,70,0,0
89486,-100,4,2,1,70,0,0
89653,-100,4,2,1,70,0,0
90153,-100,4,2,1,70,0,0
90319,-100,4,2,1,70,0,0
90653,-100,4,2,1,70,0,0
90819,-100,4,2,2,70,0,0
90903,-100,4,2,1,70,0,0
90986,-66.6666666666667,4,2,1,90,0,1
91319,-55.5555555555556,4,2,1,90,0,1
91653,-50,4,2,1,90,0,1
92319,-80,4,2,1,90,0,1
92403,-80,4,2,1,5,0,1
92569,-80,4,2,1,90,0,1
92653,-80,4,2,1,5,0,1
92819,-80,4,2,1,90,0,1
92903,-80,4,2,1,5,0,1
93069,-80,4,2,1,90,0,1
93153,-80,4,2,1,5,0,1
93319,-80,4,2,1,90,0,1
93653,-333.333333333333,4,2,1,70,0,0
94319,-111.111111111111,4,2,1,70,0,0
94986,-66.6666666666667,4,2,1,70,0,0
95653,-43.4782608695647,4,2,1,70,0,0
96319,-83.3333333333333,4,2,1,95,0,1
105653,-83.3333333333333,4,2,1,70,0,1
106319,-83.3333333333333,4,2,1,75,0,1
106653,-71.4285714285714,4,2,1,75,0,1
106819,-62.5,4,2,1,75,0,1
106986,-62.5,4,2,1,75,0,0
107653,-200,4,2,1,80,0,0
107986,-55.5555555555556,4,2,1,90,0,0
108319,-83.3333333333333,4,2,2,90,0,1
108403,-83.3333333333333,4,2,1,90,0,1
112319,-200,4,2,1,65,0,0
113319,-200,4,2,1,70,0,0
114319,-200,4,2,1,75,0,0
114986,-100,4,2,1,80,0,1
116986,-66.6666666666667,4,2,1,80,0,1
117653,-200,4,2,1,40,0,0
117986,-142.857142857143,4,2,1,5,0,0

[Colours]
Combo1 : 247,51,51
Combo2 : 255,128,255
Combo3 : 0,128,255
Combo4 : 247,124,51

[HitObjects]
136,253,320,38,0,B|159:329|78:361|21:336|6:276|14:240|28:165|119:148,1,345.000013160706,4|0,0:0|0:0,0:0:0:0:
210,144,569,22,0,L|242:145,9,28.7264674639397
282,311,2986,6,0,L|349:308,5,60.3749981575013,0|0|0|0|0|0,0:0|0:0|0:0|0:0|0:0|0:0,0:0:0:0:
472,252,4486,2,0,L|411:249,1,60.3749981575013,0|0,0:0|0:0,0:0:0:0:
244,202,4986,2,0,L|333:198,1,77.6249976310731,0|0,0:0|0:0,0:0:0:0:
501,141,5486,1,0,0:0:0:0:
290,320,5653,38,0,L|292:349,10,28.7264674639397,2|0|0|0|0|0|0|0|0|0|0,0:0|0:0|0:0|0:0|0:0|0:0|0:0|0:0|0:0|0:0|0:0,0:0:0:0:
147,244,8319,6,0,L|150:180,5,60.3749981575013,0|0|0|0|0|0,0:0|0:0|0:0|0:0|0:0|0:0,0:0:0:0:
169,156,9653,6,0,P|185:144|213:138,1,28.75,0|0,0:0|0:0,0:0:0:0:
183,106,9819,2,0,P|202:109|226:125,1,28.75,0|0,0:0|0:0,0:0:0:0:
226,65,9986,2,0,P|237:81|243:109,1,28.75,0|0,0:0|0:0,0:0:0:0:
147,244,10153,6,0,B|58:247|58:247|89:229,1,115,0|0,1:0|0:0,0:0:0:0:
371,164,10319,2,0,L|339:373,1,143.75,8|0,0:0|0:0,0:0:0:0:
261,344,10569,1,0,0:0:0:0:
260,330,10653,1,8,0:0:0:0:
259,317,10736,38,0,L|274:217,1,71.875,0|8,0:0|0:0,0:0:0:0:
317,69,10903,1,0,0:0:0:0:
371,164,10986,22,0,L|373:196,10,28.7264674639397,4|0|0|0|0|0|0|0|0|0|0,0:0|0:0|0:0|0:0|0:0|0:0|0:0|0:0|0:0|0:0|0:0,0:0:0:0:
261,43,13653,6,0,L|256:110,7,60.3749981575013,2|0|0|0|0|0|0|0,0:0|0:0|0:0|0:0|0:0|0:0|0:0|0:0,0:0:0:0:
237,323,15653,1,0,0:0:0:0:
79,78,15819,5,0,1:0:0:0:
88,83,15903,2,0,P|125:83|173:73,1,57.5,0|0,0:0|1:0,0:0:0:0:
278,22,16069,2,0,P|259:54|244:100,1,57.5,0|0,1:0|0:0,0:0:0:0:
240,220,16236,2,0,P|221:187|188:151,1,57.5,0|0,1:0|0:0,0:0:0:0:
208,171,16653,22,0,B|263:196|311:153|317:92|304:47|188:3|116:5|-23:139|91:294|194:362|194:362|216:376,1,652.05001591919,4|0,0:0|0:0,0:0:0:0:
187,339,20319,22,0,B|174:327|174:327|99:275|30:143|122:39|201:46|256:69|281:118,1,431.250016450883,4|0,0:0|0:0,0:0:0:0:
357,219,20819,6,0,B|264:231|264:231|291:210,1,115,0|0,1:0|0:0,0:0:0:0:
505,17,20986,2,0,P|525:93|503:174,1,143.75,8|0,0:0|0:0,0:0:0:0:
456,242,21236,37,0,0:0:0:0:
427,142,21319,2,0,P|466:141|525:165,1,71.875,0|0,1:0|1:0,0:0:0:0:
268,231,21486,5,0,0:0:0:0:
226,138,21569,2,0,P|260:129|296:130,1,71.875,0|0,1:0|1:0,0:0:0:0:
160,189,23153,5,0,0:0:0:0:
164,204,23319,1,0,0:0:0:0:
252,170,23653,1,0,0:0:0:0:
256,185,23819,1,0,0:0:0:0:
346,158,24153,1,0,0:0:0:0:
160,189,24486,5,0,0:0:0:0:
164,204,24652,1,0,0:0:0:0:
252,170,24986,1,0,0:0:0:0:
256,185,25152,1,0,0:0:0:0:
346,158,25486,1,0,0:0:0:0:
160,189,25819,37,0,0:0:0:0:
252,170,25986,1,0,0:0:0:0:
346,158,26153,1,0,0:0:0:0:
147,208,26486,5,0,0:0:0:0:
254,187,26653,1,0,0:0:0:0:
359,162,26820,1,0,0:0:0:0:
60,136,26986,38,0,L|73:137,1,11.5,2|0,0:0|0:0,0:0:0:0:
147,208,27319,2,0,L|130:209,1,17.2499994735718,0|0,0:0|0:0,0:0:0:0:
55,127,27653,2,0,L|87:129,1,23,0|0,0:0|0:0,0:0:0:0:
157,216,27986,2,0,L|123:218,1,28.75,0|0,0:0|0:0,0:0:0:0:
51,118,28319,2,0,L|91:121,1,34.4999989471436,0|0,0:0|0:0,0:0:0:0:
165,224,28652,2,0,L|122:227,1,34.4999989471436,0|0,0:0|0:0,0:0:0:0:
47,109,28986,2,0,L|97:112,1,46,0|0,0:0|0:0,0:0:0:0:
173,234,29319,22,0,L|119:238,1,51.7499984207154
46,208,29486,2,0,L|97:211,1,51.7499984207154,0|0,0:0|0:0,0:0:0:0:
215,312,29653,6,0,L|266:308,3,43.1250016450883,0|0|0|0,0:0|0:0|0:0|0:0,0:0:0:0:
282,310,29986,1,0,0:0:0:0:
310,311,30069,1,0,0:0:0:0:
339,313,30152,1,0,0:0:0:0:
368,315,30235,1,0,0:0:0:0:
396,316,30319,37,0,0:0:0:0:
454,294,30402,1,0,0:0:0:0:
486,241,30485,1,0,0:0:0:0:
478,179,30568,1,0,0:0:0:0:
437,119,30653,1,0,0:0:0:0:
362,84,30736,1,0,0:0:0:0:
282,102,30819,1,0,0:0:0:0:
231,178,30902,1,0,0:0:0:0:
228,270,30986,22,0,L|233:325,3,28.75
317,264,31319,2,0,L|319:295,3,23,0|0|0|0,0:0|0:0|0:0|0:0,0:0:0:0:
406,258,31653,2,0,L|408:289,3,17.2499994735718,0|0|0|0,0:0|0:0|0:0|0:0,0:0:0:0:
493,335,31986,6,0,L|501:117,1,206.999993682861,2|0,0:0|0:0,0:0:0:0:
512,99,32319,38,0,B|483:125|483:125|447:104,1,80.5,4|0,0:0|0:0,0:0:0:0:
121,11,32986,38,0,B|185:128|146:297|46:366|46:366|-56:230|36:87|36:87|87:275|281:402|531:266|488:1|307:-10|250:24|210:97|259:171,1,1495,8|0,0:0|0:0,0:0:0:0:
391,172,34153,38,0,P|397:120|385:86,1,86.2500032901765,0|0,1:0|0:0,0:0:0:0:
239,82,34319,2,0,P|233:134|245:168,1,86.2500032901765,8|0,0:0|0:0,0:0:0:0:
419,267,34486,5,0,1:0:0:0:
419,267,34569,2,0,P|464:234|486:195,1,86.2500032901765
160,206,34736,2,0,P|185:240|222:262,1,86.2500032901765,8|0,0:0|0:0,0:0:0:0:
348,348,34903,1,0,1:0:0:0:
361,351,34986,6,0,L|72:374,1,287.5,4|0,0:0|0:0,0:0:0:0:
9,270,35486,1,2,1:2:0:0:
372,335,35653,6,0,L|83:358,1,287.5,8|0,0:0|0:0,0:0:0:0:
9,270,36153,2,0,L|76:263,1,57.5,2|2,1:2|0:0,0:0:0:0:
256,153,36319,38,0,B|226:251|226:251|168:7,1,344.999989471436,4|0,0:0|0:0,0:0:0:0:
425,16,36819,2,0,L|406:93,1,68.9999978942872,2|2,1:2|1:2,0:0:0:0:
241,253,36986,6,0,L|184:8,1,206.999993682861,8|0,0:0|0:0,0:0:0:0:
61,66,37319,1,0,0:0:0:0:
55,88,37403,2,0,P|95:95|124:95,1,57.5
364,61,37653,38,0,B|416:19|469:35|469:35|439:36|418:52,1,161,4|0,0:0|0:0,0:0:0:0:
325,308,38319,38,0,B|285:322|246:309|246:309|218:346|191:386|101:368|11:367|-67:219|24:45|24:45|64:56|105:76|105:76|145:103|246:187|160:268|160:268|38:257|92:117|105:76|105:76|132:42|169:13|169:13|222:44|305:131|281:239,1,1495,8|0,0:0|0:0,0:0:0:0:
470,380,39486,2,0,P|466:329|495:267,1,115,0|0,1:0|0:0,0:0:0:0:
465,33,39653,2,0,P|482:97|420:208,1,172.500006580353,8|0,0:0|0:0,0:0:0:0:
113,212,39986,37,0,1:0:0:0:
123,141,40070,1,0,1:0:0:0:
192,124,40153,1,0,1:0:0:0:
229,187,40236,1,0,1:0:0:0:
179,242,40320,37,4,1:0:0:0:
17,55,40486,2,0,L|-4:256,1,172.500006580353,0|2,0:0|0:0,0:0:0:0:
99,350,40986,37,8,0:0:0:0:
123,127,41153,2,0,L|112:229,1,86.2500032901765,0|0,0:0|0:0,0:0:0:0:
266,336,41486,5,0,1:0:0:0:
249,170,41653,1,4,0:0:0:0:
258,351,41819,2,0,L|238:167,1,172.500006580353,0|0,0:0|1:0,0:0:0:0:
325,32,42319,6,0,L|319:103,1,43.1250016450883,10|0,0:0|0:0,0:0:0:0:
239,179,42486,1,0,0:0:0:0:
217,196,42569,1,0,0:0:0:0:
178,203,42653,1,0,0:0:0:0:
129,194,42736,1,0,0:0:0:0:
80,157,42819,1,2,1:2:0:0:
82,93,42902,1,0,1:0:0:0:
152,62,42986,6,0,B|308:119|302:338|164:367|164:367|76:281|126:151|202:121,1,690,4|2,0:0|0:0,0:0:0:0:
195,123,43653,38,0,P|323:96|465:145,1,264.500005044937,0|0,1:0|0:0,0:0:0:0:
230,214,43903,2,0,B|288:174|418:169|481:273|424:343|352:396|272:292,1,396.750007567406,8|0,0:0|0:0,0:0:0:0:
296,318,44319,6,0,B|205:239|216:97|216:97|192:241|70:271|70:271|95:224|159:210,1,575,4|0,0:0|0:0,0:0:0:0:
432,207,44819,2,0,P|377:216|323:203,1,86.2500032901765,8|0,1:2|0:0,0:0:0:0:
211,0,44986,38,0,P|285:31|315:113,1,172.500006580353,8|0,0:0|0:0,0:0:0:0:
147,297,45236,1,0,0:0:0:0:
83,285,45319,1,0,0:0:0:0:
34,241,45403,2,0,P|17:197|18:149,1,86.2500032901765,0|0,0:0|0:0,0:0:0:0:
80,18,45569,1,0,0:0:0:0:
109,32,45653,22,0,L|411:19,1,287.5,4|0,0:0|0:0,0:0:0:0:
508,113,46153,1,0,1:0:0:0:
115,43,46319,6,0,L|417:30,1,287.5,8|2,0:0|0:0,0:0:0:0:
512,120,46819,2,0,L|432:123,1,57.5,2|0,0:0|0:0,0:0:0:0:
88,128,46986,38,0,P|156:240|16:320,1,287.5,4|0,0:0|0:0,0:0:0:0:
32,116,47486,2,0,P|84:117|107:127,1,57.5,2|2,1:2|0:0,0:0:0:0:
382,352,47653,6,0,L|366:152,1,172.5,8|0,0:0|0:0,0:0:0:0:
281,99,47986,37,2,0:0:0:0:
281,91,48069,1,0,0:0:0:0:
282,84,48152,1,2,0:0:0:0:
282,77,48236,1,0,0:0:0:0:
283,70,48319,22,0,B|237:139|93:97|115:16|115:16|147:57|112:131|37:127,1,402.5,4|0,0:0|0:0,0:0:0:0:
56,317,48986,6,0,B|269:182|493:321|493:321|440:409|270:426|247:310|245:214|292:139|382:114|520:178,1,1006.25,10|0,0:0|0:0,0:0:0:0:
471,160,49653,38,0,P|477:186|478:212,7,43.1250016450883,2|0|2|0|2|0|2|0,0:0|0:0|0:0|0:0|0:0|0:0|0:0|0:0,0:0:0:0:
458,296,50319,5,2,0:0:0:0:
433,311,50403,1,0,0:0:0:0:
348,292,50486,1,2,1:2:0:0:
264,274,50569,1,0,0:0:0:0:
173,264,50653,37,2,1:2:0:0:
95,214,50736,1,8,0:0:0:0:
101,123,50819,1,2,1:2:0:0:
181,82,50903,1,8,0:0:0:0:
258,131,50986,21,4,0:0:0:0:
48,314,51153,2,0,P|4:257|10:134,1,172.500006580353,0|2,0:0|0:0,0:0:0:0:
108,27,51653,5,8,0:0:0:0:
170,277,51819,2,0,P|114:248|93:222,1,86.2500032901765,0|0,0:0|0:0,0:0:0:0:
313,59,52153,37,0,1:0:0:0:
270,247,52319,1,4,0:0:0:0:
302,66,52486,2,0,L|276:256,1,172.500006580353,0|0,0:0|1:0,0:0:0:0:
108,27,52986,5,10,0:0:0:0:
477,148,53153,2,0,L|14:177,1,460,0|0,0:0|0:0,0:0:0:0:
0,169,53653,37,0,1:0:0:0:
132,80,64319,54,0,L|140:208,1,115,0|8,1:0|0:0,0:0:0:0:
139,194,65486,1,0,1:0:0:0:
139,194,66153,6,0,L|141:174,1,14.375,0|0,1:0|0:0,0:0:0:0:
151,64,66319,1,8,0:0:0:0:
299,170,66486,37,0,1:0:0:0:
261,179,66569,1,0,0:0:0:0:
231,155,66653,1,0,1:0:0:0:
231,116,66736,1,0,1:0:0:0:
261,92,66819,1,0,0:0:0:0:
299,100,66903,1,0,1:0:0:0:
316,135,66986,6,0,L|306:253,1,115,2|0,1:2|0:0,0:0:0:0:
317,364,67486,1,2,1:2:0:0:
317,364,67653,2,0,L|306:239,1,115,8|2,0:0|0:0,0:0:0:0:
216,180,68153,1,2,1:2:0:0:
216,180,68319,38,0,P|148:220|56:200,1,172.5,2|0,1:2|1:0,0:0:0:0:
19,91,68986,2,0,L|34:218,2,129.375004935265,10|0|2,0:0|0:0|0:0,0:0:0:0:
96,16,69653,6,0,P|150:34|228:29,1,129.375004935265,2|2,1:2|0:0,0:0:0:0:
322,33,69986,2,0,P|352:25|386:24,3,43.1250016450883,0|0|2|0,0:0|0:0|0:0|0:0,0:0:0:0:
439,80,70319,2,0,P|465:95|490:118,3,43.1250016450883,10|2|0|0,0:0|0:0|0:0|0:0,0:0:0:0:
488,195,70653,2,0,P|496:225|497:259,3,43.1250016450883,2|0|0|2,0:0|0:0|0:0|0:0,0:0:0:0:
441,312,70986,2,0,P|425:338|402:363,3,43.1250016450883,0|0|2|0,0:0|0:0|0:0|0:0,0:0:0:0:
326,361,71319,2,0,P|296:369|262:370,3,43.1250016450883,0|2|0|0,0:0|0:0|0:0|0:0,0:0:0:0:
209,314,71653,2,0,P|182:298|157:275,3,43.1250016450883,10|0|0|2,0:0|0:0|0:0|0:0,0:0:0:0:
160,199,71986,2,0,P|152:169|151:135,3,43.1250016450883,0|0|2|0,0:0|0:0|0:0|0:0,0:0:0:0:
199,75,72319,38,0,L|282:83,3,51.7499984207154,10|0|0|2,1:2|0:0|0:0|0:0,0:0:0:0:
385,143,72653,2,0,L|302:151,3,60.3749981575013,0|0|2|0,0:0|0:0|0:0|0:0,0:0:0:0:
160,199,72986,6,0,L|243:207,3,68.9999978942872,8|2|0|0,0:0|0:0|0:0|0:0,0:0:0:0:
408,253,73319,2,0,L|328:260,3,77.6250002961159,2|0|0|2,0:0|0:0|0:0|0:0,0:0:0:0:
36,333,73653,37,2,0:0:0:0:
36,333,74486,37,0,1:0:0:0:
68,347,74569,2,0,P|97:348|168:320,1,77.6250002961159
208,135,74736,37,8,0:0:0:0:
199,203,74819,1,2,1:2:0:0:
209,271,74902,1,0,1:0:0:0:
237,335,74986,6,0,P|242:226|192:111,1,206.999993682861,4|0,0:0|0:0,0:0:0:0:
12,169,75236,2,0,P|103:227|228:242,1,206.999993682861,4|0,0:0|0:0,0:0:0:0:
268,58,75486,2,0,P|171:108|96:208,1,206.999993682861,4|0,0:0|0:0,0:0:0:0:
237,335,75736,2,0,P|242:226|192:111,1,206.999993682861,4|0,0:0|0:0,0:0:0:0:
42,31,75986,22,0,P|78:46|118:53,1,57.5
418,35,76319,22,0,B|234:43|234:43|294:68,1,218.499994165421,4|0,0:0|0:0,0:0:0:0:
361,175,76569,2,0,B|445:11|445:11|392:50,1,218.499994165421,4|0,0:0|0:0,0:0:0:0:
267,56,76819,2,0,B|364:209|364:209|357:145,1,218.499994165421,4|0,0:0|0:0,0:0:0:0:
418,35,77069,2,0,B|234:43|234:43|294:68,1,218.499994165421,4|0,0:0|0:0,0:0:0:0:
466,186,77319,21,0,0:0:0:0:
418,35,77486,1,0,0:0:0:0:
293,223,77653,22,0,B|142:206|142:206|84:227,1,206.999993682861,4|0,0:0|0:0,0:0:0:0:
45,382,77903,2,0,B|135:259|135:259|146:199,1,206.999993682861,4|0,0:0|0:0,0:0:0:0:
31,87,78153,2,0,B|91:226|91:226|137:265,1,206.999993682861,4|0,0:0|0:0,0:0:0:0:
293,223,78403,2,0,B|142:206|142:206|84:227,1,206.999993682861,4|0,0:0|0:0,0:0:0:0:
252,377,78653,22,0,L|247:311,1,57.5
408,193,78986,22,0,B|430:31|430:31|396:66,1,206.999993682861,4|0,0:0|0:0,0:0:0:0:
293,223,79236,2,0,B|422:323|422:323|408:276,1,206.999993682861,4|0,0:0|0:0,0:0:0:0:
324,108,79486,2,0,B|172:169|172:169|220:181,1,206.999993682861,4|0,0:0|0:0,0:0:0:0:
408,193,79736,2,0,B|430:31|430:31|396:66,1,206.999993682861,4|0,0:0|0:0,0:0:0:0:
293,223,79986,1,0,0:0:0:0:
294,231,80069,1,0,0:0:0:0:
296,239,80152,1,0,0:0:0:0:
298,248,80235,1,0,0:0:0:0:
297,248,80319,38,0,B|163:230|163:230|245:258,1,206.999993682861,4|0,0:0|0:0,0:0:0:0:
396,316,80569,2,0,B|509:303,2,86.2500032901765,4|0|0,0:0|0:0|0:0,0:0:0:0:
232,334,80819,2,0,B|119:347,2,86.2500032901765,4|0|0,0:0|0:0|0:0,0:0:0:0:
380,330,81069,2,0,B|493:317,2,86.2500032901765,4|0|0,0:0|0:0|0:0,0:0:0:0:
244,318,81319,37,2,0:0:0:0:
283,136,81653,6,0,B|149:154|149:154|231:126,1,206.999993682861,4|0,0:0|0:0,0:0:0:0:
381,59,81903,2,0,B|494:72,2,86.2500032901765,4|0|0,0:0|0:0|0:0,0:0:0:0:
217,41,82153,2,0,B|104:28,2,86.2500032901765,4|0|0,0:0|0:0|0:0,0:0:0:0:
365,45,82403,2,0,B|478:58,2,86.2500032901765,4|0|0,0:0|0:0|0:0,0:0:0:0:
230,31,82653,21,2,0:0:0:0:
264,258,82819,1,0,0:0:0:0:
508,188,82986,6,0,P|475:205|438:211,3,57.5,2|0|2|0,0:0|0:0|0:0|0:0,0:0:0:0:
357,281,83319,2,0,P|325:263|299:235,3,57.5,2|0|2|0,0:0|0:0|0:0|0:0,0:0:0:0:
226,147,83653,38,0,L|219:64,3,74.7499965782167,2|0|2|0,0:0|0:0|0:0|0:0,0:0:0:0:
328,71,83986,2,0,L|321:154,3,74.7499965782167,2|0|2|0,0:0|0:0|0:0|0:0,0:0:0:0:
174,230,84319,6,0,P|125:174|124:135,3,86.2500032901765,2|0|2|0,0:0|0:0|0:0|0:0,0:0:0:0:
412,165,84653,2,0,P|395:204|361:229,3,86.2500032901765,2|0|2|0,0:0|0:0|0:0|0:0,0:0:0:0:
187,327,84986,6,0,P|114:307|92:289,1,86.2500032901765,2|0,1:2|0:0,0:0:0:0:
241,120,85153,2,0,P|314:140|336:158,1,86.2500032901765,2|0,1:2|0:0,0:0:0:0:
20,356,85319,1,2,1:2:0:0:
12,264,85402,1,8,0:0:0:0:
7,174,85485,1,0,0:0:0:0:
2,85,85568,1,8,0:0:0:0:
83,17,85653,6,0,B|167:15|167:15|249:28|249:28|345:27,1,258.75000987053,4|0,0:0|0:0,0:0:0:0:
500,55,85986,2,0,P|367:73|518:132,1,413.999987365723,8|0,0:0|0:0,0:0:0:0:
189,25,86486,1,0,1:0:0:0:
221,368,86653,2,0,L|188:21,1,345,8|0,0:0|0:0,0:0:0:0:
32,131,86986,38,0,P|124:177|207:158,1,172.500006580353,0|0,1:0|0:0,0:0:0:0:
458,53,87319,2,0,P|384:9|300:17,1,172.500006580353,8|0,0:0|0:0,0:0:0:0:
340,211,87569,1,0,0:0:0:0:
353,233,87653,2,0,L|361:108,1,115,0|0,0:0|1:0,0:0:0:0:
182,51,87986,2,0,L|190:175,1,115,8|0,0:0|0:0,0:0:0:0:
368,352,88319,38,0,L|378:56,1,287.5,4|0,0:0|0:0,0:0:0:0:
282,4,88819,2,0,L|278:76,1,57.5,0|0,0:0|0:0,0:0:0:0:
360,356,88986,38,0,L|370:60,1,287.5,8|0,0:0|0:0,0:0:0:0:
274,8,89486,1,2,0:0:0:0:
210,280,89653,6,0,B|-5:262|-5:262|75:252,1,287.5,4|0,0:0|0:0,0:0:0:0:
186,296,90153,2,0,L|129:289,1,57.5,0|0,0:0|0:0,0:0:0:0:
273,9,90319,38,0,L|278:182,1,172.5,8|0,0:0|0:0,0:0:0:0:
382,362,90653,2,0,P|395:323|394:285,1,57.5,0|0,0:0|0:0,0:0:0:0:
277,181,90819,2,0,P|304:211|337:229,1,57.5,2|0,0:0|0:0,0:0:0:0:
505,251,90986,38,0,L|168:268,1,258.75000987053,4|0,0:0|0:0,0:0:0:0:
73,328,91319,2,0,P|219:296|66:222,1,413.999987365723,8|0,0:0|0:0,0:0:0:0:
314,370,91819,1,0,1:0:0:0:
347,27,91986,2,0,L|315:373,1,345,8|0,0:0|0:0,0:0:0:0:
106,270,92319,38,0,L|99:193,1,71.875,2|0,0:0|0:0,0:0:0:0:
458,82,92569,2,0,L|451:158,1,71.875,2|0,0:0|0:0,0:0:0:0:
6,320,92819,2,0,L|-1:243,1,71.875,2|0,0:0|0:0,0:0:0:0:
355,47,93069,2,0,L|348:123,1,71.875,2|0,0:0|0:0,0:0:0:0:
6,320,93319,5,10,0:0:0:0:
101,313,93402,1,0,0:0:0:0:
197,307,93485,1,2,0:0:0:0:
293,301,93568,1,0,0:0:0:0:
389,295,93653,22,0,L|413:293,7,17.2499994735718,0|0|0|0|0|0|0|0,1:0|0:0|0:0|0:0|0:0|0:0|0:0|0:0,0:0:0:0:
426,120,94319,38,0,B|401:116|401:116|373:121,7,51.7499984207154,0|0|0|0|0|0|0|0,1:0|0:0|0:0|0:0|0:0|0:0|0:0|0:0,0:0:0:0:
355,276,94986,22,0,B|395:288|395:288|439:272,7,86.2500032901765,0|0|0|0|0|0|0|0,1:0|0:0|0:0|0:0|0:0|0:0|0:0|0:0,0:0:0:0:
460,112,95653,6,0,B|403:78|403:78|337:108,7,132.250002522469,0|0|0|0|0|0|0|0,1:0|0:0|0:0|0:0|0:0|0:0|0:0|0:0,0:0:0:0:
234,86,96319,38,0,L|90:77,1,137.999995788574,6|0,0:0|0:0,0:0:0:0:
396,324,96653,1,10,0:0:0:0:
396,192,96819,1,2,0:0:0:0:
396,192,96903,1,0,0:0:0:0:
396,192,96986,1,0,0:0:0:0:
221,367,97153,1,0,1:0:0:0:
234,86,97319,2,0,P|237:153|284:207,1,137.999995788574,10|0,0:0|0:0,0:0:0:0:
377,218,97569,1,0,0:0:0:0:
384,209,97653,6,0,B|398:194|398:194|279:205,1,137.999995788574,0|0,1:0|0:0,0:0:0:0:
5,236,97986,1,8,0:0:0:0:
221,367,98153,1,0,0:0:0:0:
221,367,98236,1,0,1:0:0:0:
221,367,98319,2,0,P|228:328|226:271,1,68.9999978942872,2|0,0:0|0:0,0:0:0:0:
106,172,98486,2,0,P|136:197|186:224,1,68.9999978942872,0|0,1:0|0:0,0:0:0:0:
436,147,98653,2,0,P|367:158|283:201,1,137.999995788574,8|2,0:0|0:0,0:0:0:0:
22,372,98986,38,0,L|0:203,1,137.999995788574,6|0,0:0|0:0,0:0:0:0:
204,20,99319,1,8,0:0:0:0:
161,212,99486,1,2,0:0:0:0:
161,212,99569,1,0,0:0:0:0:
161,212,99653,1,0,0:0:0:0:
12,69,99819,2,0,P|53:68|89:76,1,68.9999978942872,0|0,1:0|0:0,0:0:0:0:
342,130,99986,2,0,P|258:130|188:116,1,137.999995788574,10|0,0:0|0:0,0:0:0:0:
169,101,100236,1,0,0:0:0:0:
169,101,100319,5,0,1:0:0:0:
321,14,100486,1,0,0:0:0:0:
258,335,100653,2,0,L|240:164,1,137.999995788574,8|0,0:0|0:0,0:0:0:0:
472,120,100986,1,2,0:0:0:0:
465,190,101069,1,0,0:0:0:0:
459,261,101153,2,0,L|449:328,1,68.9999978942872,0|2,1:0|0:0,0:0:0:0:
507,30,101319,37,8,0:0:0:0:
319,105,101486,2,0,P|281:110|235:93,1,68.9999978942872,2|0,0:0|0:0,0:0:0:0:
37,54,101653,6,0,P|113:44|205:78,1,137.999995788574,6|0,0:0|0:0,0:0:0:0:
261,353,101986,1,8,0:0:0:0:
319,105,102153,1,2,0:0:0:0:
319,105,102236,1,0,0:0:0:0:
319,105,102319,1,0,0:0:0:0:
116,242,102486,1,0,1:0:0:0:
446,237,102653,2,0,L|299:221,1,137.999995788574,10|0,0:0|0:0,0:0:0:0:
206,213,102903,1,0,0:0:0:0:
213,223,102986,38,0,L|350:237,1,137.999995788574,0|0,1:0|0:0,0:0:0:0:
130,27,103319,2,0,P|123:96|139:192,1,137.999995788574,8|0,0:0|0:0,0:0:0:0:
123,313,103569,1,0,1:0:0:0:
132,300,103653,2,0,P|139:231|123:135,1,137.999995788574,2|0,0:0|1:0,0:0:0:0:
17,16,103986,2,0,P|10:85|26:181,1,137.999995788574,8|0,0:0|0:0,0:0:0:0:
132,300,104319,6,0,P|153:234|206:186,1,137.999995788574,6|0,0:0|0:0,0:0:0:0:
481,324,104653,2,0,P|439:317|393:294,1,68.9999978942872,8|0,0:0|0:0,0:0:0:0:
478,63,104819,2,0,L|476:240,1,137.999995788574,2|0,0:0|0:0,0:0:0:0:
468,227,105069,1,0,0:0:0:0:
468,227,105153,1,0,1:0:0:0:
160,85,105319,2,0,P|234:80|295:100,1,137.999995788574,10|0,0:0|0:0,0:0:0:0:
364,217,105569,1,0,0:0:0:0:
371,233,105653,38,0,P|302:238|237:218,1,137.999995788574,0|2,1:0|0:0,0:0:0:0:
503,21,105986,2,0,L|479:155,1,137.999995788574,10|0,0:0|0:0,0:0:0:0:
288,356,106319,5,2,0:0:0:0:
288,356,106403,1,0,1:0:0:0:
288,356,106486,2,0,P|277:311|279:267,1,68.9999978942872,8|2,0:0|0:0,0:0:0:0:
460,137,106653,37,0,1:0:0:0:
460,137,106736,2,0,P|426:169|387:189,1,80.499997543335,8|2,0:0|1:2,0:0:0:0:
153,94,106903,6,0,P|205:109|249:137,1,92,8|14,0:0|0:0,0:0:0:0:
237,127,107653,6,0,L|233:68,1,57.5,0|0,0:0|1:0,0:0:0:0:
35,337,107986,1,10,0:0:0:0:
35,337,108319,22,0,P|96:305|172:310,1,137.999995788574,2|0,1:2|0:0,0:0:0:0:
402,323,108653,2,0,P|341:354|273:352,1,137.999995788574,8|0,0:0|0:0,0:0:0:0:
302,100,108986,2,0,L|311:254,1,137.999995788574,2|0,0:0|1:0,0:0:0:0:
443,45,109319,1,8,0:0:0:0:
435,183,109486,1,2,0:0:0:0:
83,144,109653,6,0,P|142:165|216:173,1,137.999995788574,6|0,0:0|0:0,0:0:0:0:
287,17,109986,2,0,P|281:48|283:85,1,68.9999978942872,8|0,0:0|0:0,0:0:0:0:
313,313,110153,2,0,P|325:251|321:177,1,137.999995788574,2|0,0:0|0:0,0:0:0:0:
283,85,110403,1,0,0:0:0:0:
283,85,110486,1,0,1:0:0:0:
63,312,110653,2,0,L|241:322,1,137.999995788574,10|0,0:0|0:0,0:0:0:0:
407,240,110986,37,0,1:0:0:0:
146,164,111153,1,0,0:0:0:0:
415,378,111319,2,0,L|406:222,1,137.999995788574,8|0,0:0|0:0,0:0:0:0:
214,47,111653,6,0,L|209:125,1,68.9999978942872,2|0,0:0|1:0,0:0:0:0:
312,300,111819,1,0,1:0:0:0:
312,300,111903,2,0,L|307:222,1,68.9999978942872,2|8,0:0|0:0,0:0:0:0:
202,59,112069,37,0,1:0:0:0:
107,46,112152,1,2,1:2:0:0:
31,105,112235,1,8,0:0:0:0:
14,199,112319,22,0,L|19:227,7,28.75,6|0|0|2|0|0|2|0,1:2|0:0|0:0|0:0|0:0|0:0|0:0|0:0,0:0:0:0:
86,349,112986,2,0,L|80:320,7,28.75,0|2|0|0|2|0|0|2,0:0|0:0|0:0|0:0|0:0|0:0|0:0|0:0,0:0:0:0:
14,199,113653,2,0,L|19:227,7,28.75,0|0|2|0|0|2|0|0,0:0|0:0|0:0|0:0|0:0|0:0|0:0|0:0,0:0:0:0:
86,349,114320,2,0,L|80:320,7,28.75,2|0|0|2|0|0|2|0,0:0|0:0|0:0|0:0|0:0|0:0|0:0|0:0,0:0:0:0:
160,124,114986,38,0,L|167:193,1,57.5,2|0,1:2|0:0,0:0:0:0:
257,373,115153,2,0,L|262:315,1,57.5,0|2,1:0|0:0,0:0:0:0:
310,103,115319,38,0,L|303:172,1,57.5,0|0,1:0|0:0,0:0:0:0:
216,364,115486,2,0,L|210:306,1,57.5,2|0,1:2|0:0,0:0:0:0:
160,82,115652,6,0,L|167:151,1,57.5,0|2,1:0|0:0,0:0:0:0:
251,333,115819,2,0,L|256:275,1,57.5,0|0,1:0|0:0,0:0:0:0:
315,45,115986,38,0,L|308:114,1,57.5,2|0,1:2|0:0,0:0:0:0:
220,327,116153,2,0,L|214:269,1,57.5,0|2,1:0|0:0,0:0:0:0:
422,105,116319,5,0,1:0:0:0:
480,150,116402,1,0,1:0:0:0:
507,220,116485,1,2,1:2:0:0:
494,292,116568,1,0,1:0:0:0:
447,349,116652,1,0,1:0:0:0:
377,373,116735,1,2,1:2:0:0:
305,358,116818,1,0,1:1:0:0:
251,309,116902,1,0,1:0:0:0:
227,237,116986,38,0,P|226:186|238:138,1,86.2500032901765,2|0,1:2|1:0,0:0:0:0:
459,318,117153,1,8,0:0:0:0:
459,318,117236,2,0,P|415:344|367:357,1,86.2500032901765,2|0,1:2|1:0,0:0:0:0:
427,93,117403,1,8,0:0:0:0:
427,93,117486,2,0,P|469:119|503:156,1,86.2500032901765,2|8,1:2|0:0,0:0:0:0:
127,248,117653,22,0,B|122:218|122:218|127:192|127:192|122:162|122:162|136:123,1,115,0|0,0:0|0:0,0:0:0:0:
