osu file format v14

[General]
AudioFilename: audio.mp3
AudioLeadIn: 0
PreviewTime: 85653
Countdown: 0
SampleSet: Soft
StackLeniency: 0.7
Mode: 0
LetterboxInBreaks: 0
WidescreenStoryboard: 1

[Editor]
Bookmarks: 9653,16653,21653,26986,32319,38319,42986,53653,64319,74986,76403,82986,93653,96319,105653,112319,114986,117653
DistanceSpacing: 1
BeatDivisor: 4
GridSize: 8
TimelineZoom: 1.3

[Metadata]
Title:Yggdrasil (Original Mix)
TitleUnicode:Yggdrasil (Original Mix)
Artist:MYTK
ArtistUnicode:MYTK
Creator:Lulu-
Version:Mathew's Normal
Source:
Tags:dubstep drumstep dnb artcore kac2013 voez yamicchi dtm9 nowa rvmathew underdogs lowcombofc newton-
BeatmapID:1533252
BeatmapSetID:554801

[Difficulty]
HPDrainRate:4
CircleSize:3
OverallDifficulty:4
ApproachRate:4
SliderMultiplier:1.1
SliderTickRate:1

[Events]
//Background and Video events
0,0,"60393234_p0.jpg",0,0
//Break Periods
2,53853,62999
//Storyboard Layer 0 (Background)
//Storyboard Layer 1 (Fail)
//Storyboard Layer 2 (Pass)
//Storyboard Layer 3 (Foreground)
//Storyboard Sound Samples

[TimingPoints]
320,333.333333333333,4,2,1,40,1,0
320,-100,4,2,1,40,0,0
5653,-100,4,2,2,40,0,0
5736,-100,4,2,1,40,0,0
10153,-100,4,2,1,40,0,0
10653,-100,4,2,1,40,0,0
20819,-100,4,2,1,40,0,0
21319,-100,4,2,1,40,0,0
74986,-100,4,2,1,80,0,1
75153,-100,4,2,1,5,0,1
75236,-100,4,2,1,80,0,1
75403,-100,4,2,1,5,0,1
75486,-100,4,2,1,80,0,1
75653,-100,4,2,1,5,0,1
75736,-100,4,2,1,80,0,1
75903,-100,4,2,1,5,0,1
75986,-100,4,2,1,60,0,0
76236,-100,4,2,1,5,0,0
76319,-100,4,2,1,80,0,1
76486,-100,4,2,1,5,0,1
76569,-100,4,2,1,80,0,1
76736,-100,4,2,1,5,0,1
76819,-100,4,2,1,80,0,1
76986,-100,4,2,1,5,0,1
77069,-100,4,2,1,80,0,1
77236,-100,4,2,1,5,0,1
77319,-100,4,2,1,60,0,0
77403,-100,4,2,1,5,0,0
77486,-100,4,2,1,60,0,0
77569,-100,4,2,1,5,0,0
77653,-100,4,2,1,80,0,1
77819,-100,4,2,1,5,0,1
77903,-100,4,2,1,80,0,1
78069,-100,4,2,1,5,0,1
78153,-100,4,2,1,80,0,1
78319,-100,4,2,1,5,0,1
78403,-100,4,2,1,80,0,1
78569,-100,4,2,1,5,0,1
78653,-100,4,2,1,60,0,0
78903,-100,4,2,1,5,0,0
78986,-100,4,2,1,80,0,1
79153,-100,4,2,1,5,0,1
79236,-100,4,2,1,80,0,1
79403,-100,4,2,1,5,0,1
79486,-100,4,2,1,80,0,1
79653,-100,4,2,1,5,0,1
79736,-100,4,2,1,80,0,1
79903,-100,4,2,1,5,0,1
79986,-100,4,2,1,60,0,0
80069,-100,4,2,1,5,0,0
80153,-100,4,2,1,60,0,0
80236,-100,4,2,1,5,0,0
80319,-100,4,2,1,80,0,1
81319,-100,4,2,1,50,0,0
81653,-100,4,2,1,80,0,1
81903,-100,4,2,1,80,0,1
82653,-100,4,2,1,80,0,0
82986,-100,4,2,1,50,0,0
83319,-100,4,2,1,55,0,0
83653,-100,4,2,1,60,0,0
83986,-100,4,2,1,65,0,0
84319,-100,4,2,1,70,0,0
84653,-100,4,2,1,75,0,0
84986,-100,4,2,1,80,0,0
85319,-100,4,2,1,85,0,0
85653,-100,4,2,1,90,0,1
87653,-100,4,2,1,70,0,0
88319,-100,4,2,1,70,0,0
88816,-100,4,2,1,70,0,0
88986,-100,4,2,1,70,0,0
89486,-100,4,2,1,70,0,0
89653,-100,4,2,1,70,0,0
90153,-100,4,2,1,70,0,0
90319,-100,4,2,1,70,0,0
90653,-100,4,2,1,70,0,0
90819,-100,4,2,2,70,0,0
90903,-100,4,2,1,70,0,0
90986,-100,4,2,1,90,0,1
91653,-100,4,2,1,90,0,1
92153,-100,4,2,1,90,0,1
92403,-100,4,2,1,5,0,1
92569,-100,4,2,1,90,0,1
92653,-100,4,2,1,5,0,1
92819,-100,4,2,1,90,0,1
92903,-100,4,2,1,5,0,1
93069,-100,4,2,1,90,0,1
93153,-100,4,2,1,5,0,1
93319,-100,4,2,1,90,0,1
93653,-100,4,2,1,70,0,0
94153,-100,4,2,1,75,0,0
94653,-100,4,2,1,80,0,0
95153,-100,4,2,1,85,0,0
95653,-100,4,2,1,90,0,0
96319,-100,4,2,1,95,0,1
105653,-100,4,2,1,70,0,1
106319,-100,4,2,1,75,0,1
106986,-100,4,2,1,80,0,0
107986,-100,4,2,1,90,0,1
108319,-100,4,2,2,90,0,1
108403,-100,4,2,1,90,0,1
112319,-100,4,2,1,65,0,0
113319,-100,4,2,1,70,0,0
114319,-100,4,2,1,75,0,0
114986,-100,4,2,1,80,0,1
115319,-100,4,2,1,80,0,1
115653,-100,4,2,1,80,0,1
115986,-100,4,2,1,80,0,1
117653,-100,4,2,1,85,0,0
117986,-100,4,2,1,5,0,0

[Colours]
Combo1 : 194,18,18
Combo2 : 255,128,255
Combo3 : 0,128,255
Combo4 : 234,101,21

[HitObjects]
432,96,320,6,0,L|493:22,2,82.5,4|0|0,0:0|0:0|0:0,0:0:0:0:
416,177,1069,2,0,L|448:267,2,82.5,0|0|0,0:0|0:0|0:0,0:0:0:0:
353,123,1819,2,0,L|258:106,1,82.5,0|0,0:0|0:0,0:0:0:0:
191,89,2319,1,0,0:0:0:0:
122,134,2569,2,0,P|135:176|119:218,1,82.5,0|0,0:0|0:0,0:0:0:0:
93,257,2986,6,0,P|58:240|-7:249,2,82.5,0|0|0,0:0|0:0|0:0,0:0:0:0:
160,305,3735,2,0,P|148:343|169:393,2,82.5,0|0|0,0:0|0:0|0:0,0:0:0:0:
222,250,4486,2,0,P|233:211|213:162,1,82.5,0|0,0:0|0:0,0:0:0:0:
184,99,4986,1,0,0:0:0:0:
256,60,5235,2,0,L|361:60,1,82.5,0|0,0:0|0:0,0:0:0:0:
385,90,5653,38,0,L|487:90,2,82.5,2|0|0,0:0|0:0|0:0,0:0:0:0:
330,152,6403,2,0,L|228:152,2,82.5,0|0|0,0:0|0:0|0:0,0:0:0:0:
410,170,7152,2,0,P|421:208|410:247,1,82.5,0|0,0:0|0:0,0:0:0:0:
387,327,7653,1,0,0:0:0:0:
308,304,7902,2,0,L|202:304,1,82.5,0|0,0:0|0:0,0:0:0:0:
175,326,8319,6,0,L|69:326,1,82.5,0|0,0:0|0:0,0:0:0:0:
76,245,8819,2,0,L|158:245,1,82.5,0|0,0:0|0:0,0:0:0:0:
221,191,9319,2,0,P|204:154|229:107,2,82.5,0|0|0,0:0|0:0|0:0,0:0:0:0:
258,232,9986,1,0,0:0:0:0:
310,214,10153,2,0,L|374:214,1,55,0|8,1:0|0:0,0:0:0:0:
475,214,10653,2,0,L|475:147,1,55
483,104,10986,38,0,L|379:104,1,82.5,4|0,0:0|0:0,0:0:0:0:
321,81,11486,2,0,L|217:81,1,82.5,0|0,0:0|0:0,0:0:0:0:
169,125,11986,2,0,P|152:164|166:211,1,82.5,0|0,0:0|0:0,0:0:0:0:
228,249,12486,2,0,P|245:210|231:163,1,82.5,0|0,0:0|0:0,0:0:0:0:
160,201,12986,2,0,P|143:240|157:287,2,82.5,0|0|0,0:0|0:0|0:0,0:0:0:0:
179,149,13653,6,0,P|184:109|146:66,1,82.5,2|0,0:0|0:0,0:0:0:0:
92,30,14153,2,0,B|131:43|174:30,1,82.5,0|0,0:0|0:0,0:0:0:0:
255,40,14653,2,0,P|294:32|346:46,2,82.5,0|0|0,0:0|0:0|0:0,0:0:0:0:
203,105,15403,1,0,0:0:0:0:
256,168,15653,2,0,L|344:160,1,82.5,0|0,0:0|0:0,0:0:0:0:
418,131,16153,1,0,0:0:0:0:
418,131,16319,38,0,P|451:91|420:34,1,110,0|4,0:0|0:0,0:0:0:0:
256,192,16819,12,2,20319,0:0:0:0:
57,233,21653,5,0,1:0:0:0:
57,233,23153,2,0,L|121:233,1,55,2|2,0:0|0:0,0:0:0:0:
217,192,23653,1,2,0:0:0:0:
217,192,23819,2,0,P|194:139|224:80,1,110,2|2,0:0|0:0,0:0:0:0:
312,49,24486,38,0,L|386:49,1,55,2|2,0:0|0:0,0:0:0:0:
473,94,24986,1,2,0:0:0:0:
473,94,25153,2,0,P|496:147|466:206,1,110,2|2,0:0|0:0,0:0:0:0:
425,289,25819,2,0,L|449:361,2,55,2|2|2,0:0|0:0|0:0,0:0:0:0:
351,207,26486,2,0,L|375:135,2,55,2|2|2,0:0|0:0|0:0,0:0:0:0:
322,254,26986,6,0,B|283:254|283:254|251:266|251:266|203:266,1,110,2|0,0:0|0:0,0:0:0:0:
157,171,27653,2,0,B|193:171|193:171|225:159|225:159|264:159,1,110,0|0,0:0|0:0,0:0:0:0:
366,117,28319,2,0,B|379:80|379:80|380:46|380:46|393:12,1,110,0|0,0:0|0:0,0:0:0:0:
474,85,28986,2,0,B|460:121|460:121|459:155|459:155|446:189,1,110,0|0,0:0|0:0,0:0:0:0:
421,239,29486,1,0,0:0:0:0:
382,278,29653,38,0,L|308:257,3,55
286,229,30319,2,0,L|282:173,3,55,0|0|0|0,0:0|0:0|0:0|0:0,0:0:0:0:
250,129,30986,2,0,L|176:108,3,55,0|0|0|0,1:0|0:0|0:0|0:0,0:0:0:0:
146,93,31653,2,0,L|105:51,1,55,0|0,0:0|0:0,0:0:0:0:
65,19,31986,1,2,0:0:0:0:
9,113,32319,22,0,B|17:121|17:121|9:129|9:129|17:137|17:137|9:145|9:145|17:153|17:153|9:161|9:161|17:169|17:169|9:177|9:177|17:185|17:185|9:193|9:193|17:201|17:201|9:209|9:209|17:217|17:217|9:225|9:225|17:233|17:233|9:241,1,165,4|0,0:0|0:0,0:0:0:0:
0,283,32986,2,0,B|136:238|136:238|243:254|243:254|380:209,1,385,8|0,0:0|1:0,0:0:0:0:
406,171,34319,2,0,L|417:112,2,55,8|0|0,0:0|1:0|1:0,0:0:0:0:
402,281,34986,6,0,L|294:317,1,110,4|0,0:0|0:0,0:0:0:0:
250,339,35486,1,2,1:2:0:0:
250,339,35653,2,0,L|274:221,1,110,8|0,0:0|0:0,0:0:0:0:
318,200,36153,1,2,1:2:0:0:
318,200,36320,2,0,L|342:82,1,110,4|0,0:0|0:0,0:0:0:0:
358,43,36819,1,2,1:2:0:0:
358,43,36986,2,0,L|237:43,1,110,8|2,0:0|0:0,0:0:0:0:
142,74,37653,38,0,B|152:78|152:78|147:88|147:88|158:93|158:93|153:103|153:103|163:108|163:108|159:118|159:118|169:123|169:123|164:133|164:133|175:138|175:138|170:148|170:148|181:153|181:153|176:163|176:163|186:168|186:168|182:178|182:178|192:183|192:183|187:193,1,165,4|0,0:0|0:0,0:0:0:0:
233,212,38319,2,0,P|231:315|36:246,1,385,8|0,0:0|1:0,0:0:0:0:
56,208,39653,2,0,P|28:167|53:101,1,110,8|0,0:0|1:0,0:0:0:0:
138,58,40319,6,0,L|220:58,1,82.5,4|0,0:0|0:0,0:0:0:0:
285,109,40819,2,0,L|367:109,1,82.5,2|0,0:0|0:0,0:0:0:0:
443,75,41319,2,0,L|411:-5,2,82.5,0|2|0,0:0|0:0|0:0,0:0:0:0:
480,184,42153,1,0,1:0:0:0:
480,184,42319,2,0,L|470:266,1,82.5,10|2,0:0|0:0,0:0:0:0:
441,345,42819,1,0,0:0:0:0:
441,345,42986,38,0,B|389:340|389:340|333:357|333:357|277:348,1,165,4|2,0:0|0:0,0:0:0:0:
226,333,43653,2,0,P|208:349|146:363,2,82.5,0|8|0,1:0|0:0|0:0,0:0:0:0:
247,282,44319,2,0,P|267:230|236:162,1,110,4|0,0:0|0:0,0:0:0:0:
221,141,44819,1,8,1:2:0:0:
221,141,44985,2,0,P|279:149|328:122,1,110,8|0,0:0|0:0,0:0:0:0:
407,54,45653,6,0,B|396:99|396:99|403:120|403:120|388:184,1,110,4|0,0:0|0:0,0:0:0:0:
426,211,46153,1,0,1:0:0:0:
426,211,46319,2,0,B|415:256|415:256|422:277|422:277|407:341,1,110,8|0,0:0|0:0,0:0:0:0:
375,358,46819,1,2,0:0:0:0:
375,358,46986,2,0,L|259:358,1,110,4|0,0:0|0:0,0:0:0:0:
235,318,47486,1,0,1:0:0:0:
235,318,47653,2,0,L|119:318,1,110,8|2,0:0|0:0,0:0:0:0:
31,260,48319,38,0,B|22:251|22:251|31:243|31:243|22:234|22:234|31:226|31:226|22:218|22:218|31:208|31:208|22:200|22:200|31:192|31:192|22:184|22:184|31:175|31:175|22:166|22:166|31:158|31:158|22:150|22:150|31:141|31:141,1,165,4|0,0:0|0:0,0:0:0:0:
67,100,48986,2,0,P|225:211|20:242,1,495,10|2,0:0|1:2,0:0:0:0:
2,212,50653,1,2,1:2:0:0:
110,192,50986,6,0,L|204:192,1,82.5,4|0,0:0|0:0,0:0:0:0:
269,222,51486,2,0,L|363:222,1,82.5,2|0,0:0|0:0,0:0:0:0:
407,161,51986,2,0,B|407:125|407:125|403:117|403:117|403:61,2,82.5,0|0|0,0:0|0:0|0:0,0:0:0:0:
463,222,52736,1,2,0:0:0:0:
407,283,52986,2,0,B|407:319|407:319|411:327|411:327|411:383,2,82.5,10|0|0,0:0|0:0|0:0,0:0:0:0:
373,239,53653,37,0,1:0:0:0:
418,79,64319,21,0,1:0:0:0:
256,228,64986,1,8,0:0:0:0:
116,140,65486,2,0,B|73:137|73:137|54:126|54:126|-10:122,2,110,0|0|0,1:0|1:0|1:0,0:0:0:0:
152,182,66319,2,0,B|198:206|198:206|266:195,1,110,8|0,0:0|1:0,0:0:0:0:
309,183,66819,1,0,1:0:0:0:
355,153,66986,6,0,P|334:117|331:76,2,82.5,2|2|2,1:2|0:0|1:2,0:0:0:0:
407,217,67736,1,2,0:0:0:0:
471,165,67986,2,0,P|490:133|489:65,2,82.5,2|0|2,0:0|0:0|1:2,0:0:0:0:
407,217,68736,1,2,0:0:0:0:
339,264,68986,2,0,B|270:264|270:264|246:275|246:275|173:275,1,165,10|2,0:0|0:0,0:0:0:0:
127,250,69653,38,0,P|108:213|120:161,1,82.5,0|0,1:0|0:0,0:0:0:0:
178,122,70153,2,0,P|196:158|184:210,1,82.5,0|0,0:0|0:0,0:0:0:0:
113,173,70653,2,0,P|94:136|99:96,1,82.5,0|0,0:0|0:0,0:0:0:0:
164,45,71153,2,0,P|182:81|177:121,1,82.5,0|0,0:0|0:0,0:0:0:0:
113,173,71653,1,8,0:0:0:0:
47,222,71903,1,0,0:0:0:0:
117,274,72153,1,0,1:0:0:0:
117,274,72319,6,0,P|109:314|135:361,1,82.5,0|0,1:0|0:0,0:0:0:0:
194,306,72819,2,0,P|202:266|176:219,1,82.5,0|0,0:0|0:0,0:0:0:0:
132,166,73319,2,0,P|116:128|124:88,1,82.5,0|0,0:0|0:0,0:0:0:0:
195,42,73819,2,0,P|210:79|202:119,1,82.5,0|0,0:0|0:0,0:0:0:0:
132,166,74319,1,0,0:0:0:0:
63,211,74569,1,0,0:0:0:0:
121,277,74819,1,0,1:0:0:0:
121,277,74986,6,0,L|225:277,1,82.5,4|4,0:0|0:0,0:0:0:0:
271,230,75486,2,0,L|366:230,2,82.5,4|4|0,0:0|0:0|0:0,0:0:0:0:
280,120,76319,2,0,L|384:120,1,82.5,4|4,0:0|0:0,0:0:0:0:
430,167,76819,2,0,L|525:167,2,82.5,4|4|0,0:0|0:0|0:0,0:0:0:0:
384,194,77486,1,0,0:0:0:0:
384,194,77653,6,0,L|384:290,1,82.5,4|4,0:0|0:0,0:0:0:0:
302,266,78153,2,0,L|302:362,2,82.5,4|4|0,0:0|0:0|0:0,0:0:0:0:
250,169,78986,2,0,P|267:131|250:79,2,82.5,4|4|4,0:0|0:0|0:0,0:0:0:0:
190,226,79736,1,4,0:0:0:0:
111,201,79986,2,0,L|56:201,1,55,0|0,0:0|0:0,0:0:0:0:
8,174,80319,38,0,P|-5:134|8:88,2,82.5,4|4|4,0:0|0:0|0:0,0:0:0:0:
50,245,81069,1,4,0:0:0:0:
92,316,81319,1,2,0:0:0:0:
191,268,81653,2,0,P|204:228|191:182,2,82.5,4|4|4,0:0|0:0|0:0,0:0:0:0:
148,338,82403,1,4,0:0:0:0:
70,310,82653,2,0,L|54:241,1,55,2|0,0:0|0:0,0:0:0:0:
43,203,82986,6,0,L|51:147,3,55,2|2|2|2,0:0|0:0|0:0|0:0,0:0:0:0:
104,134,83653,2,0,L|112:78,3,55,2|2|2|2,0:0|0:0|0:0|0:0,0:0:0:0:
160,53,84319,2,0,L|216:45,3,55,2|2|2|2,0:0|0:0|0:0|0:0,0:0:0:0:
266,25,84986,2,0,L|322:33,3,55,2|2|2|2,1:2|1:2|1:2|1:2,0:0:0:0:
369,59,85653,37,4,0:0:0:0:
474,26,85986,1,8,0:0:0:0:
369,59,86319,2,0,B|339:132|339:132|355:177|355:177|316:275,1,220,0|0,0:0|1:0,0:0:0:0:
247,346,87319,1,8,0:0:0:0:
146,301,87653,2,0,B|99:301|99:301|80:313|80:313|32:313,1,110,0|8,0:0|0:0,0:0:0:0:
5,277,88153,1,0,0:0:0:0:
5,277,88319,6,0,P|-25:228|9:167,1,110,4|0,0:0|0:0,0:0:0:0:
31,144,88819,1,0,1:0:0:0:
31,144,88986,2,0,P|70:108|55:50,1,110,8|0,0:0|0:0,0:0:0:0:
31,16,89486,1,2,0:0:0:0:
31,16,89653,2,0,P|81:27|160:17,1,110,4|0,0:0|0:0,0:0:0:0:
196,11,90153,1,0,1:0:0:0:
196,11,90319,2,0,P|250:6|304:17,1,110,8|0,0:0|0:0,0:0:0:0:
404,64,90986,38,0,B|409:69|409:69|404:75|404:75|409:81|409:81|404:87|404:87|409:93|409:93|404:99|404:99|409:105|409:105|404:110|404:110|409:116|409:116|404:122|404:122|409:128|409:128|404:134|404:134|409:140|409:140|404:146|404:146|409:151|409:151|404:157,1,110,4|8,0:0|0:0,0:0:0:0:
330,227,91653,2,0,P|293:177|308:112,1,110,0|8,0:0|0:0,0:0:0:0:
380,61,92319,2,0,P|421:72|477:53,2,82.5,2|2|2,0:0|0:0|0:0,0:0:0:0:
302,32,93069,1,2,0:0:0:0:
226,64,93319,2,0,L|213:117,1,55,10|2,0:0|0:0,0:0:0:0:
171,153,93653,22,0,B|178:197|178:197|191:212|191:212|200:261,1,110,0|0,1:0|0:0,0:0:0:0:
219,308,94153,2,0,P|258:322|302:308,1,82.5,0|0,0:0|0:0,0:0:0:0:
363,263,94653,2,0,P|402:252|440:266,1,82.5,0|0,0:0|0:0,0:0:0:0:
502,322,95153,2,0,B|483:200,1,110,0|0,0:0|0:0,0:0:0:0:
472,160,95653,2,0,B|460:168|460:168|452:160|452:160|444:168|444:168|436:160|436:160|428:168|428:168|420:160|420:160|412:168|412:168|404:160|404:160|396:168|396:168|388:160|388:160|380:168|380:168|372:160|372:160|364:168|364:168|356:160|356:160|347:169,1,165,0|0,1:0|0:0,0:0:0:0:
303,141,96319,22,0,P|311:102|291:61,1,82.5,4|0,0:0|0:0,0:0:0:0:
226,112,96819,2,0,P|218:151|237:191,1,82.5,2|2,0:0|0:0,0:0:0:0:
307,229,97319,2,0,P|348:220|393:232,2,82.5,8|2|2,0:0|0:0|0:0,0:0:0:0:
233,267,98069,1,2,0:0:0:0:
162,309,98319,1,2,0:0:0:0:
88,272,98569,2,0,B|79:189,1,82.5,2|2,0:0|0:0,0:0:0:0:
103,140,98986,6,0,P|144:151|202:137,1,82.5,4|2,0:0|0:0,0:0:0:0:
260,114,99486,1,2,0:0:0:0:
334,150,99736,1,2,0:0:0:0:
404,107,99986,2,0,P|426:69|415:15,2,82.5,8|2|2,0:0|0:0|0:0,0:0:0:0:
334,150,100736,1,2,0:0:0:0:
370,224,100986,2,0,P|391:258|389:299,1,82.5,2|2,0:0|0:0,0:0:0:0:
330,356,101486,1,2,0:0:0:0:
330,356,101653,37,4,0:0:0:0:
256,319,101903,1,2,0:0:0:0:
182,356,102153,1,2,0:0:0:0:
122,299,102403,1,2,0:0:0:0:
70,235,102653,2,0,P|34:264|-20:262,2,82.5,8|2|2,0:0|0:0|0:0,0:0:0:0:
122,171,103403,1,2,0:0:0:0:
203,188,103653,2,0,P|226:222|208:282,1,82.5,2|2,0:0|0:0,0:0:0:0:
177,332,104153,1,2,0:0:0:0:
177,332,104319,5,4,0:0:0:0:
247,375,104569,1,2,0:0:0:0:
294,307,104819,2,0,L|398:307,1,82.5,2|2,0:0|0:0,0:0:0:0:
426,241,105319,2,0,L|517:241,2,82.5,10|2|0,0:0|0:0|0:0,0:0:0:0:
376,175,106069,1,2,0:0:0:0:
426,109,106319,2,0,L|519:109,2,82.5,2|2|0,0:0|0:0|1:0,0:0:0:0:
374,91,106986,38,0,B|324:115|260:67|207:91,1,165,4|2,0:0|0:0,0:0:0:0:
136,122,107736,1,2,0:0:0:0:
201,173,107986,2,0,P|214:216|193:261,2,82.5,10|2|2,0:0|0:0|0:0,0:0:0:0:
136,122,108736,1,2,0:0:0:0:
211,89,108986,2,0,L|303:89,2,82.5,2|2|2,0:0|0:0|0:0,0:0:0:0:
164,60,109653,5,4,0:0:0:0:
94,16,109903,1,0,0:0:0:0:
24,59,110153,2,0,P|11:100|41:148,1,82.5,2|2,0:0|0:0,0:0:0:0:
87,190,110653,2,0,P|101:227|88:266,1,82.5,8|2,0:0|0:0,0:0:0:0:
39,332,111153,1,2,0:0:0:0:
113,368,111403,1,0,0:0:0:0:
182,323,111653,2,0,L|271:306,2,82.5,2|2|8,0:0|0:0|0:0,0:0:0:0:
137,292,112319,6,0,P|142:249|123:199,1,82.5,0|2,1:0|0:0,0:0:0:0:
94,138,112819,2,0,P|142:140|173:121,1,82.5,2|2,0:0|0:0,0:0:0:0:
238,75,113319,2,0,P|215:43|237:-12,2,82.5,2|2|2,0:0|0:0|0:0,0:0:0:0:
320,87,114069,1,2,0:0:0:0:
331,170,114319,2,0,P|333:211|307:252,1,82.5,2|2,0:0|0:0,0:0:0:0:
256,192,114819,1,2,0:0:0:0:
256,192,114986,5,2,1:2:0:0:
256,192,115153,12,4,117653,0:0:0:0:
