osu file format v14

[General]
AudioFilename: audio.mp3
AudioLeadIn: 0
PreviewTime: 85653
Countdown: 0
SampleSet: Soft
StackLeniency: 0.2
Mode: 0
LetterboxInBreaks: 0
WidescreenStoryboard: 1

[Editor]
Bookmarks: 9653,16653,21653,26986,32319,38319,42986,53653,64319,74986,82986,96319,105653,112319,114986,117653
DistanceSpacing: 0.3
BeatDivisor: 4
GridSize: 32
TimelineZoom: 4.299998

[Metadata]
Title:Yggdrasil (Original Mix)
TitleUnicode:Yggdrasil (Original Mix)
Artist:MYTK
ArtistUnicode:MYTK
Creator:Lulu-
Version:LCFC's Ultimate
Source:
Tags:dubstep drumstep dnb artcore kac2013 voez yamicchi dtm9 nowa rvmathew underdogs lowcombofc newton-
BeatmapID:1588444
BeatmapSetID:554801

[Difficulty]
HPDrainRate:6
CircleSize:3.2
OverallDifficulty:8.6
ApproachRate:9.3
SliderMultiplier:2.59999990463257
SliderTickRate:1

[Events]
//Background and Video events
0,0,"60393234_p0.jpg",0,0
//Break Periods
2,21853,26432
2,53853,63765
//Storyboard Layer 0 (Background)
//Storyboard Layer 1 (Fail)
//Storyboard Layer 2 (Pass)
//Storyboard Layer 3 (Foreground)
//Storyboard Sound Samples

[TimingPoints]
320,333.333333333333,4,2,1,40,1,0
320,-200,4,2,1,40,0,0
5653,-200,4,2,2,40,0,0
5736,-200,4,2,1,40,0,0
9653,-200,4,2,1,50,0,0
10153,-100,4,2,1,50,0,0
10986,-200,4,2,1,40,0,0
13653,-200,4,2,2,40,0,0
13736,-200,4,2,1,40,0,0
15819,-100,4,2,1,50,0,0
16319,-100,4,2,1,5,0,0
16653,-100,4,2,1,50,0,0
20319,-200,4,2,1,50,0,0
20819,-100,4,2,1,50,0,0
26986,-200,4,2,2,40,0,0
27069,-200,4,2,1,40,0,0
27319,-166.666666666667,4,2,1,40,0,0
27653,-142.857142857143,4,2,1,45,0,0
27986,-125,4,2,1,45,0,0
28319,-111.111111111111,4,2,1,50,0,0
28653,-100,4,2,1,50,0,0
28986,-90.9090909090909,4,2,1,55,0,0
29319,-83.3333333333333,4,2,1,55,0,0
29486,-100,4,2,1,55,0,0
29653,-100,4,2,1,60,0,0
29986,-100,4,2,1,65,0,0
30319,-100,4,2,1,70,0,0
30986,-100,4,2,1,65,0,0
31319,-100,4,2,1,60,0,0
31653,-100,4,2,1,50,0,0
31986,-100,4,2,1,40,0,0
32319,-200,4,2,1,70,0,0
32903,-200,4,2,1,5,0,0
32986,-50,4,2,1,70,0,0
33007,-50,4,2,1,30,0,0
34153,-66.6666666666667,4,2,1,70,0,0
34986,-200,4,2,1,70,0,0
38319,-50,4,2,1,60,0,0
38986,-50,4,2,1,65,0,0
39486,-66.6666666666667,4,2,1,65,0,0
39653,-66.6666666666667,4,2,1,70,0,0
40319,-200,4,2,1,65,0,0
42986,-50,4,2,1,70,0,0
43007,-50,4,2,1,30,0,0
43486,-50,4,2,1,70,0,0
43674,-50,4,2,1,30,0,0
43903,-50,4,2,1,70,0,0
43924,-50,4,2,1,30,0,0
44153,-50,4,2,1,70,0,0
44340,-50,4,2,1,30,0,0
44736,-50,4,2,1,70,0,0
45653,-200,4,2,1,70,0,0
46153,-200,4,2,1,65,0,0
48153,-200,4,2,2,65,0,0
48236,-200,4,2,1,65,0,0
48319,-200,4,2,1,70,0,0
48903,-200,4,2,1,5,0,0
48986,-50,4,2,1,54,0,0
49069,-50,4,2,1,56,0,0
49153,-50,4,2,1,58,0,0
49236,-50,4,2,1,60,0,0
49319,-50,4,2,1,62,0,0
49403,-50,4,2,1,64,0,0
49486,-50,4,2,1,66,0,0
49569,-50,4,2,1,68,0,0
49653,-100,4,2,1,70,0,0
50986,-200,4,2,1,70,0,0
51486,-200,4,2,1,65,0,0
52986,-200,4,2,1,70,0,0
64319,-200,4,2,1,50,0,0
66986,-200,4,2,1,55,0,0
68986,-200,4,2,1,60,0,0
70653,-200,4,2,1,65,0,0
71653,-200,4,2,1,70,0,0
72819,-200,4,2,1,60,0,0
73319,-200,4,2,1,50,0,0
73653,-200,4,2,2,50,0,0
73819,-200,4,2,1,60,0,0
74319,-200,4,2,1,70,0,0
74486,-100,4,2,1,70,0,0
74736,-100,4,2,1,75,0,0
74986,-50,4,2,1,80,0,0
75153,-50,4,2,1,5,0,0
75236,-50,4,2,1,80,0,0
75403,-50,4,2,1,5,0,0
75486,-50,4,2,1,80,0,0
75653,-50,4,2,1,5,0,0
75736,-50,4,2,1,80,0,0
75903,-50,4,2,1,5,0,0
75986,-200,4,2,1,60,0,0
76236,-200,4,2,1,5,0,0
76319,-50,4,2,1,80,0,0
76486,-50,4,2,1,5,0,0
76569,-50,4,2,1,80,0,0
76736,-50,4,2,1,5,0,0
76819,-50,4,2,1,80,0,0
76986,-50,4,2,1,5,0,0
77069,-50,4,2,1,80,0,0
77236,-50,4,2,1,5,0,0
77319,-100,4,2,1,60,0,0
77403,-100,4,2,1,5,0,0
77486,-100,4,2,1,60,0,0
77569,-100,4,2,1,5,0,0
77653,-50,4,2,1,80,0,0
77819,-50,4,2,1,5,0,0
77903,-50,4,2,1,80,0,0
78069,-50,4,2,1,5,0,0
78153,-50,4,2,1,80,0,0
78319,-50,4,2,1,5,0,0
78403,-50,4,2,1,80,0,0
78569,-50,4,2,1,5,0,0
78653,-200,4,2,1,60,0,0
78903,-200,4,2,1,5,0,0
78986,-50,4,2,1,80,0,0
79153,-50,4,2,1,5,0,0
79236,-50,4,2,1,80,0,0
79403,-50,4,2,1,5,0,0
79486,-50,4,2,1,80,0,0
79653,-50,4,2,1,5,0,0
79736,-50,4,2,1,80,0,0
79903,-50,4,2,1,5,0,0
79986,-100,4,2,1,60,0,0
80069,-100,4,2,1,65,0,0
80153,-100,4,2,1,70,0,0
80236,-100,4,2,1,75,0,0
80319,-50,4,2,1,80,0,0
81319,-200,4,2,1,60,0,0
81653,-50,4,2,1,80,0,0
82653,-100,4,2,1,60,0,0
82986,-100,4,2,1,50,0,0
83319,-100,4,2,1,55,0,0
83653,-100,4,2,1,60,0,0
83986,-100,4,2,1,65,0,0
84319,-100,4,2,1,70,0,0
84653,-100,4,2,1,75,0,0
84986,-100,4,2,1,80,0,0
85319,-100,4,2,1,85,0,0
85653,-100,4,2,1,90,0,0
86153,-66.6666666666667,4,2,1,90,0,0
86653,-100,4,2,1,90,0,0
86674,-100,4,2,1,40,0,0
86986,-100,4,2,1,90,0,0
88319,-200,4,2,1,70,0,0
90819,-200,4,2,2,70,0,0
90903,-200,4,2,1,70,0,0
90986,-100,4,2,1,90,0,0
91319,-66.6666666666667,4,2,1,90,0,0
91819,-100,4,2,1,90,0,0
92403,-100,4,2,1,5,0,0
92569,-83.3333333333333,4,2,1,90,0,0
92653,-83.3333333333333,4,2,1,5,0,0
92819,-71.4285714285714,4,2,1,90,0,0
92903,-71.4285714285714,4,2,1,5,0,0
93069,-62.5,4,2,1,90,0,0
93153,-62.5,4,2,1,5,0,0
93319,-62.5,4,2,1,90,0,0
93653,-200,4,2,1,70,0,0
94153,-200,4,2,1,75,0,0
94653,-200,4,2,1,80,0,0
95153,-200,4,2,1,85,0,0
95653,-200,4,2,1,90,0,0
96319,-100,4,2,1,95,0,0
105653,-100,4,2,1,70,0,0
106319,-100,4,2,1,75,0,0
106986,-100,4,2,1,80,0,0
107986,-100,4,2,1,90,0,0
108319,-100,4,2,2,90,0,0
108403,-100,4,2,1,90,0,0
112319,-100,4,2,1,65,0,0
113319,-100,4,2,1,70,0,0
114319,-100,4,2,1,75,0,0
114986,-200,4,2,1,80,0,0
115319,-133.333333333333,4,2,1,80,0,0
115653,-100,4,2,1,80,0,0
117653,-66.6666666666667,4,2,1,85,0,0
117986,-66.6666666666667,4,2,1,5,0,0

[Colours]
Combo1 : 247,51,51
Combo2 : 255,128,255
Combo3 : 0,128,255
Combo4 : 247,124,51

[HitObjects]
40,89,320,6,0,L|58:184,1,97.4999964237214,4|0,0:0|0:0,0:0:0:0:
125,41,819,2,0,L|39:88,1,97.4999964237214,0|0,0:0|0:0,0:0:0:0:
196,107,1319,2,0,L|124:40,1,97.4999964237214,0|0,0:0|0:0,0:0:0:0:
154,195,1818,2,0,L|195:106,1,97.4999964237214,0|0,0:0|0:0,0:0:0:0:
57,183,2319,2,0,L|153:194,1,97.4999964237214,0|0,0:0|0:0,0:0:0:0:
153,194,2819,1,0,0:0:0:0:
333,274,2986,6,0,L|314:369,1,97.4999964237214,0|0,0:0|0:0,0:0:0:0:
248,226,3486,2,0,L|333:273,1,97.4999964237214,0|0,0:0|0:0,0:0:0:0:
177,292,3986,2,0,L|248:225,1,97.4999964237214,0|0,0:0|0:0,0:0:0:0:
219,380,4486,2,0,L|177:291,1,97.4999964237214,0|0,0:0|0:0,0:0:0:0:
316,368,4986,2,0,L|219:379,1,97.4999964237214,0|0,0:0|0:0,0:0:0:0:
220,379,5486,1,0,0:0:0:0:
230,126,5653,38,0,P|219:79|201:34,1,97.4999964237214,2|0,0:0|0:0,0:0:0:0:
103,33,6153,2,0,P|152:30|201:34,1,97.4999964237214,0|0,0:0|0:0,0:0:0:0:
150,183,6653,2,0,P|191:157|229:126,1,97.4999964237214,0|0,0:0|0:0,0:0:0:0:
103,33,7153,2,0,P|84:78|72:125,1,97.4999964237214,0|0,0:0|0:0,0:0:0:0:
150,183,7653,2,0,P|109:156|71:125,1,97.4999964237214,0|0,0:0|0:0,0:0:0:0:
71,125,8153,1,0,0:0:0:0:
208,327,8319,6,0,P|219:280|237:235,1,97.4999964237214,0|0,0:0|0:0,0:0:0:0:
335,234,8819,2,0,P|286:231|237:235,1,97.4999964237214,0|0,0:0|0:0,0:0:0:0:
288,384,9319,2,0,P|247:358|209:327,1,97.4999964237214,0|0,0:0|0:0,0:0:0:0:
335,234,9819,1,0,0:0:0:0:
366,326,9986,1,0,0:0:0:0:
366,326,10153,6,0,L|430:337,1,64.9999976158143,0|0,1:0|0:0,0:0:0:0:
428,183,10319,2,0,L|235:213,1,194.999992847443,8|0,0:0|0:0,0:0:0:0:
162,276,10653,5,8,0:0:0:0:
137,186,10736,1,0,0:0:0:0:
138,275,10819,37,8,0:0:0:0:
113,185,10902,1,0,0:0:0:0:
88,94,10986,22,0,P|122:61|169:54,1,97.4999964237214,4|0,0:0|0:0,0:0:0:0:
256,192,11486,2,0,P|234:149|242:101,1,97.4999964237214,0|0,0:0|0:0,0:0:0:0:
462,297,11986,2,0,P|414:304|372:281,1,97.4999964237214,0|0,0:0|0:0,0:0:0:0:
389,114,12486,2,0,P|381:161|346:194,1,97.4999964237214,0|0,0:0|0:0,0:0:0:0:
192,126,12986,2,0,P|234:148|255:191,1,97.4999964237214,0|0,0:0|0:0,0:0:0:0:
255,191,13486,1,0,0:0:0:0:
423,94,13653,6,0,P|389:61|342:54,1,97.4999964237214,2|0,0:0|0:0,0:0:0:0:
255,191,14153,2,0,P|276:148|268:100,1,97.4999964237214,0|0,0:0|0:0,0:0:0:0:
50,297,14653,2,0,P|97:304|139:281,1,97.4999964237214,0|0,0:0|0:0,0:0:0:0:
123,114,15153,2,0,P|130:161|165:194,1,97.4999964237214,0|0,0:0|0:0,0:0:0:0:
318,125,15653,1,0,0:0:0:0:
254,190,15819,5,0,1:0:0:0:
275,275,15903,1,0,0:0:0:0:
234,178,15986,5,0,1:0:0:0:
257,291,16069,1,0,1:0:0:0:
152,252,16236,6,0,L|88:268,1,64.9999976158143,0|0,1:0|0:0,0:0:0:0:
497,327,16653,5,4,0:0:0:0:
256,192,16736,12,0,20153,0:0:0:0:
497,327,20319,6,0,P|437:275|360:290,1,162.499994039536,2|0,0:0|0:0,0:0:0:0:
305,359,20819,6,0,L|241:347,1,64.9999976158143,0|0,1:0|0:0,0:0:0:0:
23,287,20986,2,0,L|215:253,1,194.999992847443,8|0,0:0|0:0,0:0:0:0:
310,254,21319,37,0,1:0:0:0:
335,164,21402,1,0,1:0:0:0:
334,253,21485,5,0,1:0:0:0:
359,163,21568,1,0,1:0:0:0:
383,72,21653,5,0,1:0:0:0:
383,72,26986,54,0,L|267:94,1,97.4999964237214,2|0,0:0|0:0,0:0:0:0:
287,90,27319,6,0,L|403:112,1,116.999992137909,0|0,0:0|0:0,0:0:0:0:
401,111,27653,38,0,L|261:137,1,136.499990827561
266,136,27986,6,0,L|444:169,1,155.999994277954,0|0,0:0|0:0,0:0:0:0:
419,165,28319,38,0,L|240:198,1,175.499988206864
246,197,28653,6,0,L|460:237,1,194.999992847443,0|0,0:0|0:0,0:0:0:0:
437,233,28986,38,0,L|222:273,1,214.499998678207
226,272,29319,38,0,L|344:294,1,77.9999947586062
445,257,29486,1,0,0:0:0:0:
441,245,29569,1,0,0:0:0:0:
437,233,29653,37,0,0:0:0:0:
441,214,29736,1,0,0:0:0:0:
445,195,29819,1,0,0:0:0:0:
449,175,29903,1,0,0:0:0:0:
366,142,29986,5,0,0:0:0:0:
360,172,30070,1,0,0:0:0:0:
354,200,30153,1,0,0:0:0:0:
348,229,30236,1,0,0:0:0:0:
260,223,30319,37,0,0:0:0:0:
269,179,30402,1,0,0:0:0:0:
278,137,30485,1,0,0:0:0:0:
287,92,30569,1,0,0:0:0:0:
214,18,30653,5,0,0:0:0:0:
200,86,30737,1,0,0:0:0:0:
187,149,30820,1,0,0:0:0:0:
173,215,30903,1,0,0:0:0:0:
98,271,30986,5,0,0:0:0:0:
256,192,31069,12,0,32153,0:0:0:0:
26,360,32319,6,0,B|41:279|41:279|68:240|68:240|86:144,1,227.49999165535,4|0,0:0|0:0,0:0:0:0:
2,31,32986,6,0,L|14:94,26,64.9999976158143,8|0|0|0|0|0|0|0|0|0|0|0|0|0|0|0|0|0|0|0|0|0|0|0|0|0|0,0:0|0:0|0:0|0:0|0:0|0:0|0:0|0:0|0:0|0:0|0:0|0:0|0:0|0:0|0:0|0:0|0:0|0:0|0:0|0:0|0:0|0:0|0:0|0:0|0:0|0:0|0:0,0:0:0:0:
78,0,34153,6,0,L|99:105,1,97.5000001430512,0|0,1:0|0:0,0:0:0:0:
195,290,34319,2,0,L|214:194,1,97.5000001430512,8|0,0:0|0:0,0:0:0:0:
249,26,34486,37,0,1:0:0:0:
344,51,34569,1,0,1:0:0:0:
231,41,34653,5,0,0:0:0:0:
349,72,34736,1,0,1:0:0:0:
493,232,34903,5,0,1:0:0:0:
409,285,34986,2,0,B|316:301|341:248|253:263,1,162.499994039536,4|0,0:0|0:0,0:0:0:0:
181,328,35486,2,0,L|190:356,1,16.2499994039536,2|0,1:2|0:0,0:0:0:0:
47,184,35653,6,0,B|140:199|115:146|203:161,1,162.499994039536,8|0,0:0|0:0,0:0:0:0:
276,226,36153,1,2,1:2:0:0:
271,241,36236,1,2,0:0:0:0:
500,169,36319,38,0,B|407:184|432:131|344:146,1,162.499994039536,4|0,0:0|0:0,0:0:0:0:
271,211,36819,1,2,1:2:0:0:
276,226,36902,1,2,1:2:0:0:
137,89,36986,6,0,B|212:104|187:51|275:66,1,129.999995231629,8|0,0:0|0:0,0:0:0:0:
344,113,37403,1,0,0:0:0:0:
348,131,37486,2,0,L|337:176,1,32.4999988079071
246,322,37653,38,0,B|195:299|195:299|165:194|165:194|193:137,1,227.49999165535,4|0,0:0|0:0,0:0:0:0:
280,28,38319,22,0,L|267:92,26,64.9999976158143,8|0|0|0|0|0|0|0|0|0|0|0|0|0|0|0|0|0|0|0|0|0|0|0|0|0|0,0:0|0:0|0:0|0:0|0:0|0:0|0:0|0:0|0:0|0:0|0:0|0:0|0:0|0:0|0:0|0:0|0:0|0:0|0:0|0:0|0:0|0:0|0:0|0:0|0:0|0:0|0:0,0:0:0:0:
347,144,39486,6,0,L|366:239,1,97.5000001430512,0|0,1:0|0:0,0:0:0:0:
96,358,39653,2,0,L|152:60,1,292.500000429154,8|0,0:0|0:0,0:0:0:0:
219,1,39986,37,0,1:0:0:0:
244,91,40069,1,0,1:0:0:0:
243,2,40152,5,0,1:0:0:0:
268,92,40235,1,0,1:0:0:0:
292,183,40319,6,0,P|358:248|447:222,1,194.999992847443,4|2,0:0|0:0,0:0:0:0:
150,70,40986,6,0,P|72:58|15:112,1,162.499994039536,8|0,0:0|0:0,0:0:0:0:
36,199,41486,2,0,L|28:239,1,32.4999988079071,0|0,1:0|0:0,0:0:0:0:
308,139,41653,38,0,P|295:61|226:24,1,162.499994039536,4|0,0:0|0:0,0:0:0:0:
150,70,42153,2,0,L|142:110,1,32.4999988079071,0|0,1:0|0:0,0:0:0:0:
292,311,42319,6,0,P|361:274|375:197,1,162.499994039536,10|0,0:0|0:0,0:0:0:0:
308,139,42819,1,2,1:2:0:0:
289,145,42903,1,0,1:0:0:0:
217,202,42986,6,0,L|153:188,10,64.9999976158143,4|0|0|0|0|0|0|0|0|0|0,0:0|0:0|0:0|0:0|0:0|0:0|0:0|0:0|0:0|0:0|0:0,0:0:0:0:
217,202,43486,1,2,0:0:0:0:
421,75,43653,2,0,B|341:32|341:32|375:197,1,259.999990463257,0|0,1:0|0:0,0:0:0:0:
512,313,43903,2,0,B|432:356|432:356|466:190,1,259.999990463257,8|0,0:0|0:0,0:0:0:0:
466,190,44153,1,0,0:0:0:0:
251,50,44319,6,0,L|187:63,8,64.9999976158143,4|0|0|0|0|0|0|0|0,0:0|0:0|0:0|0:0|0:0|0:0|0:0|0:0|0:0,0:0:0:0:
341,79,44736,1,0,0:0:0:0:
404,145,44819,1,8,1:2:0:0:
325,87,44903,37,0,0:0:0:0:
399,162,44986,2,0,B|413:197|413:197|388:286,1,129.999995231629,8|0,0:0|0:0,0:0:0:0:
183,323,45153,1,0,0:0:0:0:
101,284,45236,2,0,B|87:249|87:249|111:159,1,129.999995231629,0|0,0:0|0:0,0:0:0:0:
175,75,45403,1,0,0:0:0:0:
181,90,45486,1,0,0:0:0:0:
187,105,45570,1,0,0:0:0:0:
111,160,45653,22,0,P|82:103|110:0,1,162.499994039536,4|0,0:0|0:0,0:0:0:0:
184,53,46153,1,0,1:0:0:0:
175,75,46236,1,2,0:0:0:0:
192,262,46319,6,0,P|128:272|38:214,1,162.499994039536,8|2,0:0|0:0,0:0:0:0:
111,160,46819,2,0,L|144:184,1,32.4999988079071,2|0,0:0|0:0,0:0:0:0:
312,217,46986,38,0,P|302:280|218:348,1,162.499994039536,4|0,0:0|0:0,0:0:0:0:
189,262,47486,1,2,1:2:0:0:
209,250,47569,1,2,0:0:0:0:
305,87,47653,6,0,P|363:116|396:171,1,129.999995231629,8|2,0:0|0:0,0:0:0:0:
312,217,48069,1,0,0:0:0:0:
306,195,48153,1,2,0:0:0:0:
300,173,48236,1,0,0:0:0:0:
452,88,48319,38,0,B|371:73|371:73|332:46|332:46|236:28,1,227.49999165535,4|0,0:0|0:0,0:0:0:0:
138,134,48986,38,0,L|201:120,14,64.9999976158143,10|0|0|0|0|0|0|0|2|0|0|0|0|0|0,0:0|0:0|0:0|0:0|0:0|0:0|0:0|0:0|0:0|0:0|0:0|0:0|0:0|0:0|0:0,0:0:0:0:
76,202,49653,37,2,0:0:0:0:
81,220,49736,1,0,0:0:0:0:
86,238,49819,1,2,0:0:0:0:
92,256,49903,1,0,0:0:0:0:
98,274,49986,1,2,0:0:0:0:
104,292,50069,1,0,0:0:0:0:
110,310,50153,1,2,0:0:0:0:
115,328,50236,1,0,0:0:0:0:
121,346,50319,6,0,L|144:262,1,64.9999976158143,2|0,0:0|0:0,0:0:0:0:
291,145,50486,2,0,L|285:80,1,64.9999976158143,2|0,1:2|0:0,0:0:0:0:
201,120,50653,37,2,1:2:0:0:
111,95,50736,1,8,0:0:0:0:
200,96,50819,5,2,1:2:0:0:
110,71,50902,1,8,0:0:0:0:
19,46,50986,6,0,P|35:141|31:239,1,194.999992847443,4|2,0:0|0:0,0:0:0:0:
326,353,51653,6,0,P|316:272|319:191,1,162.499994039536,8|0,0:0|0:0,0:0:0:0:
380,125,52153,2,0,L|373:93,1,32.4999988079071,0|0,1:0|0:0,0:0:0:0:
116,97,52319,38,0,P|125:177|122:258,1,162.499994039536,4|0,0:0|0:0,0:0:0:0:
62,325,52819,2,0,L|68:356,1,32.4999988079071,0|0,1:0|0:0,0:0:0:0:
227,225,52986,6,0,P|210:113|221:1,1,227.49999165535,10|0,0:0|0:0,0:0:0:0:
303,55,53653,37,0,1:0:0:0:
303,55,64319,54,0,L|339:246,1,194.999992847443,0|0,1:0|0:0,0:0:0:0:
358,338,64986,1,8,0:0:0:0:
206,59,65486,6,0,L|242:250,1,194.999992847443,0|0,1:0|0:0,0:0:0:0:
261,342,66153,1,0,1:0:0:0:
119,212,66319,38,0,L|130:148,1,64.9999976158143,8|0,0:0|1:0,0:0:0:0:
325,72,66653,1,0,1:0:0:0:
322,87,66736,1,0,1:0:0:0:
319,103,66819,1,0,0:0:0:0:
316,119,66902,1,0,1:0:0:0:
313,135,66986,6,0,L|121:98,1,194.999992847443,2|2,1:2|1:2,0:0:0:0:
30,80,67653,1,8,0:0:0:0:
309,232,68153,37,2,1:2:0:0:
309,232,68319,2,0,L|169:205,1,129.999995231629,2|0,1:2|0:0,0:0:0:0:
46,306,68819,1,0,1:0:0:0:
49,321,68902,1,0,1:0:0:0:
52,337,68986,2,0,L|191:310,1,129.999995231629,10|0,0:0|0:0,0:0:0:0:
282,326,69486,1,2,0:0:0:0:
256,192,69653,12,2,73486,1:2:0:0:
282,326,73653,6,0,L|336:38,1,292.499989271164,2|0,0:0|0:0,0:0:0:0:
420,60,74486,6,0,L|485:54,1,64.9999976158143,0|2,1:0|0:0,0:0:0:0:
427,149,74653,5,0,1:0:0:0:
410,241,74736,1,8,0:0:0:0:
403,152,74819,37,2,1:2:0:0:
386,244,74902,1,0,1:0:0:0:
369,336,74986,6,0,B|263:349|263:349|216:336|216:336|112:348,1,259.999990463257,4|0,0:0|0:0,0:0:0:0:
0,290,75236,2,0,B|106:303|106:303|153:290|153:290|256:302,1,259.999990463257,4|0,0:0|0:0,0:0:0:0:
366,247,75486,2,0,B|260:260|260:260|213:247|213:247|109:259,1,259.999990463257,4|0,0:0|0:0,0:0:0:0:
3,201,75736,2,0,B|109:214|109:214|156:201|156:201|259:213,1,259.999990463257,4|0,0:0|0:0,0:0:0:0:
379,155,75986,22,0,L|270:169,1,97.4999964237214
99,129,76319,22,0,B|168:21|168:21|284:84,1,259.999990463257,4|0,0:0|0:0,0:0:0:0:
147,321,76569,2,0,B|67:222|67:222|162:131,1,259.999990463257,4|0,0:0|0:0,0:0:0:0:
345,335,76819,2,0,B|226:381|226:381|169:261,1,259.999990463257,4|0,0:0|0:0,0:0:0:0:
420,150,77069,2,0,B|426:278|426:278|295:295,1,259.999990463257,4|0,0:0|0:0,0:0:0:0:
266,23,77319,22,0,L|328:39,1,64.9999976158143
256,192,77486,2,0,L|193:208,1,64.9999976158143,0|0,0:0|0:0,0:0:0:0:
20,75,77653,22,0,B|89:52|89:52|141:132|53:219,1,259.999990463257,4|0,0:0|0:0,0:0:0:0:
227,352,77903,2,0,B|158:375|158:375|106:295|193:207,1,259.999990463257,4|0,0:0|0:0,0:0:0:0:
266,23,78153,2,0,B|335:0|335:0|387:80|299:167,1,259.999990463257,4|0,0:0|0:0,0:0:0:0:
473,300,78403,2,0,B|404:323|404:323|352:243|439:155,1,259.999990463257,4|0,0:0|0:0,0:0:0:0:
504,66,78653,22,0,P|509:111|482:153,1,97.4999964237214
398,179,78986,22,0,B|312:157|312:157|277:128|277:128|233:142|233:142|155:124,1,259.999990463257,4|0,0:0|0:0,0:0:0:0:
27,224,79236,2,0,B|113:202|113:202|148:173|148:173|192:187|192:187|269:169,1,259.999990463257,4|0,0:0|0:0,0:0:0:0:
399,270,79486,2,0,B|313:248|313:248|278:219|278:219|234:233|234:233|156:215,1,259.999990463257,4|0,0:0|0:0,0:0:0:0:
28,315,79736,2,0,B|114:293|114:293|149:264|149:264|193:278|193:278|270:260,1,259.999990463257,4|0,0:0|0:0,0:0:0:0:
429,251,79986,21,0,0:0:0:0:
432,231,80069,1,0,0:0:0:0:
436,211,80153,1,0,0:0:0:0:
440,192,80236,1,0,0:0:0:0:
444,173,80319,22,0,B|415:113|335:128|335:128|291:186|216:163,1,259.999990463257,4|0,0:0|0:0,0:0:0:0:
32,76,80569,2,0,B|60:135|140:120|140:120|184:62|259:85,1,259.999990463257,4|0,0:0|0:0,0:0:0:0:
385,10,80819,2,0,B|322:-11|276:55|276:55|286:127|217:163,1,259.999990463257,4|0,0:0|0:0,0:0:0:0:
91,238,81069,2,0,B|153:259|199:192|199:192|189:120|258:84,1,259.999990463257,4|0,0:0|0:0,0:0:0:0:
373,100,81319,22,0,P|420:95|457:64,1,97.4999964237214,2|0,0:0|0:0,0:0:0:0:
384,10,81653,22,0,P|464:97|389:190,1,259.999990463257,4|0,0:0|0:3,0:0:0:0:
215,138,81903,2,0,P|323:89|388:188,1,259.999990463257,4|0,0:0|0:0,0:0:0:0:
286,339,82153,2,0,P|272:221|387:189,1,259.999990463257,4|0,0:0|0:0,0:0:0:0:
498,332,82403,2,0,P|381:308|387:189,1,259.999990463257,4|0,0:0|0:0,0:0:0:0:
505,217,82653,22,0,P|484:242|454:251,1,64.9999976158143,2|0,0:0|0:0,0:0:0:0:
286,339,82819,2,0,P|254:334|230:312,1,64.9999976158143,0|0,0:0|0:0,0:0:0:0:
173,127,82986,37,2,0:0:0:0:
157,120,83069,1,0,0:0:0:0:
139,116,83152,1,2,0:0:0:0:
120,116,83235,1,0,0:0:0:0:
102,122,83319,1,2,0:0:0:0:
86,131,83402,1,0,0:0:0:0:
73,144,83485,1,2,0:0:0:0:
63,159,83569,1,0,0:0:0:0:
135,196,83653,5,2,0:0:0:0:
159,184,83736,1,0,0:0:0:0:
186,178,83819,1,2,0:0:0:0:
214,178,83902,1,0,0:0:0:0:
241,187,83986,1,2,0:0:0:0:
265,200,84069,1,0,0:0:0:0:
285,220,84152,1,2,0:0:0:0:
300,242,84236,1,0,0:0:0:0:
253,323,84319,5,2,0:0:0:0:
289,341,84402,1,0,0:0:0:0:
330,350,84485,1,2,0:0:0:0:
372,350,84568,1,0,0:0:0:0:
412,336,84652,1,2,0:0:0:0:
448,317,84735,1,0,0:0:0:0:
478,287,84818,1,2,0:0:0:0:
501,254,84902,1,0,0:0:0:0:
439,178,84986,6,0,L|374:183,1,64.9999976158143,2|0,1:2|0:0,0:0:0:0:
177,290,85153,2,0,L|112:284,1,64.9999976158143,2|0,1:2|0:0,0:0:0:0:
159,199,85320,37,2,1:2:0:0:
142,107,85403,1,8,0:0:0:0:
135,196,85486,5,2,1:2:0:0:
118,104,85569,1,8,0:0:0:0:
101,12,85653,37,4,0:0:0:0:
101,12,85986,2,0,L|90:79,1,64.9999976158143,8|0,0:0|0:0,0:0:0:0:
159,199,86153,6,0,B|225:137|225:137|15:178,1,292.500000429154,0|0,0:0|0:0,0:0:0:0:
26,175,86486,1,0,1:0:0:0:
205,317,86653,38,0,P|268:248|358:271,1,194.999992847443,8|0,0:0|0:0,0:0:0:0:
396,347,86986,5,0,1:0:0:0:
396,347,87319,2,0,L|425:220,1,129.999995231629,8|0,0:0|0:0,0:0:0:0:
381,132,87569,1,0,1:0:0:0:
457,81,87653,37,0,0:0:0:0:
462,62,87736,1,0,0:0:0:0:
378,18,87819,1,0,1:0:0:0:
373,37,87902,1,0,0:0:0:0:
292,86,87986,5,8,0:0:0:0:
233,59,88069,1,0,0:0:0:0:
170,67,88152,1,0,0:0:0:0:
120,107,88235,1,0,0:0:0:0:
99,168,88319,6,0,L|122:296,1,129.999995231629,4|0,0:0|0:0,0:0:0:0:
209,343,88819,1,0,0:0:0:0:
205,357,88903,1,0,0:0:0:0:
208,192,88986,6,0,L|231:319,1,129.999995231629,8|0,0:0|0:0,0:0:0:0:
306,369,89486,2,0,L|315:335,1,32.4999988079071,2|0,0:0|0:0,0:0:0:0:
458,73,89653,38,0,L|434:200,1,129.999995231629,4|0,0:0|0:0,0:0:0:0:
348,248,90152,1,0,0:0:0:0:
352,262,90236,1,0,0:0:0:0:
349,96,90319,6,0,L|325:223,1,129.999995231629,8|0,0:0|0:0,0:0:0:0:
245,283,90736,1,0,0:0:0:0:
251,273,90820,2,0,L|242:239,1,32.4999988079071,2|0,0:0|0:0,0:0:0:0:
144,38,90986,5,4,0:0:0:0:
144,38,91319,6,0,B|120:160|120:160|107:175|107:175|81:321,1,292.500000429154,8|0,0:0|0:0,0:0:0:0:
81,321,91653,1,0,0:0:0:0:
42,110,91819,38,0,L|28:46,1,64.9999976158143,0|0,1:0|0:0,0:0:0:0:
293,176,91986,2,0,P|255:226|193:223,1,129.999995231629,8|0,0:0|0:0,0:0:0:0:
187,211,92208,1,0,0:0:0:0:
181,199,92264,1,0,0:0:0:0:
175,187,92319,22,0,L|111:175,1,64.9999976158143,2|0,0:0|0:0,0:0:0:0:
289,306,92569,6,0,L|365:292,1,77.9999947586062,2|0,0:0|0:0,0:0:0:0:
40,230,92819,6,0,L|23:319,1,90.9999938850405,2|0,0:0|0:0,0:0:0:0:
397,208,93069,6,0,L|378:104,1,103.999996185303,2|0,0:0|0:0,0:0:0:0:
378,105,93319,5,10,0:0:0:0:
349,48,93402,1,0,0:0:0:0:
293,16,93485,1,2,0:0:0:0:
229,21,93568,1,0,0:0:0:0:
178,60,93653,6,0,L|212:251,1,194.999992847443,0|0,1:0|0:0,0:0:0:0:
246,348,94319,2,0,L|280:156,1,194.999992847443,0|0,1:0|0:0,0:0:0:0:
314,60,94986,2,0,L|348:252,1,194.999992847443,0|0,1:0|0:0,0:0:0:0:
382,348,95653,2,0,L|416:156,1,194.999992847443,0|0,1:0|0:0,0:0:0:0:
449,59,96319,6,0,P|361:30|289:90,1,194.999992847443,6|0,0:0|0:0,0:0:0:0:
298,119,96653,2,0,P|237:98|173:95,1,129.999995231629,8|2,0:0|0:0,0:0:0:0:
94,144,96903,1,0,0:0:0:0:
88,162,96986,1,0,0:0:0:0:
155,360,97153,1,0,1:0:0:0:
40,289,97319,2,0,P|101:267|165:264,1,129.999995231629,10|0,0:0|0:0,0:0:0:0:
244,313,97569,1,0,0:0:0:0:
250,331,97652,5,0,1:0:0:0:
298,119,97819,1,0,0:0:0:0:
341,300,97986,1,8,0:0:0:0:
347,318,98069,2,0,B|383:262|383:262|368:199,1,129.999995231629,0|0,0:0|1:0,0:0:0:0:
279,99,98319,2,0,P|325:57|389:59,1,129.999995231629,2|0,0:0|1:0,0:0:0:0:
475,29,98569,1,0,0:0:0:0:
482,48,98653,2,0,L|468:111,1,64.9999976158143,8|0,0:0|0:0,0:0:0:0:
336,197,98819,1,2,0:0:0:0:
485,371,98986,38,0,B|468:242|468:242|427:191,1,194.999992847443,6|0,0:0|0:0,0:0:0:0:
415,207,99319,2,0,L|440:79,1,129.999995231629,8|2,0:0|0:0,0:0:0:0:
374,11,99569,1,0,0:0:0:0:
355,16,99653,1,0,0:0:0:0:
291,233,99819,1,0,1:0:0:0:
244,13,99986,2,0,L|269:140,1,129.999995231629,10|0,0:0|0:0,0:0:0:0:
201,203,100236,1,0,0:0:0:0:
182,198,100320,5,0,1:0:0:0:
351,102,100486,1,0,0:0:0:0:
318,333,100653,1,8,0:0:0:0:
312,351,100736,2,0,B|276:295|276:295|290:232,1,129.999995231629,0|0,0:0|1:0,0:0:0:0:
379,191,100986,1,2,0:0:0:0:
397,185,101069,1,0,0:0:0:0:
416,180,101153,2,0,L|399:242,1,64.9999976158143,0|2,1:0|0:0,0:0:0:0:
173,310,101319,1,8,0:0:0:0:
269,140,101486,1,2,0:0:0:0:
456,363,101653,38,0,B|472:253|399:291|415:179,1,194.999992847443,6|2,0:0|0:0,0:0:0:0:
429,165,101986,2,0,P|472:112|462:46,1,129.999995231629,8|2,0:0|0:0,0:0:0:0:
386,18,102236,1,0,0:0:0:0:
370,29,102319,1,0,0:0:0:0:
511,211,102486,1,0,1:0:0:0:
269,140,102653,2,0,P|201:129|149:170,1,129.999995231629,10|0,0:0|0:0,0:0:0:0:
163,250,102903,1,0,0:0:0:0:
180,259,102986,5,0,1:0:0:0:
352,114,103153,1,0,0:0:0:0:
147,32,103319,1,8,0:0:0:0:
132,45,103403,2,0,B|117:107|117:107|153:163,1,129.999995231629,0|0,0:0|1:0,0:0:0:0:
180,259,103653,2,0,P|111:260|65:212,1,129.999995231629,2|0,0:0|1:0,0:0:0:0:
8,126,103903,1,0,0:0:0:0:
18,108,103986,2,0,L|93:118,1,64.9999976158143,8|0,0:0|0:0,0:0:0:0:
234,35,104153,1,2,0:0:0:0:
245,335,104319,38,0,P|196:251|190:154,1,194.999992847443,6|2,0:0|0:0,0:0:0:0:
202,138,104653,2,0,P|255:174|318:187,1,129.999995231629,8|2,0:0|0:0,0:0:0:0:
397,146,104903,1,0,0:0:0:0:
404,127,104986,1,0,0:0:0:0:
234,35,105153,1,0,1:0:0:0:
436,231,105319,2,0,P|382:267|319:280,1,129.999995231629,10|0,0:0|0:0,0:0:0:0:
241,238,105569,1,0,0:0:0:0:
234,219,105652,5,0,1:0:0:0:
353,25,105819,1,2,0:0:0:0:
153,133,105986,1,8,0:0:0:0:
134,126,106069,2,0,B|98:70|98:70|113:8,1,129.999995231629,2|0,0:0|1:0,0:0:0:0:
217,44,106319,1,2,0:0:0:0:
234,35,106403,1,0,1:0:0:0:
252,27,106486,2,0,L|234:106,1,64.9999976158143,8|2,0:0|0:0,0:0:0:0:
109,306,106653,37,0,1:0:0:0:
84,216,106736,1,8,0:0:0:0:
85,305,106819,5,2,1:2:0:0:
60,215,106902,1,8,0:0:0:0:
36,124,106987,5,14,0:0:0:0:
36,124,107819,5,0,1:0:0:0:
203,269,107986,2,0,L|330:296,1,129.999995231629,10|0,0:0|0:0,0:0:0:0:
410,253,108236,1,0,0:0:0:0:
403,234,108319,5,2,1:2:0:0:
172,362,108486,1,0,0:0:0:0:
249,128,108653,1,8,0:0:0:0:
261,117,108736,2,0,B|297:173|297:173|282:235,1,129.999995231629,0|0,0:0|1:0,0:0:0:0:
203,269,108986,2,0,P|157:227|93:229,1,129.999995231629,2|0,0:0|1:0,0:0:0:0:
34,293,109236,1,0,0:0:0:0:
28,311,109319,2,0,L|7:234,1,64.9999976158143,8|0,0:0|0:0,0:0:0:0:
157,131,109486,1,2,0:0:0:0:
276,323,109653,6,0,P|370:337|435:269,1,194.999992847443,6|0,0:0|0:0,0:0:0:0:
425,252,109986,2,0,P|428:191|447:113,1,129.999995231629,8|2,0:0|0:0,0:0:0:0:
497,58,110236,1,0,0:0:0:0:
511,45,110319,1,0,0:0:0:0:
340,176,110486,1,0,1:0:0:0:
189,31,110653,2,0,P|192:92|211:170,1,129.999995231629,10|0,0:0|0:0,0:0:0:0:
261,225,110903,1,0,0:0:0:0:
275,238,110986,37,0,1:0:0:0:
104,107,111153,1,0,0:0:0:0:
302,24,111319,1,8,0:0:0:0:
320,30,111403,2,0,B|356:86|356:86|341:148,1,129.999995231629,0|0,0:0|1:0,0:0:0:0:
261,225,111653,1,2,0:0:0:0:
244,233,111736,1,0,1:0:0:0:
227,241,111819,2,0,L|205:175,1,64.9999976158143,0|2,1:0|0:0,0:0:0:0:
200,9,111986,1,8,0:0:0:0:
97,222,112153,1,2,1:2:0:0:
91,240,112236,1,8,0:0:0:0:
126,326,112319,5,6,1:2:0:0:
256,192,112403,12,0,114819,0:0:0:0:
126,326,114986,38,0,L|158:320,1,32.4999988079071,2|0,1:2|0:0,0:0:0:0:
386,326,115153,2,0,L|353:320,1,32.4999988079071,0|2,1:0|0:0,0:0:0:0:
82,227,115319,6,0,L|128:240,1,48.7500000715256,0|0,1:0|0:0,0:0:0:0:
430,227,115486,2,0,L|383:240,1,48.7500000715256,2|0,1:2|0:0,0:0:0:0:
97,100,115653,38,0,L|137:153,1,64.9999976158143,0|2,1:0|0:0,0:0:0:0:
415,100,115819,2,0,L|375:153,1,64.9999976158143,0|0,1:0|0:0,0:0:0:0:
202,12,115986,6,0,L|190:82,1,64.9999976158143,2|0,1:2|0:0,0:0:0:0:
310,12,116153,2,0,L|322:82,1,64.9999976158143,0|2,1:0|0:0,0:0:0:0:
127,332,116319,37,0,1:0:0:0:
123,313,116402,1,0,1:0:0:0:
119,294,116485,1,2,1:2:0:0:
115,274,116569,1,0,1:0:0:0:
198,241,116652,5,0,1:0:0:0:
204,271,116736,1,2,1:2:0:0:
210,299,116819,1,0,1:1:0:0:
216,328,116902,1,0,1:0:0:0:
304,322,116985,37,2,1:2:0:0:
295,278,117068,1,0,1:0:0:0:
286,236,117151,1,0,0:0:0:0:
277,191,117235,1,2,1:2:0:0:
346,118,117319,5,0,1:0:0:0:
365,207,117402,1,8,0:0:0:0:
369,119,117485,37,2,1:2:0:0:
391,210,117568,1,8,0:0:0:0:
411,301,117653,6,0,B|402:188|402:188|410:168|410:168|395:35|395:35|416:106|473:120,1,390.000000572205,4|0,0:0|0:0,0:0:0:0:
