osu file format v14

[General]
AudioFilename: audio.mp3
AudioLeadIn: 0
PreviewTime: 85653
Countdown: 0
SampleSet: None
StackLeniency: 0.4
Mode: 0
LetterboxInBreaks: 0
WidescreenStoryboard: 0

[Editor]
Bookmarks: 320,21653,26986,32319,35486,53653,64319,69653,74986,85653,96319,112319,117653
DistanceSpacing: 0.3
BeatDivisor: 4
GridSize: 16
TimelineZoom: 2.2

[Metadata]
Title:Yggdrasil (Original Mix)
TitleUnicode:Yggdrasil (Original Mix)
Artist:MYTK
ArtistUnicode:MYTK
Creator:Lulu-
Version:-Tochi's Extreme
Source:
Tags:dubstep drumstep dnb artcore kac2013 voez yamicchi dtm9 nowa rvmathew underdogs lowcombofc newton-
BeatmapID:1730367
BeatmapSetID:554801

[Difficulty]
HPDrainRate:5
CircleSize:3.5
OverallDifficulty:8.8
ApproachRate:9.4
SliderMultiplier:2.09999990463257
SliderTickRate:1

[Events]
//Background and Video events
0,0,"60393234_p0.jpg",0,0
//Break Periods
//Storyboard Layer 0 (Background)
//Storyboard Layer 1 (Fail)
//Storyboard Layer 2 (Pass)
//Storyboard Layer 3 (Foreground)
//Storyboard Sound Samples

[TimingPoints]
320,333.333333333333,4,2,3,50,1,0
320,-142.857142857143,4,2,3,50,0,0
486,-142.857142857143,4,2,3,5,0,0
569,-142.857142857143,4,2,3,50,0,0
736,-142.857142857143,4,2,3,5,0,0
819,-142.857142857143,4,2,3,50,0,0
1236,-142.857142857143,4,2,3,5,0,0
1319,-142.857142857143,4,2,3,50,0,0
1486,-142.857142857143,4,2,3,5,0,0
1569,-142.857142857143,4,2,3,50,0,0
1986,-142.857142857143,4,2,3,5,0,0
2069,-142.857142857143,4,2,3,50,0,0
2236,-142.857142857143,4,2,3,5,0,0
2319,-142.857142857143,4,2,3,50,0,0
3153,-142.857142857143,4,2,3,5,0,0
3236,-142.857142857143,4,2,3,50,0,0
3403,-142.857142857143,4,2,3,5,0,0
3486,-142.857142857143,4,2,3,50,0,0
3903,-142.857142857143,4,2,3,5,0,0
3986,-142.857142857143,4,2,3,50,0,0
4153,-142.857142857143,4,2,3,5,0,0
4236,-142.857142857143,4,2,3,50,0,0
4653,-142.857142857143,4,2,3,5,0,0
4736,-142.857142857143,4,2,3,50,0,0
4903,-142.857142857143,4,2,3,5,0,0
4986,-142.857142857143,4,2,3,50,0,0
5819,-142.857142857143,4,2,3,5,0,0
5903,-142.857142857143,4,2,3,50,0,0
6069,-142.857142857143,4,2,3,5,0,0
6153,-142.857142857143,4,2,3,50,0,0
6569,-142.857142857143,4,2,3,5,0,0
6653,-142.857142857143,4,2,3,50,0,0
6819,-142.857142857143,4,2,3,5,0,0
6903,-142.857142857143,4,2,3,50,0,0
7319,-142.857142857143,4,2,3,5,0,0
7403,-142.857142857143,4,2,3,50,0,0
7569,-142.857142857143,4,2,3,5,0,0
7653,-142.857142857143,4,2,3,50,0,0
8486,-142.857142857143,4,2,3,5,0,0
8569,-142.857142857143,4,2,3,50,0,0
8736,-142.857142857143,4,2,3,5,0,0
8819,-142.857142857143,4,2,3,50,0,0
9236,-142.857142857143,4,2,3,5,0,0
9319,-142.857142857143,4,2,3,50,0,0
9486,-142.857142857143,4,2,3,5,0,0
9569,-142.857142857143,4,2,3,50,0,0
9653,-142.857142857143,4,2,11,50,0,0
10986,-142.857142857143,4,2,3,50,0,0
11153,-142.857142857143,4,2,3,5,0,0
11236,-142.857142857143,4,2,3,50,0,0
11403,-142.857142857143,4,2,3,5,0,0
11486,-142.857142857143,4,2,3,50,0,0
11903,-142.857142857143,4,2,3,5,0,0
11986,-142.857142857143,4,2,3,50,0,0
12153,-142.857142857143,4,2,3,5,0,0
12236,-142.857142857143,4,2,3,50,0,0
12653,-142.857142857143,4,2,3,5,0,0
12736,-142.857142857143,4,2,3,50,0,0
12903,-142.857142857143,4,2,3,5,0,0
12986,-142.857142857143,4,2,3,50,0,0
13819,-142.857142857143,4,2,3,5,0,0
13903,-142.857142857143,4,2,3,50,0,0
14069,-142.857142857143,4,2,3,5,0,0
14153,-142.857142857143,4,2,3,50,0,0
14569,-142.857142857143,4,2,3,5,0,0
14653,-142.857142857143,4,2,3,50,0,0
14819,-142.857142857143,4,2,3,5,0,0
14903,-142.857142857143,4,2,3,50,0,0
15319,-142.857142857143,4,2,3,5,0,0
15403,-142.857142857143,4,2,3,50,0,0
15569,-142.857142857143,4,2,3,5,0,0
15653,-142.857142857143,4,2,3,50,0,0
15819,-142.857142857143,4,2,11,50,0,0
20319,-142.857142857143,4,2,11,20,0,0
20819,-142.857142857143,4,2,11,50,0,0
20986,-100,4,2,11,50,0,0
21653,-166.666666666667,4,2,11,50,0,0
22986,-166.666666666667,4,2,11,5,0,0
23153,-166.666666666667,4,2,11,50,0,0
26153,-125,4,2,11,50,0,0
26986,-250,4,2,11,50,0,0
27236,-250,4,2,11,5,0,0
27319,-250,4,2,11,50,0,0
27569,-250,4,2,11,5,0,0
27653,-166.666666666667,4,2,11,50,0,0
27903,-166.666666666667,4,2,11,5,0,0
27986,-166.666666666667,4,2,11,50,0,0
28236,-166.666666666667,4,2,11,5,0,0
28319,-142.857142857143,4,2,11,50,0,0
28569,-142.857142857143,4,2,11,5,0,0
28653,-142.857142857143,4,2,11,50,0,0
28903,-142.857142857143,4,2,11,5,0,0
28986,-125,4,2,11,50,0,0
29236,-125,4,2,11,5,0,0
29319,-125,4,2,11,50,0,0
32319,-125,4,2,11,70,0,0
32903,-125,4,2,11,5,0,0
32986,-71.4285714285714,4,2,11,70,0,0
34069,-71.4285714285714,4,2,11,5,0,0
34153,-71.4285714285714,4,2,11,70,0,0
34569,-100,4,2,11,70,0,0
34986,-83.3333333333333,4,2,11,70,0,0
36319,-100,4,2,11,70,0,0
37153,-100,4,2,11,5,0,0
37236,-83.3333333333333,4,2,11,70,0,0
37653,-100,4,2,11,70,0,0
40319,-83.3333333333333,4,2,11,70,0,0
40736,-83.3333333333333,4,2,11,5,0,0
40819,-83.3333333333333,4,2,11,70,0,0
41653,-71.4285714285714,4,2,11,70,0,0
42319,-71.4285714285714,4,2,11,30,0,0
42986,-71.4285714285714,4,2,11,70,0,0
43403,-71.4285714285714,4,2,11,5,0,0
43486,-71.4285714285714,4,2,11,70,0,0
43819,-71.4285714285714,4,2,11,5,0,0
43903,-71.4285714285714,4,2,11,70,0,0
44069,-71.4285714285714,4,2,11,5,0,0
44153,-71.4285714285714,4,2,11,70,0,0
45653,-83.3333333333333,4,2,11,70,0,0
46986,-100,4,2,11,70,0,0
47819,-100,4,2,11,5,0,0
47903,-83.3333333333333,4,2,11,70,0,0
51403,-83.3333333333333,4,2,11,5,0,0
51486,-83.3333333333333,4,2,11,70,0,0
52319,-71.4285714285714,4,2,11,70,0,0
53153,-62.5,4,2,11,70,0,0
53653,-200,4,2,11,20,0,0
64319,-333.333333333333,4,2,11,20,0,0
74986,-66.6666666666667,4,2,11,60,0,0
75986,-200,4,2,11,60,0,0
76319,-66.6666666666667,4,2,11,60,0,0
77319,-200,4,2,11,60,0,0
77653,-66.6666666666667,4,2,11,60,0,0
78653,-142.857142857143,4,2,11,60,0,0
78986,-66.6666666666667,4,2,11,60,0,0
80319,-55.5555555555556,4,2,11,60,0,0
81319,-200,4,2,11,60,0,0
81653,-50,4,2,11,60,0,0
82653,-200,4,2,11,60,0,0
82986,-100,4,2,11,60,0,0
85653,-125,4,2,11,75,0,1
85986,-71.4285714285714,4,2,11,75,0,1
86653,-55.5555555555556,4,2,11,75,0,1
86986,-71.4285714285714,4,2,11,75,0,1
87653,-100,4,2,11,75,0,1
87819,-62.5,4,2,11,75,0,1
88319,-83.3333333333333,4,2,11,75,0,0
89653,-100,4,2,11,75,0,0
90611,-100,4,2,11,5,0,0
90653,-83.3333333333333,4,2,11,75,0,0
90986,-83.3333333333333,4,2,11,75,0,1
91319,-71.4285714285714,4,2,11,75,0,1
91986,-55.5555555555556,4,2,11,75,0,1
92319,-71.4285714285714,4,2,11,75,0,1
93653,-83.3333333333333,4,2,11,75,0,0
96319,-83.3333333333333,4,2,11,75,0,1
96403,-83.3333333333333,4,2,11,75,0,0
98319,-100,4,2,11,75,0,0
98569,-125,4,2,11,75,0,0
98819,-166.666666666667,4,2,11,75,0,0
98986,-83.3333333333334,4,2,11,75,0,0
101653,-71.4285714285714,4,2,11,75,0,0
103653,-83.3333333333333,4,2,11,75,0,0
103903,-100,4,2,11,75,0,0
104153,-125,4,2,11,75,0,0
104319,-62.5,4,2,11,75,0,0
107986,-125,4,2,11,75,0,0
108319,-71.4285714285714,4,2,11,75,0,0
108986,-83.3333333333333,4,2,11,75,0,0
109236,-100,4,2,11,75,0,0
109486,-125,4,2,11,75,0,0
109653,-71.4285714285714,4,2,11,75,0,0
117653,-100,4,2,11,75,0,0
117986,-100,4,2,11,50,0,0

[Colours]
Combo1 : 247,51,51
Combo2 : 255,128,255
Combo3 : 0,128,255
Combo4 : 247,124,51

[HitObjects]
466,129,320,6,0,P|424:129|390:107,1,73.4999944190981,0|0,1:0|0:0,0:0:0:0:
358,54,569,2,0,P|369:88|396:113,1,73.4999944190981,0|0,1:0|0:0,0:0:0:0:
365,190,819,5,0,1:0:0:0:
356,189,1069,2,0,P|316:174|292:142,1,73.4999944190981,0|0,1:0|0:0,0:0:0:0:
280,82,1319,2,0,P|278:118|295:150,1,73.4999944190981,0|0,1:0|0:0,0:0:0:0:
240,211,1569,5,0,1:0:0:0:
232,208,1819,2,0,P|199:181|187:142,1,73.4999944190981,0|0,1:0|0:0,0:0:0:0:
197,81,2068,2,0,P|183:114|188:150,1,73.4999944190981,0|0,1:0|0:0,0:0:0:0:
109,183,2319,5,0,1:0:0:0:
46,101,2569,5,0,1:0:0:0:
47,5,2819,5,0,1:0:0:0:
8,244,2986,6,0,P|50:244|84:266,1,73.4999944190981,0|0,1:0|0:0,0:0:0:0:
116,319,3235,2,0,P|104:284|77:259,1,73.4999944190981,0|0,1:0|0:0,0:0:0:0:
109,183,3486,5,0,1:0:0:0:
118,184,3735,2,0,P|157:198|181:230,1,73.4999944190981,0|0,1:0|0:0,0:0:0:0:
194,291,3986,2,0,P|195:254|178:222,1,73.4999944190981,0|0,1:0|0:0,0:0:0:0:
234,162,4236,5,0,1:0:0:0:
242,165,4486,2,0,P|274:191|286:230,1,73.4999944190981,0|0,1:0|0:0,0:0:0:0:
277,292,4734,2,0,P|290:258|285:222,1,73.4999944190981,0|0,1:0|0:0,0:0:0:0:
365,190,4986,5,0,1:0:0:0:
161,67,5237,5,0,1:0:0:0:
19,171,5487,5,0,1:0:0:0:
194,291,5653,6,0,B|166:295|150:275|122:279,1,73.4999944190981,0|0,1:0|0:0,0:0:0:0:
50,266,5903,2,0,B|78:262|94:282|122:278,1,73.4999944190981,0|0,1:0|0:0,0:0:0:0:
198,208,6153,5,0,1:0:0:0:
206,204,6403,2,0,B|230:190|252:203|277:190,1,73.4999944190981,0|0,1:0|0:0,0:0:0:0:
350,178,6653,2,0,B|325:191|303:178|278:191,1,73.4999944190981,0|0,1:0|0:0,0:0:0:0:
202,120,6903,5,0,1:0:0:0:
193,121,7153,2,0,B|165:125|149:105|121:109,1,73.4999944190981,0|0,1:0|0:0,0:0:0:0:
49,96,7403,2,0,B|77:92|93:112|121:108,1,73.4999944190981,0|0,1:0|0:0,0:0:0:0:
197,38,7653,5,0,1:0:0:0:
305,21,7903,5,0,1:0:0:0:
386,71,8153,5,0,1:0:0:0:
312,281,8319,6,0,B|340:285|356:265|384:269,1,73.4999944190981,0|0,1:0|0:0,0:0:0:0:
456,256,8569,2,0,B|428:252|412:272|384:268,1,73.4999944190981,0|0,1:0|0:0,0:0:0:0:
308,198,8819,5,0,1:0:0:0:
300,194,9069,2,0,B|275:180|253:193|228:180,1,73.4999944190981,0|0,1:0|0:0,0:0:0:0:
156,168,9319,2,0,B|180:181|202:168|227:181,1,73.4999944190981,0|0,1:0|0:0,0:0:0:0:
304,110,9569,1,0,1:0:0:0:
287,89,9653,5,2,0:0:0:0:
306,77,9736,1,2,0:0:0:0:
331,74,9819,1,2,0:0:0:0:
356,79,9903,1,2,0:0:0:0:
381,93,9986,1,2,0:0:0:0:
402,117,10069,1,2,0:0:0:0:
414,151,10153,1,2,1:2:0:0:
409,187,10236,1,2,0:0:0:0:
385,219,10319,5,10,0:0:0:0:
376,258,10403,1,2,0:0:0:0:
388,296,10486,1,2,0:0:0:0:
416,324,10569,1,10,0:0:0:0:
455,333,10653,1,2,1:2:0:0:
407,337,10736,1,10,0:0:0:0:
358,340,10819,1,2,1:2:0:0:
306,344,10903,1,10,0:0:0:0:
251,349,10986,6,0,B|233:316|233:316|244:280,1,73.4999944190981,4|0,1:2|0:0,0:0:0:0:
235,214,11236,2,0,B|253:247|253:247|242:283,1,73.4999944190981,0|0,1:0|0:0,0:0:0:0:
161,255,11486,5,0,1:0:0:0:
154,250,11736,2,0,B|125:225|125:225|123:187,1,73.4999944190981,0|0,1:0|0:0,0:0:0:0:
93,128,11986,2,0,B|121:152|121:152|123:190,1,73.4999944190981,0|0,1:0|0:0,0:0:0:0:
37,191,12236,5,0,1:0:0:0:
36,200,12486,2,0,L|26:281,1,73.4999944190981,0|0,1:0|0:0,0:0:0:0:
36,345,12736,2,0,L|26:272,1,73.4999944190981,0|0,1:0|0:0,0:0:0:0:
107,267,12986,5,0,1:0:0:0:
211,301,13236,5,0,1:0:0:0:
300,268,13486,5,0,1:0:0:0:
213,79,13653,6,0,B|231:112|231:112|220:148,1,73.4999944190981,0|0,1:0|0:0,0:0:0:0:
229,214,13903,2,0,B|211:181|211:181|222:145,1,73.4999944190981,0|0,1:0|0:0,0:0:0:0:
303,173,14153,5,0,1:0:0:0:
310,178,14403,2,0,B|338:202|338:202|340:240,1,73.4999944190981,0|0,1:0|0:0,0:0:0:0:
371,300,14653,2,0,B|342:275|342:275|340:237,1,73.4999944190981,0|0,1:0|0:0,0:0:0:0:
427,237,14903,5,0,1:0:0:0:
428,228,15153,2,0,L|438:147,1,73.4999944190981,0|0,1:0|0:0,0:0:0:0:
428,83,15403,2,0,L|437:155,1,73.4999944190981,0|0,1:0|0:0,0:0:0:0:
357,161,15653,5,0,1:0:0:0:
200,192,15819,1,0,1:0:0:0:
186,195,15903,2,0,L|127:208,1,36.7499972095491,0|0,1:0|0:0,0:0:0:0:
82,136,16069,2,0,L|46:143,1,36.7499972095491,8|0,0:0|0:0,0:0:0:0:
4,229,16236,1,0,1:0:0:0:
475,325,16653,5,4,1:2:0:0:
256,192,16736,12,0,20319,0:0:0:0:
470,328,20819,5,0,1:0:0:0:
188,284,20986,2,0,B|310:271|310:271|342:289,1,157.499992847443,8|8,0:0|0:0,0:0:0:0:
378,206,21319,5,0,1:0:0:0:
389,187,21403,1,8,0:0:0:0:
351,114,21486,5,0,1:0:0:0:
340,95,21570,1,8,0:0:0:0:
378,22,21653,6,0,B|170:-15|252:205|48:201|-7:127|44:-2|134:47,1,503.999961730959,4|0,1:2|0:0,0:0:0:0:
331,141,23153,5,2,0:0:0:0:
380,281,23319,1,2,0:0:0:0:
235,201,23653,5,2,0:0:0:0:
269,298,23819,1,2,0:0:0:0:
157,283,24153,5,2,0:0:0:0:
183,93,24486,5,0,3:0:0:0:
119,275,24652,1,0,3:0:0:0:
307,171,24986,5,0,3:0:0:0:
263,297,25152,1,0,3:0:0:0:
409,278,25486,5,0,3:0:0:0:
412,250,25819,5,2,0:0:0:0:
503,302,25986,1,2,0:0:0:0:
434,366,26153,2,0,L|328:376,1,83.9999961853028,2|0,0:0|0:0,0:0:0:0:
82,258,26486,1,2,0:0:0:0:
177,304,26652,1,2,0:0:0:0:
88,370,26819,1,2,0:0:0:0:
173,191,26986,6,0,P|172:157|168:120,1,62.9999971389771,0|0,1:0|0:0,0:0:0:0:
173,191,27319,2,0,P|172:225|167:261,1,62.9999971389771,0|0,1:0|0:0,0:0:0:0:
264,178,27653,6,0,P|263:132|257:83,1,94.4999928245547,0|0,1:0|0:0,0:0:0:0:
265,196,27986,2,0,P|264:242|258:292,1,94.4999928245547,0|0,1:0|0:0,0:0:0:0:
359,168,28319,6,0,P|358:114|351:56,1,110.249991628647,0|0,1:0|0:0,0:0:0:0:
360,196,28652,2,0,P|359:248|352:305,1,110.249991628647,0|0,1:0|0:0,0:0:0:0:
458,162,28986,6,0,P|457:97|448:29,1,125.999994277954,0|0,1:0|0:0,0:0:0:0:
457,201,29319,2,0,P|456:221|454:243,3,41.9999980926514,0|2|2|2,1:0|0:0|1:2|1:2,0:0:0:0:
397,321,29653,5,0,1:0:0:0:
369,331,29736,1,2,1:2:0:0:
339,333,29819,1,2,1:2:0:0:
309,329,29903,1,2,1:2:0:0:
240,272,29986,5,0,1:0:0:0:
236,261,30069,1,2,1:2:0:0:
232,250,30153,1,2,1:2:0:0:
228,240,30236,1,2,1:2:0:0:
146,280,30319,5,0,1:0:0:0:
101,289,30403,1,2,1:2:0:0:
56,298,30486,1,2,1:2:0:0:
16,308,30569,1,2,1:2:0:0:
16,215,30653,5,0,1:0:0:0:
36,159,30736,1,2,1:2:0:0:
56,104,30819,1,2,1:2:0:0:
76,48,30903,1,2,1:2:0:0:
170,30,30986,5,0,1:0:0:0:
191,55,31069,1,2,0:2:0:0:
213,80,31153,1,2,0:2:0:0:
234,105,31236,1,2,0:2:0:0:
308,154,31319,5,0,3:0:0:0:
291,174,31402,1,2,0:0:0:0:
273,194,31486,1,2,0:0:0:0:
256,214,31569,1,2,0:0:0:0:
181,260,31653,5,0,3:0:0:0:
194,276,31736,1,2,0:0:0:0:
209,292,31820,1,2,0:0:0:0:
222,308,31903,1,2,0:0:0:0:
303,303,31986,5,0,3:0:0:0:
309,312,32069,1,2,0:0:0:0:
318,321,32153,1,2,0:0:0:0:
326,329,32236,1,2,0:0:0:0:
413,349,32319,6,0,B|434:308|416:275|416:275|360:257|354:194|354:194|412:151|412:151|421:199,1,293.99998664856,0|0,1:0|0:0,0:0:0:0:
488,232,32986,6,0,B|264:152|328:432|104:344|104:344|64:288|64:288|40:280|40:280|-16:208|-16:208|96:112|96:112|160:184|160:184|144:229|172:266,1,955.499927448276,8|0,0:0|0:0,0:0:0:0:
242,214,34153,1,0,1:0:0:0:
73,23,34319,5,8,0:0:0:0:
320,111,34486,1,0,1:0:0:0:
339,121,34569,2,0,L|285:147,1,52.4999976158143,0|0,1:0|0:0,0:0:0:0:
155,209,34736,1,8,0:0:0:0:
379,327,34903,1,8,0:0:0:0:
398,333,34986,6,0,B|351:290|351:290|180:374|180:374|128:327,1,314.999976081849,0|0,1:0|0:0,0:0:0:0:
116,315,35486,1,0,1:0:0:0:
368,41,35653,2,0,B|471:6|471:6|409:211,1,314.999976081849,8|0,0:0|0:0,0:0:0:0:
267,211,36153,1,0,1:0:0:0:
242,214,36236,1,0,1:0:0:0:
106,231,36319,6,0,P|45:151|156:156,1,262.499988079071,0|0,1:0|0:0,0:0:0:0:
142,308,36819,1,0,1:0:0:0:
116,315,36903,1,0,1:0:0:0:
227,298,36986,6,0,L|331:329,1,104.999995231629,8|0,0:0|0:0,0:0:0:0:
242,214,37236,1,0,0:0:0:0:
222,198,37319,2,0,L|282:179,1,62.9999952163698,0|0,3:0|0:0,0:0:0:0:
450,216,37486,2,0,L|389:234,1,62.9999952163698,0|0,3:0|0:0,0:0:0:0:
30,255,37653,6,0,B|-25:228|1:155|61:168|61:168|44:116|10:62|10:62|62:69|62:69|76:78|76:78|115:84,1,367.4999833107,0|0,1:0|0:0,0:0:0:0:
154,152,38319,5,10,0:0:0:0:
157,131,38403,1,2,0:0:0:0:
166,106,38486,1,2,0:0:0:0:
187,82,38569,1,2,0:0:0:0:
215,67,38653,5,2,0:0:0:0:
246,62,38736,1,2,0:0:0:0:
282,68,38819,1,2,0:0:0:0:
320,85,38903,1,2,0:0:0:0:
345,117,38986,5,2,0:0:0:0:
352,163,39069,1,2,0:0:0:0:
336,207,39153,1,2,0:0:0:0:
311,247,39236,1,2,0:0:0:0:
311,294,39319,5,2,0:0:0:0:
341,337,39403,1,2,0:0:0:0:
392,348,39486,1,2,1:2:0:0:
392,348,39569,1,2,0:0:0:0:
392,348,39653,5,10,0:0:0:0:
334,354,39736,1,2,0:0:0:0:
276,360,39819,1,2,0:0:0:0:
218,366,39903,1,2,0:0:0:0:
195,344,39986,1,2,1:2:0:0:
147,280,40069,1,10,0:0:0:0:
132,251,40152,1,2,1:2:0:0:
114,170,40236,1,10,1:2:0:0:
109,137,40319,6,0,B|227:120|227:120|276:178|276:178|395:161,1,314.999976081849,0|0,1:0|0:0,0:0:0:0:
418,170,40819,1,0,0:0:0:0:
109,137,40986,2,0,B|223:174|223:174|280:125|280:125|395:162,1,314.999976081849,8|0,0:0|0:0,0:0:0:0:
419,157,41486,1,0,1:0:0:0:
109,137,41653,6,0,B|253:81|269:313|421:273,1,367.499972095491,0|0,1:0|0:0,0:0:0:0:
450,263,42153,1,0,1:0:0:0:
151,234,42319,2,0,L|170:304,1,73.4999944190981,8|2,0:0|0:0,0:0:0:0:
274,312,42486,2,0,L|254:241,1,73.4999944190981,0|2,3:0|0:0,0:0:0:0:
175,139,42653,2,0,L|155:209,1,73.4999944190981,0|2,3:0|0:0,0:0:0:0:
258,216,42819,2,0,L|278:146,1,73.4999944190981,0|10,3:0|0:0,0:0:0:0:
297,67,42986,6,0,B|266:6|266:6|394:31|394:31|351:194,1,367.499972095491,0|0,1:0|0:0,0:0:0:0:
351,194,43486,1,0,3:0:0:0:
476,357,43653,2,0,B|447:328|447:328|411:344|411:344|341:333,1,146.999988838196,0|0,1:0|0:0,0:0:0:0:
267,364,43903,2,0,B|238:335|238:335|202:351|202:351|132:340,1,146.999988838196,0|0,1:0|0:0,0:0:0:0:
54,349,44153,1,0,3:0:0:0:
58,362,44236,1,0,0:0:0:0:
130,303,44319,6,0,P|165:229|130:95,1,220.499983257294,0|0,1:0|0:0,0:0:0:0:
110,91,44653,1,0,3:0:0:0:
69,108,44736,1,0,3:0:0:0:
48,181,44820,1,0,1:0:0:0:
7,198,44903,1,0,3:0:0:0:
55,263,44986,6,0,L|132:279,1,73.4999944190981,8|0,0:0|0:0,0:0:0:0:
287,275,45153,1,0,1:0:0:0:
312,261,45236,2,0,P|280:241|240:246,1,73.4999944190981,0|0,1:0|0:0,0:0:0:0:
225,349,45403,6,0,L|302:365,1,73.4999944190981,8|0,0:0|0:0,0:0:0:0:
385,298,45569,1,0,0:0:0:0:
385,298,45653,6,0,B|435:249|435:249|259:215|259:215|286:274,1,314.999976081849,4|0,1:2|0:0,0:0:0:0:
287,275,46153,1,0,1:0:0:0:
385,298,46319,2,0,B|449:236|449:236|226:193,1,314.999976081849,8|0,0:0|0:0,0:0:0:0:
227,193,46819,1,0,1:0:0:0:
425,19,46986,6,0,B|478:69|478:69|293:105,1,262.499988079071,0|0,1:0|0:0,0:0:0:0:
163,147,47486,1,0,1:0:0:0:
151,170,47569,1,0,1:0:0:0:
180,269,47653,6,0,L|293:309,1,104.999995231629,8|0,0:0|0:0,0:0:0:0:
131,340,47903,1,0,0:0:0:0:
111,331,47986,2,0,L|51:352,1,62.9999952163698,0|0,3:0|0:0,0:0:0:0:
258,207,48153,2,0,L|317:185,1,62.9999952163698,0|0,3:0|0:0,0:0:0:0:
493,32,48319,6,0,B|455:7|410:30|419:85|419:85|487:123|472:206|472:206|416:229|418:291|418:291|452:305|466:342,1,440.999966514589
386,370,48986,5,10,0:0:0:0:
361,363,49069,1,2,0:0:0:0:
338,351,49153,1,2,0:0:0:0:
314,330,49236,1,2,0:0:0:0:
298,302,49319,5,2,0:0:0:0:
286,265,49403,1,2,0:0:0:0:
289,227,49486,1,2,0:0:0:0:
308,187,49569,1,2,0:0:0:0:
345,163,49653,5,2,0:0:0:0:
362,116,49736,1,2,0:0:0:0:
380,69,49819,1,2,0:0:0:0:
398,21,49903,1,2,0:0:0:0:
448,42,49986,5,2,0:0:0:0:
465,94,50070,1,2,0:0:0:0:
483,145,50153,1,2,0:0:0:0:
499,196,50236,1,2,0:0:0:0:
463,246,50319,5,2,0:0:0:0:
413,275,50403,1,2,0:0:0:0:
364,303,50486,1,2,1:2:0:0:
315,332,50569,1,2,0:0:0:0:
260,299,50653,5,2,1:2:0:0:
197,293,50736,1,10,0:0:0:0:
134,287,50819,1,2,1:2:0:0:
67,280,50903,1,10,0:0:0:0:
0,274,50986,6,0,B|148:288|119:122|268:137,1,314.999976081849,4|0,1:2|0:0,0:0:0:0:
289,142,51486,1,0,0:0:0:0:
0,274,51653,2,0,B|73:143|192:262|265:132,1,314.999976081849,8|0,0:0|0:0,0:0:0:0:
274,112,52153,1,0,1:0:0:0:
0,274,52319,6,0,B|72:240|72:240|274:295|274:295|347:262,1,367.499972095491,0|0,1:0|0:0,0:0:0:0:
365,254,52819,1,0,1:0:0:0:
0,274,52986,2,0,L|82:295,1,73.4999944190981,8|0,0:0|0:0,0:0:0:0:
151,338,53153,2,0,B|239:354|271:250|271:250|303:146|400:170|400:170|420:178|435:191|447:211|454:233,1,419.999980926514
452,229,53653,6,0,L|441:283,1,52.4999976158143
298,149,53986,2,0,L|287:97,1,52.4999976158143
209,274,54319,2,0,L|198:222,1,52.4999976158143
298,149,54653,1,2,0:0:0:0:
189,182,54819,1,2,0:0:0:0:
338,73,54986,6,0,P|313:66|282:63,1,52.4999976158143
300,302,55319,2,0,P|326:299|351:292,1,52.4999976158143
433,136,55653,2,0,P|436:163|436:189,1,52.4999976158143
440,278,55986,1,2,0:0:0:0:
302,191,56153,1,2,0:0:0:0:
173,320,56319,6,0,L|110:334,1,52.4999976158143
189,182,56653,2,0,L|126:196,1,52.4999976158143
153,55,56986,2,0,L|205:44,1,52.4999976158143
302,191,57319,1,2,0:0:0:0:
189,182,57486,1,2,0:0:0:0:
308,44,57653,6,0,L|294:114,1,52.4999976158143
250,308,57986,2,0,L|239:256,1,52.4999976158143
302,191,58319,1,2,0:0:0:0:
189,182,58486,1,2,0:0:0:0:
343,279,58653,2,0,L|393:291,1,52.4999976158143,2|0,0:0|0:0,0:0:0:0:
94,181,58986,6,0,P|97:155|105:129,1,52.4999976158143
250,308,59319,2,0,P|257:333|261:359,1,52.4999976158143
189,182,59653,2,0,L|248:171,1,52.4999976158143
169,357,59986,1,2,0:0:0:0:
65,376,60153,1,2,0:0:0:0:
1,279,60319,6,0,L|52:269,1,52.4999976158143
189,182,60653,2,0,L|248:171,1,52.4999976158143
428,75,60986,2,0,L|377:85,1,52.4999976158143
250,308,61319,1,2,0:0:0:0:
273,167,61486,1,2,0:0:0:0:
342,287,61653,6,0,L|408:304,1,52.4999976158143
169,357,61986,2,0,L|118:343,1,52.4999976158143
138,195,62319,2,0,L|188:181,1,52.4999976158143
296,26,62653,1,2,0:0:0:0:
273,167,62820,1,2,0:0:0:0:
138,195,62986,6,0,P|111:200|87:208,1,52.4999976158143
291,273,63319,2,0,P|318:278|341:286,1,52.4999976158143
166,333,63653,1,2,0:0:0:0:
166,333,63986,2,0,L|191:277,1,52.4999976158143,2|2,0:0|0:0,0:0:0:0:
343,106,64319,6,0,P|405:109|461:138,1,125.99999043274,4|8,1:2|0:0,0:0:0:0:
459,253,65486,2,0,P|403:281|340:285,1,125.99999043274,0|0,1:0|1:0,0:0:0:0:
254,247,66319,1,8,0:0:0:0:
167,309,66486,1,0,1:0:0:0:
163,315,66569,1,0,1:0:0:0:
159,321,66653,1,0,1:0:0:0:
154,293,66736,1,8,0:0:0:0:
150,265,66819,1,0,1:0:0:0:
146,236,66903,1,0,1:0:0:0:
142,208,66986,6,0,L|46:228,1,94.4999928245547,0|0,1:0|1:0,0:0:0:0:
199,137,67653,2,0,L|300:115,1,94.4999928245547,8|0,0:0|1:0,0:0:0:0:
117,95,68319,2,0,L|24:114,1,94.4999928245547,0|0,1:0|1:0,0:0:0:0:
174,24,68986,1,8,0:0:0:0:
153,311,69486,6,0,L|152:324,2,7.87499940204623,0|0|0,3:0|3:0|3:0,0:0:0:0:
256,192,69653,12,0,73653,1:0:0:0:
153,311,74486,5,0,1:0:0:0:
347,213,74653,1,0,1:0:0:0:
363,185,74736,1,8,0:0:0:0:
373,125,74819,1,0,1:0:0:0:
373,92,74903,1,8,1:2:0:0:
353,35,74986,6,0,B|280:5|280:5|203:35,1,157.499998855591,4|0,1:2|0:0,0:0:0:0:
132,109,75236,2,0,B|205:139|205:139|279:111,1,157.499998855591,0|0,1:0|0:0,0:0:0:0:
422,238,75486,2,0,P|350:209|279:238,1,157.499998855591,0|0,1:0|0:0,0:0:0:0:
207,316,75736,2,0,P|278:344|349:315,1,157.499998855591
455,157,75986,6,0,B|444:113|444:113|414:157,1,78.7499964237214,0|0,3:0|0:0,0:0:0:0:
422,238,76319,6,0,P|345:217|268:203,1,157.499998855591,0|0,1:0|0:0,0:0:0:0:
132,109,76569,2,0,P|208:88|285:74,1,157.499998855591,0|0,1:0|0:0,0:0:0:0:
231,295,76819,2,0,P|154:315|77:329,1,157.499998855591,0|0,1:0|0:0,0:0:0:0:
345,323,77069,2,0,P|421:343|498:357,1,157.499998855591,0|0,1:0|0:0,0:0:0:0:
305,237,77319,6,0,L|310:211,1,26.2499988079071,0|0,3:0|0:0,0:0:0:0:
343,46,77486,2,0,L|348:20,1,26.2499988079071,0|0,3:0|0:0,0:0:0:0:
180,162,77653,6,0,B|257:178|257:114|329:130,1,157.499998855591,0|0,1:0|0:0,0:0:0:0:
453,269,77903,2,0,B|376:284|376:220|304:236,1,157.499998855591,0|0,1:0|0:0,0:0:0:0:
78,234,78153,2,0,P|90:148|111:74,1,157.499998855591,0|0,1:0|0:0,0:0:0:0:
202,86,78403,2,0,P|222:161|232:239,1,157.499998855591,0|0,1:0|0:0,0:0:0:0:
129,317,78653,6,0,B|111:329|89:332|89:332|122:332|150:355,1,110.249991628647,0|0,3:0|0:0,0:0:0:0:
243,334,78986,5,0,1:0:0:0:
264,323,79069,1,2,0:0:0:0:
294,315,79153,1,2,0:0:0:0:
333,316,79236,1,2,1:2:0:0:
370,326,79319,1,2,0:0:0:0:
402,348,79403,1,2,0:0:0:0:
448,344,79486,1,2,1:2:0:0:
489,308,79569,1,2,0:0:0:0:
485,252,79653,1,2,0:0:0:0:
441,218,79736,1,2,1:2:0:0:
386,219,79819,1,2,0:0:0:0:
332,202,79903,1,2,0:0:0:0:
305,153,79986,5,2,1:2:0:0:
311,147,80070,1,2,1:2:0:0:
305,141,80153,1,2,1:2:0:0:
300,147,80236,1,2,1:2:0:0:
344,66,80319,6,0,P|242:73|180:136,1,188.999985649109,0|0,1:0|0:0,0:0:0:0:
138,211,80569,2,0,P|206:149|299:146,1,188.999985649109,0|0,1:0|0:0,0:0:0:0:
386,219,80819,5,0,3:0:0:0:
411,259,80903,1,0,3:0:0:0:
376,225,80986,1,0,3:0:0:0:
401,265,81070,1,0,3:0:0:0:
366,231,81153,1,0,3:0:0:0:
391,271,81237,1,0,3:0:0:0:
315,295,81319,6,0,B|324:347|324:347|300:327,1,78.7499964237214,0|0,3:0|0:0,0:0:0:0:
235,286,81653,6,0,P|193:199|208:84,1,209.999990463257,0|0,1:0|0:0,0:0:0:0:
205,89,81903,2,0,P|197:192|135:275,1,209.999990463257,0|0,1:0|0:0,0:0:0:0:
70,339,82153,5,0,3:0:0:0:
44,296,82237,1,0,3:0:0:0:
59,345,82320,1,0,3:0:0:0:
33,303,82403,1,0,3:0:0:0:
49,351,82484,1,0,3:0:0:0:
22,309,82569,1,0,3:0:0:0:
127,278,82653,6,0,P|126:260|116:235,1,26.2499988079071,0|0,1:0|0:0,0:0:0:0:
63,166,82819,2,0,P|73:174|81:184,1,26.2499988079071,0|0,1:0|0:0,0:0:0:0:
130,201,82986,5,0,3:0:0:0:
139,197,83069,1,0,3:0:0:0:
154,192,83153,1,0,3:0:0:0:
169,189,83236,1,0,3:0:0:0:
189,187,83319,1,0,3:0:0:0:
215,188,83403,1,0,3:0:0:0:
240,194,83486,1,0,3:0:0:0:
266,210,83569,1,0,3:0:0:0:
317,221,83653,6,0,P|339:218|361:199,1,52.4999976158143,2|2,3:2|3:2,0:0:0:0:
407,110,83819,2,0,P|411:88|401:61,1,52.4999976158143,2|2,3:2|3:2,0:0:0:0:
462,225,83986,5,2,3:2:0:0:
476,258,84069,1,2,3:2:0:0:
469,294,84153,1,2,3:2:0:0:
420,312,84236,1,2,3:2:0:0:
351,298,84319,5,2,3:2:0:0:
338,335,84402,1,2,3:2:0:0:
308,360,84486,1,2,3:2:0:0:
253,340,84569,1,2,3:2:0:0:
205,279,84653,5,2,3:2:0:0:
164,301,84736,1,2,3:2:0:0:
117,301,84820,1,2,3:2:0:0:
81,241,84903,1,2,3:2:0:0:
83,156,84986,5,2,1:2:0:0:
407,110,85153,1,2,1:2:0:0:
199,192,85319,1,2,1:2:0:0:
254,215,85403,1,10,0:0:0:0:
315,246,85486,1,2,1:2:0:0:
315,246,85570,1,10,1:2:0:0:
315,246,85653,6,0,B|351:227|351:227|308:302,1,125.999994277954,4|0,1:2|0:0,0:0:0:0:
308,300,85986,6,0,P|274:218|314:88,1,220.499983257294,8|0,0:0|0:0,0:0:0:0:
307,95,86319,1,0,0:0:0:0:
417,315,86486,1,0,1:0:0:0:
191,123,86653,6,0,B|150:90|150:90|327:50|327:50|311:98,1,283.499978473664,8|0,0:0|0:0,0:0:0:0:
253,215,86986,6,0,B|207:274|207:274|190:201,1,146.999988838196,0|0,1:0|0:0,0:0:0:0:
512,99,87319,2,0,P|431:61|449:148,1,220.499983257294,8|0,0:0|1:0,0:0:0:0:
462,164,87653,2,0,L|455:222,1,52.4999976158143,0|0,1:0|0:0,0:0:0:0:
481,355,87819,6,0,P|456:321|416:314,1,83.9999961853028,0|0,1:0|0:0,0:0:0:0:
387,338,87986,2,0,P|362:304|322:297,1,83.9999961853028,8|0,0:0|0:0,0:0:0:0:
293,321,88153,2,0,P|268:287|228:280,1,83.9999961853028
199,304,88319,6,0,B|268:165|268:165|176:128|176:128|162:194,1,314.999976081849,0|0,1:0|0:0,0:0:0:0:
159,212,88819,1,0,1:0:0:0:
134,205,88903,1,0,0:0:0:0:
124,281,88986,2,0,P|80:174|211:38,1,314.999976081849,8|0,0:0|0:0,0:0:0:0:
224,46,89486,1,0,1:0:0:0:
451,321,89653,6,0,B|512:334|505:238|396:238|416:348|293:321,1,262.499988079071,0|0,1:0|0:0,0:0:0:0:
150,287,90153,1,0,1:0:0:0:
124,281,90236,1,0,0:0:0:0:
51,363,90319,2,0,P|104:322|225:338,1,183.74999165535,8|0,0:0|0:0,0:0:0:0:
215,331,90653,2,0,L|242:261,1,62.9999952163698,0|0,3:0|0:0,0:0:0:0:
224,46,90819,2,0,L|200:104,1,62.9999952163698,0|0,3:0|0:0,0:0:0:0:
34,197,90986,6,0,B|50:210|63:213|83:211|99:192|82:158|108:138|140:142|166:160|166:186|147:207|125:196,1,188.999985649109,0|0,1:0|0:0,0:0:0:0:
125,196,91319,2,0,P|24:219|4:119,1,220.499983257294,8|0,0:0|0:0,0:0:0:0:
0,127,91653,1,0,0:0:0:0:
51,363,91819,1,0,1:0:0:0:
250,185,91986,2,0,P|305:161|433:195,1,188.999985649109,8|0,0:0|0:0,0:0:0:0:
449,238,92194,2,0,L|430:255,4,23.6249982061387
495,300,92319,6,0,L|344:319,1,146.999988838196,0|0,1:0|0:0,0:0:0:0:
251,291,92569,2,0,B|177:288|177:288|219:350,1,146.999988838196,0|0,1:0|0:0,0:0:0:0:
127,221,92819,2,0,B|53:218|53:218|95:280,1,146.999988838196,0|0,1:0|0:0,0:0:0:0:
219,350,93069,2,0,B|292:352|292:352|250:290,1,146.999988838196,0|0,1:0|0:0,0:0:0:0:
222,202,93319,5,8,3:2:0:0:
215,158,93403,1,0,3:2:0:0:
208,114,93486,1,0,3:2:0:0:
201,70,93569,1,0,3:2:0:0:
115,69,93653,5,2,1:2:0:0:
131,49,93736,1,2,0:0:0:0:
166,35,93819,1,2,0:0:0:0:
204,35,93903,1,2,0:0:0:0:
245,48,93986,1,2,0:0:0:0:
275,79,94069,1,2,0:0:0:0:
302,114,94153,1,2,0:0:0:0:
341,133,94236,1,2,0:0:0:0:
384,133,94319,5,2,1:2:0:0:
341,146,94403,1,2,0:0:0:0:
305,171,94486,1,2,0:0:0:0:
287,211,94569,1,2,0:0:0:0:
285,261,94653,1,2,0:0:0:0:
311,303,94736,1,2,0:0:0:0:
360,329,94819,1,2,0:0:0:0:
417,328,94903,1,2,0:0:0:0:
463,296,94986,5,2,1:2:0:0:
423,233,95069,1,2,0:0:0:0:
365,186,95152,1,2,0:0:0:0:
295,160,95235,1,2,0:0:0:0:
221,157,95319,1,2,0:0:0:0:
149,179,95402,1,2,0:0:0:0:
89,222,95485,1,2,0:0:0:0:
45,283,95569,1,2,0:0:0:0:
23,354,95653,5,2,1:2:0:0:
27,370,95736,1,2,0:0:0:0:
44,363,95819,1,2,0:0:0:0:
54,284,95903,2,0,P|36:142|17:26,1,251.999980865479,2|0,0:0|0:0,0:0:0:0:
138,42,96319,6,0,P|191:63|261:70,1,125.99999043274,4|0,3:2|0:0,0:0:0:0:
221,157,96569,1,0,3:0:0:0:
221,157,96653,2,0,P|252:154|282:144,1,62.9999952163698,8|0,0:0|0:0,0:0:0:0:
465,332,96819,6,0,P|412:311|342:304,1,125.99999043274,0|0,3:0|0:0,0:0:0:0:
382,217,97069,1,0,3:0:0:0:
382,217,97153,2,0,P|350:219|320:229,1,62.9999952163698,0|0,1:0|0:0,0:0:0:0:
128,340,97319,6,0,P|101:278|88:221,1,125.99999043274,8|0,3:2|0:0,0:0:0:0:
101,139,97569,1,0,3:0:0:0:
101,139,97653,2,0,P|70:140|38:155,1,62.9999952163698,0|0,1:0|0:0,0:0:0:0:
217,34,97819,6,0,P|279:61|336:74,1,125.99999043274,0|8,3:0|0:0,0:0:0:0:
418,61,98069,1,0,3:0:0:0:
418,61,98153,2,0,P|417:92|402:124,1,62.9999952163698,0|0,0:0|1:0,0:0:0:0:
449,287,98319,6,0,B|406:268|406:268|347:310,1,104.999995231629,0|0,3:0|1:0,0:0:0:0:
273,253,98569,6,0,B|243:239|243:239|202:269,1,83.9999961853028,0|0,3:0|0:0,0:0:0:0:
115,220,98819,6,0,B|105:212|105:212|88:220,1,31.4999976081849,0|0,3:0|0:0,0:0:0:0:
76,292,98986,6,0,P|38:249|12:178,1,125.99999043274,0|0,3:0|0:0,0:0:0:0:
25,102,99236,1,0,3:0:0:0:
25,102,99319,2,0,P|56:112|80:138,1,62.9999952163698,8|0,0:0|0:0,0:0:0:0:
201,269,99486,6,0,P|239:226|265:155,1,125.99999043274,0|0,3:0|0:0,0:0:0:0:
252,79,99736,1,0,3:0:0:0:
252,79,99819,2,0,P|221:89|197:115,1,62.9999952163698,0|0,1:0|0:0,0:0:0:0:
391,258,99986,6,0,P|412:204|412:128,1,125.99999043274,8|0,3:2|0:0,0:0:0:0:
373,61,100236,1,0,3:0:0:0:
373,61,100319,2,0,P|347:80|333:113,1,62.9999952163698,0|0,1:0|0:0,0:0:0:0:
245,359,100486,6,0,P|223:305|223:229,1,125.99999043274,0|8,3:0|0:0,0:0:0:0:
263,162,100736,1,0,3:0:0:0:
263,162,100819,2,0,P|288:181|302:214,1,62.9999952163698,0|0,0:0|1:0,0:0:0:0:
137,123,100986,5,0,3:0:0:0:
136,106,101069,2,0,P|155:131|160:167,1,62.9999952163698,0|0,1:0|1:0,0:0:0:0:
24,36,101236,1,0,3:0:0:0:
27,19,101319,2,0,P|39:49|34:84,1,62.9999952163698,8|0,0:0|0:0,0:0:0:0:
0,157,101486,1,0,3:0:0:0:
294,286,101653,6,0,P|213:300|163:347,1,146.999988838196,0|0,3:0|0:0,0:0:0:0:
81,351,101903,1,0,3:0:0:0:
81,351,101986,2,0,P|85:313|110:276,1,73.4999944190981,8|0,0:0|0:0,0:0:0:0:
284,201,102153,6,0,P|365:215|415:262,1,146.999988838196,0|0,3:0|0:0,0:0:0:0:
495,271,102403,1,0,3:0:0:0:
495,271,102486,2,0,P|491:233|466:196,1,73.4999944190981,0|0,1:0|0:0,0:0:0:0:
211,147,102653,6,0,P|131:145|83:101,1,146.999988838196,0|0,3:0|0:0,0:0:0:0:
27,42,102903,1,0,3:0:0:0:
27,42,102986,2,0,P|8:69|1:113,1,73.4999944190981,0|0,1:0|0:0,0:0:0:0:
217,262,103153,6,0,P|137:264|89:308,1,146.999988838196,0|8,3:0|0:0,0:0:0:0:
33,367,103403,1,0,3:0:0:0:
33,367,103486,2,0,P|14:339|7:295,1,73.4999944190981,0|0,0:0|1:0,0:0:0:0:
85,148,103653,6,0,P|138:149|102:173,1,125.99999043274,0|0,3:0|1:0,0:0:0:0:
238,141,103903,6,0,P|278:152|245:163,1,104.999995231629,0|0,3:0|0:0,0:0:0:0:
377,163,104153,6,0,P|394:173|377:174,1,41.9999980926514,0|0,3:0|0:0,0:0:0:0:
476,269,104319,6,0,P|389:277|306:227,1,167.999992370606,0|0,3:0|0:0,0:0:0:0:
261,176,104569,1,0,3:0:0:0:
261,176,104653,1,8,0:0:0:0:
83,358,104819,6,0,P|18:298|0:203,1,167.999992370606,0|0,3:0|0:0,0:0:0:0:
9,140,105069,1,0,3:0:0:0:
9,140,105153,1,0,1:0:0:0:
443,13,105319,6,0,P|384:78|290:98,1,167.999992370606,0|0,3:0|0:0,0:0:0:0:
222,91,105569,1,0,3:0:0:0:
222,91,105653,1,0,1:0:0:0:
241,357,105819,6,0,P|153:357|75:300,1,167.999992370606,0|8,3:0|0:0,0:0:0:0:
38,248,106069,1,0,3:0:0:0:
38,248,106153,2,0,P|74:233|121:236,1,83.9999961853028,0|0,0:0|1:0,0:0:0:0:
205,161,106319,5,0,3:0:0:0:
217,143,106403,2,0,P|255:141|299:160,1,83.9999961853028,0|8,0:0|0:0,0:0:0:0:
404,102,106569,1,0,3:0:0:0:
421,89,106653,2,0,P|458:100|492:133,1,83.9999961853028,0|8,1:0|0:0,0:0:0:0:
512,241,106819,1,0,0:0:0:0:
495,254,106903,1,0,3:0:0:0:
483,286,106986,5,4,1:2:0:0:
483,286,107819,5,0,1:0:0:0:
402,342,107986,6,0,L|273:357,1,125.999994277954,8|0,0:0|3:0,0:0:0:0:
202,304,108319,2,0,L|122:289,1,73.4999944190981,0|0,1:0|0:0,0:0:0:0:
130,240,108486,6,0,P|59:240|6:180,1,146.999988838196,0|8,3:0|0:0,0:0:0:0:
23,100,108736,1,0,3:0:0:0:
23,100,108819,2,0,P|65:100|110:73,1,73.4999944190981,0|0,0:0|1:0,0:0:0:0:
329,74,108986,6,0,P|271:74|228:122,1,125.99999043274,0|0,3:0|1:0,0:0:0:0:
213,199,109236,6,0,P|164:199|128:239,1,104.999995231629,0|0,3:0|0:0,0:0:0:0:
113,315,109486,6,0,P|88:315|70:335,1,41.9999980926514,0|0,3:0|0:0,0:0:0:0:
261,313,109653,6,0,P|324:341|414:338,1,146.999988838196,0|0,3:0|0:0,0:0:0:0:
467,287,109903,1,0,3:0:0:0:
467,287,109986,2,0,P|437:262|397:256,1,73.4999944190981,8|0,0:0|0:0,0:0:0:0:
213,199,110153,6,0,P|281:191|358:144,1,146.999988838196,0|0,3:0|0:0,0:0:0:0:
378,73,110403,1,0,3:0:0:0:
378,73,110486,2,0,P|339:66|301:81,1,73.4999944190981,0|0,1:0|0:0,0:0:0:0:
114,123,110653,6,0,P|169:82|212:2,1,146.999988838196,8|0,3:2|0:0,0:0:0:0:
118,4,110903,1,0,3:0:0:0:
118,4,110986,2,0,P|90:28|51:41,1,73.4999944190981,0|0,1:0|0:0,0:0:0:0:
98,256,111153,6,0,P|153:296|196:376,1,146.999988838196,0|8,3:0|0:0,0:0:0:0:
102,375,111403,1,0,3:0:0:0:
102,375,111486,2,0,P|74:351|35:338,1,73.4999944190981,0|0,0:0|1:0,0:0:0:0:
200,184,111653,5,0,3:0:0:0:
213,199,111736,2,0,L|300:183,1,73.4999944190981,0|0,1:0|1:0,0:0:0:0:
391,235,111903,1,0,3:0:0:0:
404,250,111986,2,0,L|491:234,1,73.4999944190981,8|0,0:0|1:0,0:0:0:0:
456,119,112153,1,0,1:0:0:0:
468,89,112236,1,8,0:0:0:0:
454,60,112319,5,2,1:2:0:0:
447,56,112403,1,2,0:0:0:0:
440,53,112486,1,2,0:0:0:0:
425,49,112569,1,2,0:0:0:0:
410,49,112653,1,2,0:0:0:0:
395,51,112736,1,2,0:0:0:0:
374,58,112819,1,2,0:0:0:0:
356,71,112903,1,2,0:0:0:0:
344,89,112986,5,2,0:0:0:0:
333,116,113069,1,2,0:0:0:0:
333,145,113153,1,2,0:0:0:0:
341,172,113236,1,2,0:0:0:0:
356,196,113319,1,2,0:0:0:0:
387,215,113403,1,2,0:0:0:0:
427,232,113486,1,2,0:0:0:0:
452,267,113569,1,2,0:0:0:0:
456,311,113653,5,2,0:0:0:0:
433,348,113736,1,2,0:0:0:0:
393,367,113819,1,2,0:0:0:0:
348,365,113903,1,2,0:0:0:0:
305,336,113986,1,2,0:0:0:0:
286,288,114069,1,2,0:0:0:0:
291,236,114153,1,2,0:0:0:0:
323,196,114236,1,2,0:0:0:0:
365,167,114319,5,2,0:0:0:0:
382,118,114403,1,2,0:0:0:0:
369,68,114486,1,2,0:0:0:0:
325,40,114569,1,2,0:0:0:0:
273,39,114653,1,2,0:0:0:0:
229,66,114736,1,2,0:0:0:0:
200,108,114819,1,2,0:0:0:0:
158,138,114903,1,2,0:0:0:0:
106,135,114986,6,0,L|24:113,1,73.4999944190981,0|0,1:0|0:0,0:0:0:0:
215,268,115153,2,0,L|285:287,1,73.4999944190981,0|0,1:0|0:0,0:0:0:0:
209,136,115319,6,0,L|231:54,1,73.4999944190981,0|0,1:0|0:0,0:0:0:0:
76,245,115486,2,0,L|56:315,1,73.4999944190981,0|0,1:0|0:0,0:0:0:0:
218,146,115653,6,0,L|254:69,1,73.4999944190981,0|0,1:0|0:0,0:0:0:0:
68,231,115819,2,0,L|37:297,1,73.4999944190981,0|0,1:0|0:0,0:0:0:0:
201,277,115986,6,0,L|268:309,1,73.4999944190981,0|0,1:0|0:0,0:0:0:0:
117,128,116153,2,0,L|40:92,1,73.4999944190981,0|0,1:0|0:0,0:0:0:0:
323,196,116319,5,0,1:0:0:0:
345,198,116402,1,2,1:2:0:0:
366,200,116485,1,2,1:2:0:0:
387,202,116568,1,2,1:2:0:0:
401,255,116653,5,0,1:0:0:0:
423,266,116736,1,2,1:2:0:0:
443,275,116819,1,2,1:2:0:0:
464,285,116903,1,2,1:2:0:0:
413,358,116986,5,0,1:0:0:0:
384,354,117070,1,2,1:2:0:0:
356,352,117153,1,2,1:2:0:0:
328,349,117236,1,2,0:0:0:0:
305,286,117319,5,0,1:2:0:0:
267,267,117404,1,10,0:0:0:0:
203,234,117486,1,2,1:2:0:0:
168,217,117570,1,10,0:0:0:0:
104,184,117653,6,0,B|91:161|97:126|97:126|22:182|70:259,1,209.999990463257,0|0,1:0|0:0,0:0:0:0:
