osu file format v14

[General]
AudioFilename: audio.mp3
AudioLeadIn: 0
PreviewTime: 85653
Countdown: 1
SampleSet: Soft
StackLeniency: 0.7
Mode: 0
LetterboxInBreaks: 0
WidescreenStoryboard: 1

[Editor]
Bookmarks: 9986,64319,74986
DistanceSpacing: 1.7
BeatDivisor: 4
GridSize: 16
TimelineZoom: 1.8

[Metadata]
Title:Yggdrasil (Original Mix)
TitleUnicode:Yggdrasil (Original Mix)
Artist:MYTK
ArtistUnicode:MYTK
Creator:[ Arika ]
Version:INFINITE
Source:
Tags:KAC2013 Original Mix drumstep
BeatmapID:1172408
BeatmapSetID:553439

[Difficulty]
HPDrainRate:6.5
CircleSize:4.2
OverallDifficulty:7.5
ApproachRate:9.3
SliderMultiplier:1.9
SliderTickRate:2

[Events]
//Background and Video events
0,0,"12 (192).jpg",0,0
//Break Periods
//Storyboard Layer 0 (Background)
//Storyboard Layer 1 (Fail)
//Storyboard Layer 2 (Pass)
//Storyboard Layer 3 (Foreground)
//Storyboard Sound Samples

[TimingPoints]
320,333.333333333333,4,2,1,50,1,0
320,-133.333333333333,4,2,1,50,0,0
9986,-100,4,2,1,50,0,0
10986,-133.333333333333,4,2,1,50,0,0
16069,-166.666666666667,4,2,1,50,0,0
16736,-100,4,2,1,50,0,0
23153,-200,4,2,1,50,0,0
25819,-100,4,2,1,50,0,0
28319,-80,4,2,1,50,0,0
32319,-200,4,2,1,50,0,0
32986,-200,4,2,1,50,0,0
34319,-66.6666666666667,4,2,1,50,0,0
34986,-100,4,2,1,50,0,0
35486,-66.6666666666667,4,2,1,50,0,0
35653,-100,4,2,1,50,0,0
36153,-66.6666666666667,4,2,1,50,0,0
36319,-100,4,2,1,50,0,0
36819,-66.6666666666667,4,2,1,50,0,0
36986,-100,4,2,1,50,0,0
41486,-66.6666666666667,4,2,1,50,0,0
41653,-100,4,2,1,50,0,0
42153,-66.6666666666667,4,2,1,50,0,0
42319,-100,4,2,1,50,0,0
42986,-133.333333333333,4,2,1,50,0,0
44986,-66.6666666666667,4,2,1,50,0,0
45653,-100,4,2,1,50,0,0
46153,-66.6666666666667,4,2,1,50,0,0
46319,-100,4,2,1,50,0,0
46819,-66.6666666666667,4,2,1,50,0,0
46986,-100,4,2,1,50,0,0
48319,-133.333333333333,4,2,1,50,0,0
48986,-100,4,2,1,50,0,0
53486,-80,4,2,1,50,0,0
53653,-133.333333333333,4,2,1,15,0,0
56319,-133.333333333333,4,2,1,25,0,0
58986,-133.333333333333,4,2,1,35,0,0
61653,-133.333333333333,4,2,1,45,0,0
64319,-133.333333333333,4,2,1,50,0,0
74486,-100,4,2,1,50,0,0
74986,-79.9999999999999,4,2,1,50,0,0
75986,-74.0740740740741,4,2,1,50,0,0
77653,-68.9655172413793,4,2,1,50,0,0
78653,-64.5161290322581,4,2,1,50,0,0
81319,-60.6060606060606,4,2,1,50,0,0
82653,-57.1428571428571,4,2,1,50,0,0
83653,-86.9565217391304,4,2,1,50,0,0
85653,-66.6666666666667,4,2,1,50,0,1
92319,-133.333333333333,4,2,1,50,0,1
92569,-100,4,2,1,50,0,1
92819,-80,4,2,1,50,0,1
93069,-66.6666666666667,4,2,1,50,0,1
117653,-133.333333333333,4,2,1,50,0,0

[Colours]
Combo1 : 0,128,128
Combo2 : 128,255,0
Combo3 : 0,255,64
Combo4 : 0,128,0
Combo5 : 0,64,64

[HitObjects]
55,84,320,5,0,0:0:0:0:
124,164,569,1,0,0:0:0:0:
18,182,819,1,0,0:0:0:0:
18,182,1069,1,0,0:0:0:0:
99,251,1319,2,0,P|151:251|200:220,1,106.875004076958
287,166,1819,2,0,P|250:129|193:116,1,106.875004076958
134,30,2319,1,0,0:0:0:0:
134,30,2569,1,0,0:0:0:0:
198,116,2819,1,0,0:0:0:0:
99,251,2986,6,0,L|221:315,1,106.875004076958
289,254,3486,1,0,0:0:0:0:
307,149,3736,1,0,0:0:0:0:
392,213,3986,1,0,0:0:0:0:
392,213,4236,1,0,0:0:0:0:
391,106,4486,2,0,P|358:72|292:55,1,106.875004076958
197,33,4986,2,0,P|196:79|230:138,1,106.875004076958
264,222,5486,1,0,0:0:0:0:
461,155,5653,5,0,0:0:0:0:
486,258,5903,1,0,0:0:0:0:
431,350,6153,1,0,0:0:0:0:
431,350,6403,1,0,0:0:0:0:
330,312,6653,2,0,L|222:337,1,106.875004076958
121,315,7153,2,0,P|94:272|96:189,1,106.875004076958
128,117,7653,1,0,0:0:0:0:
228,152,7903,1,0,0:0:0:0:
189,251,8153,1,0,0:0:0:0:
310,55,8319,6,0,B|260:76|260:36|202:57,1,106.875004076958
336,134,8819,2,0,B|386:113|386:153|444:132,1,106.875004076958
492,40,9319,1,0,0:0:0:0:
440,133,9569,1,0,0:0:0:0:
478,206,9653,5,0,0:0:0:0:
475,230,9736,1,0,0:0:0:0:
473,255,9819,1,0,0:0:0:0:
470,280,9903,1,0,0:0:0:0:
467,308,9986,2,0,L|405:335,1,47.5
289,293,10153,2,0,L|262:231,1,47.5
292,114,10319,2,0,L|354:87,1,47.5
440,133,10486,5,0,0:0:0:0:
418,142,10569,1,0,0:0:0:0:
396,151,10652,1,0,0:0:0:0:
374,161,10736,1,0,0:0:0:0:
354,168,10819,2,0,L|294:193,1,47.5
142,256,10986,5,0,0:0:0:0:
53,195,11236,1,0,0:0:0:0:
147,144,11486,1,0,0:0:0:0:
147,144,11736,1,0,0:0:0:0:
216,224,11986,2,0,P|219:277|186:326,1,106.875004076958
90,354,12486,2,0,P|87:301|120:252,1,106.875004076958
216,224,12986,1,0,0:0:0:0:
318,192,13236,1,0,0:0:0:0:
420,160,13486,1,0,0:0:0:0:
214,73,13653,5,0,0:0:0:0:
143,153,13903,1,0,0:0:0:0:
107,52,14153,1,0,0:0:0:0:
31,128,14403,1,0,0:0:0:0:
143,153,14653,2,0,B|159:222|159:222|132:268,1,106.875004076958
51,313,15153,2,0,B|35:244|35:244|62:198,1,106.875004076958
143,153,15653,1,0,0:0:0:0:
275,270,15819,5,0,0:0:0:0:
304,249,15903,1,0,0:0:0:0:
334,230,15986,1,0,0:0:0:0:
366,213,16069,2,0,L|437:172,1,56.9999982604981
140,253,16653,1,0,0:0:0:0:
256,192,16736,12,0,20319,0:0:0:0:
140,253,20819,6,0,L|180:188,1,47.5
211,294,20986,2,0,P|146:331|85:312,1,142.5
49,281,21319,1,0,0:0:0:0:
39,234,21403,1,0,0:0:0:0:
53,189,21486,2,0,L|38:118,1,47.5
159,26,21653,5,0,0:0:0:0:
159,26,23153,1,0,0:0:0:0:
229,73,23319,2,0,L|245:186,1,95
257,251,23819,1,0,0:0:0:0:
414,182,24153,1,0,0:0:0:0:
306,347,24319,5,0,0:0:0:0:
414,182,24486,1,0,0:0:0:0:
335,148,24653,2,0,L|241:166,1,95
162,134,25153,1,0,0:0:0:0:
88,288,25486,1,0,0:0:0:0:
88,288,25819,5,0,0:0:0:0:
69,194,25986,1,0,0:0:0:0:
47,101,26153,1,0,0:0:0:0:
465,101,26486,1,0,0:0:0:0:
443,194,26653,1,0,0:0:0:0:
424,288,26820,1,0,0:0:0:0:
337,325,26986,6,0,L|238:359,1,95
174,294,27319,2,0,L|140:194,1,95
158,109,27653,2,0,L|257:75,1,95
324,134,27986,2,0,L|358:233,1,95
247,355,28319,6,0,P|185:345|130:365,1,118.75
241,231,28653,2,0,P|303:241|358:221,1,118.75
389,109,28986,2,0,P|446:146|470:233,1,118.75
467,309,29319,2,0,P|434:302|406:276,1,59.375
354,223,29486,5,0,0:0:0:0:
338,197,29569,1,0,0:0:0:0:
323,172,29653,1,0,0:0:0:0:
308,146,29735,1,0,0:0:0:0:
293,121,29819,1,0,0:0:0:0:
255,92,29902,1,0,0:0:0:0:
209,85,29985,1,0,0:0:0:0:
164,101,30068,1,0,0:0:0:0:
133,136,30152,1,0,0:0:0:0:
122,182,30235,1,0,0:0:0:0:
131,229,30319,6,0,L|165:317,1,59.375
360,381,30486,2,0,L|326:293,1,59.375
271,270,30653,5,0,0:0:0:0:
246,229,30736,1,0,0:0:0:0:
235,183,30819,1,0,0:0:0:0:
238,136,30902,1,0,0:0:0:0:
255,92,30986,1,0,0:0:0:0:
285,55,31069,1,0,0:0:0:0:
240,72,31152,1,0,0:0:0:0:
193,78,31235,1,0,0:0:0:0:
146,73,31318,1,0,0:0:0:0:
102,57,31402,1,0,0:0:0:0:
62,31,31486,6,0,P|34:33|-11:55,1,59.375
82,147,31653,2,0,P|63:168|46:215,1,59.375
177,221,31819,2,0,P|178:249|200:294,1,59.375
313,219,31986,2,0,P|334:237|381:254,1,59.375
465,158,32153,1,0,0:0:0:0:
467,176,32236,1,0,0:0:0:0:
470,194,32319,6,0,L|454:354,1,142.5
363,278,32986,2,0,P|266:226|299:335,1,285
376,357,34153,5,0,0:0:0:0:
261,230,34319,2,0,P|269:186|292:148,1,71.2500027179719
193,270,34486,1,0,0:0:0:0:
152,284,34569,1,0,0:0:0:0:
110,284,34652,1,0,0:0:0:0:
70,270,34736,1,0,0:0:0:0:
37,242,34819,1,0,0:0:0:0:
15,206,34902,1,0,0:0:0:0:
6,163,34986,6,0,P|25:77|151:38,1,190
217,102,35486,2,0,P|226:136|223:175,1,71.2500027179719
199,68,35653,2,0,P|288:91|366:22,1,190
473,97,36153,2,0,P|425:158|411:169,1,71.2500027179719
500,207,36319,2,0,P|432:153|363:213,1,190
431,319,36819,2,0,P|436:281|432:231,1,71.2500027179719
400,348,36986,2,0,P|308:351|252:297,1,142.5
255,296,37319,1,0,0:0:0:0:
225,271,37402,1,0,0:0:0:0:
189,260,37485,1,0,0:0:0:0:
152,263,37569,1,0,0:0:0:0:
118,280,37653,6,0,P|38:246|145:162,1,285
179,348,38319,1,0,0:0:0:0:
222,330,38402,1,0,0:0:0:0:
269,323,38485,1,0,0:0:0:0:
316,328,38569,1,0,0:0:0:0:
361,344,38652,1,0,0:0:0:0:
362,297,38736,1,0,0:0:0:0:
376,251,38819,1,0,0:0:0:0:
400,211,38903,1,0,0:0:0:0:
434,177,38986,6,0,P|463:169|502:175,1,47.5
363,113,39153,1,0,0:0:0:0:
339,83,39236,1,0,0:0:0:0:
305,67,39319,1,0,0:0:0:0:
267,68,39403,1,0,0:0:0:0:
234,85,39486,1,0,0:0:0:0:
211,116,39569,1,0,0:0:0:0:
205,153,39653,1,0,0:0:0:0:
215,189,39736,1,0,0:0:0:0:
241,217,39819,1,0,0:0:0:0:
263,175,39902,1,0,0:0:0:0:
267,128,39985,1,0,0:0:0:0:
251,84,40069,1,0,0:0:0:0:
218,50,40152,1,0,0:0:0:0:
175,32,40236,1,0,0:0:0:0:
127,36,40319,6,0,P|224:64|329:11,1,190
393,66,40819,1,0,0:0:0:0:
379,160,40986,2,0,P|290:208|253:320,1,190
395,311,41486,6,0,P|369:272|331:250,1,71.2500027179719
307,96,41653,2,0,P|291:187|365:264,1,190
375,50,42153,6,0,P|342:24|310:17,1,71.2500027179719
237,53,42319,2,0,P|152:91|46:35,1,190
15,139,42819,1,0,0:0:0:0:
19,167,42903,1,0,0:0:0:0:
25,198,42986,6,0,B|20:212|20:212|30:212|30:212|22:222|22:222|31:224|31:224|23:235|23:235|33:239|33:239|25:246|25:246|34:251|34:251|27:260|27:260|35:265|35:265|29:274|29:274|36:280|36:280|30:286|30:286|37:294|37:294|32:301|32:301|38:310|38:310|32:317|32:317|40:322|40:322|32:329|32:329|41:338|41:338|34:347,1,213.750008153916
153,292,43653,1,0,0:0:0:0:
342,345,43903,2,0,P|321:285|332:214,1,106.875004076958
338,210,44236,1,0,0:0:0:0:
362,184,44319,2,0,P|318:131|257:136,1,106.875004076958
248,134,44653,1,0,0:0:0:0:
214,146,44736,1,0,0:0:0:0:
179,147,44819,1,0,0:0:0:0:
145,136,44903,1,0,0:0:0:0:
117,114,44986,6,0,L|-8:135,1,71.2500027179719
18,230,45153,2,0,L|88:218,1,71.2500027179719
188,286,45319,1,0,0:0:0:0:
153,292,45402,1,0,0:0:0:0:
118,299,45485,1,0,0:0:0:0:
83,306,45569,1,0,0:0:0:0:
48,313,45653,6,0,P|95:343|243:280,1,190
331,227,46153,6,0,P|305:197|274:181,1,71.2500027179719
207,221,46319,2,0,P|217:132|313:111,1,190
432,47,46819,6,0,P|452:82|456:118,1,71.2500027179719
427,183,46986,2,0,L|445:372,1,190
295,310,47486,1,0,0:0:0:0:
249,297,47569,1,0,0:0:0:0:
203,282,47653,2,0,L|154:308,1,47.5
56,254,47819,2,0,L|97:231,1,47.5
141,211,47986,1,0,0:0:0:0:
173,176,48069,1,0,0:0:0:0:
188,130,48153,1,0,0:0:0:0:
186,82,48236,1,0,0:0:0:0:
166,38,48319,6,0,B|179:35|179:35|185:38|185:38|191:35|191:35|195:38|195:38|200:36|200:36|206:38|206:38|212:35|212:35|219:38|219:38|225:35|225:35|232:38|232:38|238:35|238:35|243:38|243:38|249:35|249:35|255:38|255:38|260:34|260:34|265:38|265:38|272:34|272:34|279:38|279:38|286:33|286:33|292:37|292:37|297:33|297:33|303:37|303:37|309:32|309:32|316:36|316:36|322:32|322:32|328:35|328:35|336:31|336:31|341:35|341:35|346:31|346:31|352:35|352:35|357:31|357:31,1,213.750008153916
491,114,48986,1,0,0:0:0:0:
501,159,49069,1,0,0:0:0:0:
489,204,49152,1,0,0:0:0:0:
456,238,49236,1,0,0:0:0:0:
411,251,49319,1,0,0:0:0:0:
365,241,49402,1,0,0:0:0:0:
330,210,49486,1,0,0:0:0:0:
301,172,49569,1,0,0:0:0:0:
259,150,49653,5,0,0:0:0:0:
212,149,49735,1,0,0:0:0:0:
169,168,49819,1,0,0:0:0:0:
139,204,49902,1,0,0:0:0:0:
128,250,49985,1,0,0:0:0:0:
138,296,50069,1,0,0:0:0:0:
170,331,50153,2,0,L|221:384,3,47.5
263,271,50486,2,0,L|230:236,1,47.5
31,182,50653,1,0,0:0:0:0:
36,154,50736,1,0,0:0:0:0:
42,126,50819,1,0,0:0:0:0:
48,98,50903,1,0,0:0:0:0:
52,74,50986,6,0,P|177:98|112:223,1,285
93,331,51653,2,0,P|184:308|253:244,1,190
295,128,52153,1,0,0:0:0:0:
155,30,52319,6,0,B|244:73|245:-2|358:46,1,190
451,92,52819,1,0,0:0:0:0:
480,215,52986,1,0,0:0:0:0:
481,262,53069,1,0,0:0:0:0:
459,303,53152,1,0,0:0:0:0:
418,327,53236,1,0,0:0:0:0:
371,327,53319,1,0,0:0:0:0:
331,303,53402,1,0,0:0:0:0:
308,262,53486,2,0,P|304:233|313:197,1,59.375
434,58,53653,5,0,0:0:0:0:
381,133,53819,1,0,0:0:0:0:
385,165,53986,1,0,0:0:0:0:
390,197,54153,1,0,0:0:0:0:
397,232,54319,1,0,0:0:0:0:
406,266,54486,1,0,0:0:0:0:
415,301,54653,2,0,P|453:307|493:297,1,71.2500027179719
343,368,54986,5,0,0:0:0:0:
251,327,55153,1,0,0:0:0:0:
224,303,55319,1,0,0:0:0:0:
212,269,55486,1,0,0:0:0:0:
216,233,55653,1,0,0:0:0:0:
227,199,55819,1,0,0:0:0:0:
250,171,55986,2,0,P|258:123|248:87,1,71.2500027179719
178,35,56319,5,0,0:0:0:0:
87,74,56486,1,0,0:0:0:0:
76,108,56653,1,0,0:0:0:0:
65,142,56819,1,0,0:0:0:0:
124,193,56986,1,0,0:0:0:0:
136,233,57153,1,0,0:0:0:0:
150,272,57319,2,0,P|174:301|217:311,1,71.2500027179719
299,277,57653,5,0,0:0:0:0:
223,212,57819,1,0,0:0:0:0:
256,184,57986,1,0,0:0:0:0:
297,175,58153,1,0,0:0:0:0:
365,213,58319,1,0,0:0:0:0:
392,245,58486,1,0,0:0:0:0:
400,286,58653,2,0,P|388:323|352:360,1,71.2500027179719
299,277,58986,5,0,0:0:0:0:
223,212,59153,1,0,0:0:0:0:
159,166,59319,1,0,0:0:0:0:
209,106,59486,1,0,0:0:0:0:
138,71,59653,2,0,L|52:94,1,71.2500027179719
209,106,59986,2,0,L|295:83,1,71.2500027179719
370,125,60319,5,0,0:0:0:0:
412,215,60486,1,0,0:0:0:0:
365,278,60653,1,0,0:0:0:0:
299,235,60819,1,0,0:0:0:0:
254,299,60986,2,0,L|272:367,1,71.2500027179719
182,266,61319,2,0,L|162:191,1,71.2500027179719
136,100,61653,5,0,0:0:0:0:
221,49,61819,1,0,0:0:0:0:
212,127,61986,1,0,0:0:0:0:
136,100,62153,1,0,0:0:0:0:
148,22,62319,1,0,0:0:0:0:
221,49,62486,1,0,0:0:0:0:
213,127,62653,2,0,L|254:200,1,71.2500027179719
309,267,62986,5,0,0:0:0:0:
394,318,63152,1,0,0:0:0:0:
385,240,63319,1,0,0:0:0:0:
309,267,63486,1,0,0:0:0:0:
321,345,63652,1,0,0:0:0:0:
394,318,63819,1,0,0:0:0:0:
386,240,63986,2,0,L|427:167,1,71.2500027179719
502,120,64319,6,0,P|441:88|359:106,1,142.500005435944
303,152,64819,1,0,0:0:0:0:
232,103,64986,2,0,P|259:75|306:67,2,71.2500027179719
151,74,65486,2,0,B|131:143|182:143|150:232,1,142.500005435944
81,322,65986,5,0,0:0:0:0:
162,347,66153,1,0,0:0:0:0:
324,310,66319,1,0,0:0:0:0:
224,269,66486,1,0,0:0:0:0:
224,269,66569,2,0,L|241:329,1,35.625001358986
287,190,66736,1,0,0:0:0:0:
287,190,66819,2,0,L|304:250,1,35.625001358986
324,310,66986,6,0,P|384:275|393:196,1,142.500005435944
352,134,67486,1,0,0:0:0:0:
393,58,67653,2,0,B|323:46|323:46|261:93,1,142.500005435944
206,151,68153,1,0,0:0:0:0:
75,76,68319,6,0,B|96:109|96:109|82:220,1,142.500005435944
33,281,68819,1,0,0:0:0:0:
92,342,68986,2,0,P|148:351|208:320,1,106.875004076958
221,311,69319,1,0,0:0:0:0:
301,341,69486,2,0,L|322:331,3,17.812500679493
337,325,69653,6,0,B|368:257|320:257|343:176,1,142.500005435944
340,185,70153,1,0,0:0:0:0:
301,109,70319,2,0,P|370:100|426:168,1,142.500005435944
438,230,70819,1,0,0:0:0:0:
340,185,70986,5,0,0:0:0:0:
305,193,71069,1,0,0:0:0:0:
271,187,71153,2,0,L|198:200,1,71.2500027179719
131,249,71486,1,0,0:0:0:0:
52,214,71653,2,0,P|28:158|94:166,1,142.500005435944
168,125,72153,1,0,0:0:0:0:
168,125,72236,1,0,0:0:0:0:
168,125,72319,5,0,0:0:0:0:
309,104,72486,1,0,0:0:0:0:
176,156,72653,5,0,0:0:0:0:
356,164,72819,1,0,0:0:0:0:
172,186,72986,5,0,0:0:0:0:
386,96,73153,1,0,0:0:0:0:
157,214,73319,5,0,0:0:0:0:
441,156,73486,1,0,0:0:0:0:
131,231,73653,5,0,0:0:0:0:
131,231,74486,2,0,L|93:302,1,47.5
198,306,74653,2,0,L|160:377,1,47.5
305,316,74819,1,0,0:0:0:0:
346,326,74903,1,0,0:0:0:0:
386,334,74986,6,0,L|534:308,1,118.75
317,191,75236,2,0,L|200:211,1,118.75
413,227,75486,2,0,P|415:168|381:102,1,118.75
227,47,75736,2,0,P|225:106|259:172,1,118.75
205,299,75986,6,0,P|130:333|127:248,1,192.375000733852
271,250,76319,6,0,P|284:309|257:372,1,128.250000489235
123,251,76569,2,0,P|110:192|137:129,1,128.250000489235
278,122,76819,2,0,B|348:147|348:89|428:137,1,128.250000489235
248,253,77069,2,0,B|178:228|178:286|98:238,1,128.250000489235
24,150,77319,5,0,0:0:0:0:
24,150,77403,2,0,P|23:186|30:215,1,64.1250002446175
112,382,77569,1,0,0:0:0:0:
112,382,77653,6,0,P|133:324|122:249,1,137.750004203797
400,382,77903,2,0,P|379:324|390:249,1,137.750004203797
212,93,78153,2,0,P|165:133|83:131,1,137.750004203797
300,93,78403,2,0,P|347:133|429:131,1,137.750004203797
200,310,78653,6,0,P|255:231|307:314,1,220.875001685143
376,350,78986,5,0,0:0:0:0:
386,307,79069,1,0,0:0:0:0:
384,263,79152,1,0,0:0:0:0:
369,222,79235,1,0,0:0:0:0:
343,186,79319,1,0,0:0:0:0:
307,160,79402,1,0,0:0:0:0:
271,154,79486,1,0,0:0:0:0:
234,154,79569,1,0,0:0:0:0:
198,163,79652,1,0,0:0:0:0:
167,182,79735,1,0,0:0:0:0:
142,209,79819,1,0,0:0:0:0:
124,241,79902,1,0,0:0:0:0:
116,277,79986,6,0,P|117:324|132:373,1,73.6250005617142
261,361,80153,2,0,P|260:314|245:265,1,73.6250005617142
198,163,80319,6,0,P|132:129|43:142,1,147.250001123428
313,220,80569,2,0,P|380:255|469:242,1,147.250001123428
221,247,80819,2,0,P|186:313|199:402,1,147.250001123428
291,137,81069,2,0,P|325:70|312:-18,1,147.250001123428
142,121,81319,6,0,B|62:134|62:134|75:204|75:204|165:189,1,235.125002242327
313,220,81653,6,0,B|384:258|384:258|472:238,1,156.750001494885
315,328,81903,2,0,L|161:251,1,156.750001494885
63,134,82153,2,0,B|138:121|138:121|207:163,1,156.750001494885
336,125,82403,2,0,L|199:47,1,156.750001494885
406,46,82653,6,0,P|433:165|330:244,1,249.375002378225
272,305,82986,6,0,P|247:261|248:215,1,83.1250007927418
336,125,83153,1,0,0:0:0:0:
303,99,83236,1,0,0:0:0:0:
264,85,83319,1,0,0:0:0:0:
223,85,83402,1,0,0:0:0:0:
184,99,83486,1,0,0:0:0:0:
152,125,83569,1,0,0:0:0:0:
131,161,83653,6,0,L|138:240,1,54.6250010418892
276,359,83819,2,0,L|271:304,1,54.6250010418892
45,269,83986,6,0,L|105:319,1,54.6250010418892
346,241,84153,2,0,L|285:190,1,54.6250010418892
128,382,84319,6,0,L|201:353,1,54.6250010418892
303,99,84486,2,0,L|230:128,1,54.6250010418892
152,184,84653,5,0,0:0:0:0:
190,222,84736,1,0,0:0:0:0:
239,246,84819,1,0,0:0:0:0:
293,253,84902,1,0,0:0:0:0:
346,241,84986,1,0,0:0:0:0:
392,213,85069,1,0,0:0:0:0:
426,171,85152,1,0,0:0:0:0:
445,120,85236,1,0,0:0:0:0:
443,65,85319,6,0,L|426:2,1,54.6250010418892
303,99,85486,2,0,L|317:151,1,54.6250010418892
373,346,85653,6,0,B|326:348|289:329|289:329|222:310|161:350,1,213.750008153916
100,320,85986,2,0,P|55:255|53:175,1,142.500005435944
91,57,86319,1,0,0:0:0:0:
213,131,86486,1,0,0:0:0:0:
213,131,86653,2,0,P|188:197|125:234,1,142.500005435944
188,45,86986,6,0,B|288:12|289:81|407:40,1,213.750008153916
467,60,87319,1,0,0:0:0:0:
467,60,87403,2,0,L|479:148,1,71.2500027179719
484,224,87569,1,0,0:0:0:0:
486,245,87652,1,0,0:0:0:0:
489,266,87735,1,0,0:0:0:0:
492,287,87819,1,0,0:0:0:0:
495,307,87902,1,0,0:0:0:0:
451,343,87985,1,0,0:0:0:0:
394,345,88068,1,0,0:0:0:0:
343,318,88152,1,0,0:0:0:0:
315,268,88235,1,0,0:0:0:0:
305,212,88319,6,0,P|175:198|159:333,1,285.000010871888
230,270,88819,1,0,0:0:0:0:
35,157,88986,2,0,P|165:171|181:36,1,285.000010871888
110,99,89486,1,0,0:0:0:0:
338,289,89653,6,0,B|387:190|387:190|378:126|378:126|422:25,1,285.000010871888
485,148,90153,1,0,0:0:0:0:
266,170,90319,2,0,B|167:219|167:219|103:210|103:210|2:254,1,285.000010871888
125,317,90819,1,0,0:0:0:0:
110,99,90986,5,0,0:0:0:0:
240,41,91153,1,0,0:0:0:0:
309,54,91236,1,0,0:0:0:0:
378,69,91319,2,0,L|459:58,1,71.2500027179719
336,160,91486,2,0,L|265:169,1,71.2500027179719
405,228,91653,2,0,B|387:297|387:297|321:248,2,142.500005435944
378,69,92153,1,0,0:0:0:0:
378,69,92319,6,0,L|277:88,1,71.2500027179719
235,42,92569,6,0,L|111:68,1,95
41,25,92819,6,0,P|30:80|61:137,1,118.75
141,220,93069,6,0,P|207:157|225:251,1,213.750008153916
192,307,93403,5,0,0:0:0:0:
245,363,93486,5,0,0:0:0:0:
318,335,93569,5,0,0:0:0:0:
312,256,93653,6,0,P|320:210|312:161,3,71.2500027179719
235,42,93986,2,0,P|227:88|235:137,3,71.2500027179719
134,290,94319,2,0,P|142:244|134:195,3,71.2500027179719
137,139,94653,1,0,0:0:0:0:
110,115,94736,1,0,0:0:0:0:
78,98,94819,1,0,0:0:0:0:
44,88,94902,1,0,0:0:0:0:
9,85,94986,5,0,0:0:0:0:
64,100,95069,1,0,0:0:0:0:
120,104,95152,1,0,0:0:0:0:
177,96,95235,1,0,0:0:0:0:
230,77,95319,1,0,0:0:0:0:
279,47,95403,1,0,0:0:0:0:
335,58,95486,1,0,0:0:0:0:
382,90,95569,1,0,0:0:0:0:
413,137,95652,1,0,0:0:0:0:
423,193,95736,1,0,0:0:0:0:
411,248,95819,1,0,0:0:0:0:
381,288,95902,1,0,0:0:0:0:
341,317,95985,1,0,0:0:0:0:
294,335,96068,1,0,0:0:0:0:
244,338,96153,2,0,P|202:331|155:302,1,71.2500027179719
129,167,96319,6,0,P|190:85|308:72,1,213.750008153916
369,94,96653,2,0,P|443:91|485:41,1,142.500005435944
304,146,96986,1,0,0:0:0:0:
381,288,97153,1,0,0:0:0:0:
381,288,97319,2,0,B|406:236|406:236|428:224|428:224|455:170,1,142.500005435944
310,234,97653,6,0,B|257:326|257:326|147:306,1,213.750008153916
74,292,97986,2,0,P|71:224|144:209,1,142.500005435944
257,325,98319,1,0,0:0:0:0:
233,169,98486,1,0,0:0:0:0:
103,109,98653,1,0,0:0:0:0:
124,64,98736,1,0,0:0:0:0:
165,37,98819,1,0,0:0:0:0:
214,38,98902,1,0,0:0:0:0:
256,64,98986,6,0,B|360:86|360:23|473:73,1,213.750008153916
477,139,99319,2,0,P|470:212|490:282,1,142.500005435944
363,350,99653,1,0,0:0:0:0:
368,208,99819,1,0,0:0:0:0:
368,208,99986,2,0,B|298:227|298:227|246:276,1,142.500005435944
46,208,100319,6,0,P|125:190|175:73,1,213.750008153916
230,28,100653,2,0,P|296:49|369:9,1,142.500005435944
486,84,100986,1,0,0:0:0:0:
362,156,101153,1,0,0:0:0:0:
362,156,101236,2,0,L|383:237,1,71.2500027179719
483,280,101403,1,0,0:0:0:0:
448,315,101486,1,0,0:0:0:0:
402,334,101569,1,0,0:0:0:0:
353,333,101653,6,0,P|243:309|152:388,1,213.750008153916
99,333,101986,2,0,P|47:278|34:204,1,142.500005435944
87,82,102319,1,0,0:0:0:0:
206,159,102486,1,0,0:0:0:0:
206,159,102653,2,0,B|186:102|186:102|194:75|194:75|177:11,1,142.500005435944
283,120,102986,6,0,B|337:263|337:263|404:324,1,213.750008153916
421,363,103319,2,0,P|451:305|416:242,1,142.500005435944
263,295,103653,1,0,0:0:0:0:
140,223,103819,1,0,0:0:0:0:
126,80,103986,1,0,0:0:0:0:
173,94,104069,1,0,0:0:0:0:
222,90,104152,1,0,0:0:0:0:
267,70,104235,1,0,0:0:0:0:
302,34,104319,6,0,L|454:51,2,142.500005435944
248,166,104819,1,0,0:0:0:0:
350,265,104986,1,0,0:0:0:0:
471,190,105153,1,0,0:0:0:0:
455,331,105319,1,0,0:0:0:0:
450,310,105402,1,0,0:0:0:0:
444,290,105485,1,0,0:0:0:0:
438,269,105568,1,0,0:0:0:0:
434,251,105653,6,0,L|430:96,1,142.500005435944
304,44,105986,1,0,0:0:0:0:
253,177,106153,1,0,0:0:0:0:
139,92,106319,1,0,0:0:0:0:
139,92,106403,2,0,L|108:18,1,71.2500027179719
92,179,106569,1,0,0:0:0:0:
92,179,106653,2,0,L|17:148,1,71.2500027179719
162,231,106819,1,0,0:0:0:0:
174,272,106903,1,0,0:0:0:0:
185,312,106986,6,0,L|334:284,2,142.500005435944
283,209,107486,2,0,B|368:196|368:196|406:215|406:215|508:196,1,213.750008153916
494,127,107819,2,0,L|405:144,1,71.2500027179719
318,131,107986,2,0,L|173:153,1,142.500005435944
237,322,108319,6,0,P|337:285|358:164,1,213.750008153916
318,131,108653,2,0,P|337:63|403:31,1,142.500005435944
473,152,108986,1,0,0:0:0:0:
419,325,109153,1,0,0:0:0:0:
274,221,109319,1,0,0:0:0:0:
238,226,109402,1,0,0:0:0:0:
203,232,109485,1,0,0:0:0:0:
168,238,109568,1,0,0:0:0:0:
133,243,109653,5,0,0:0:0:0:
340,249,109819,1,0,0:0:0:0:
176,121,109986,1,0,0:0:0:0:
234,321,110153,1,0,0:0:0:0:
304,126,110319,1,0,0:0:0:0:
91,311,110486,2,0,P|65:282|54:248,1,71.2500027179719
87,188,110653,2,0,L|58:42,1,142.500005435944
201,64,110986,6,0,B|318:25|318:91|450:43,1,213.750008153916
444,118,111319,2,0,P|366:131|289:122,1,142.500005435944
173,186,111653,1,0,0:0:0:0:
173,186,111736,2,0,P|172:228|183:271,1,71.2500027179719
342,266,111903,1,0,0:0:0:0:
342,266,111986,2,0,P|313:235|274:212,1,71.2500027179719
246,331,112153,1,0,0:0:0:0:
246,331,112236,1,0,0:0:0:0:
246,331,112319,5,0,0:0:0:0:
206,346,112402,1,0,0:0:0:0:
163,348,112485,1,0,0:0:0:0:
122,336,112568,1,0,0:0:0:0:
87,312,112652,1,0,0:0:0:0:
61,279,112735,1,0,0:0:0:0:
47,238,112818,1,0,0:0:0:0:
51,194,112903,1,0,0:0:0:0:
70,155,112986,2,0,L|145:131,3,71.2500027179719
233,248,113319,2,0,L|211:180,3,71.2500027179719
225,76,113653,5,0,0:0:0:0:
262,34,113736,1,0,0:0:0:0:
318,24,113819,1,0,0:0:0:0:
368,49,113902,1,0,0:0:0:0:
393,99,113986,1,0,0:0:0:0:
383,154,114069,1,0,0:0:0:0:
342,192,114152,1,0,0:0:0:0:
395,175,114236,1,0,0:0:0:0:
448,193,114319,1,0,0:0:0:0:
480,239,114402,1,0,0:0:0:0:
479,295,114486,1,0,0:0:0:0:
445,339,114569,1,0,0:0:0:0:
398,308,114652,1,0,0:0:0:0:
342,297,114735,1,0,0:0:0:0:
287,308,114819,1,0,0:0:0:0:
237,335,114902,1,0,0:0:0:0:
181,330,114986,6,0,P|150:301|130:260,1,71.2500027179719
6,247,115153,2,0,P|35:215|76:195,1,71.2500027179719
105,78,115319,2,0,P|136:107|156:148,1,71.2500027179719
277,176,115486,2,0,P|247:207|206:227,1,71.2500027179719
304,72,115653,6,0,P|333:40|374:20,1,71.2500027179719
415,125,115819,2,0,P|458:123|501:138,1,71.2500027179719,0|0,0:3|0:3,0:3:0:0:
445,250,115986,2,0,P|476:279|496:320,1,71.2500027179719,0|0,0:3|0:3,0:3:0:0:
359,339,116153,2,0,P|329:370|288:390,1,71.2500027179719,0|0,2:3|2:3,2:3:0:0:
105,344,116319,5,0,0:0:0:0:
62,306,116402,1,0,0:0:0:0:
40,254,116485,1,0,0:0:0:0:
43,198,116568,1,0,0:0:0:0:
70,148,116652,1,0,0:0:0:0:
116,115,116735,1,0,0:0:0:0:
172,106,116818,1,0,0:0:0:0:
226,121,116902,1,0,0:0:0:0:
268,159,116985,1,0,0:0:0:0:
289,211,117068,1,0,0:0:0:0:
286,268,117153,2,0,P|258:296|212:315,1,71.2500027179719
40,254,117319,2,0,P|68:226|114:207,1,71.2500027179719
381,123,117486,1,0,0:0:0:0:
381,123,117569,1,0,0:0:0:0:
381,123,117653,6,0,P|412:189|403:278,1,142.500005435944
