osu file format v14

[General]
AudioFilename: tougenkyou.mp3
AudioLeadIn: 0
PreviewTime: 117188
Countdown: 1
SampleSet: Soft
StackLeniency: 0.2
Mode: 0
LetterboxInBreaks: 0
CountdownOffset: 3
WidescreenStoryboard: 0

[Editor]
DistanceSpacing: 1.3
BeatDivisor: 4
GridSize: 8
TimelineZoom: 2

[Metadata]
Title:Tougenkyou
TitleUnicode:Tougenkyou
Artist:MYTK
ArtistUnicode:MYTK
Creator:marth0
Version::enye
Source:
Tags:
BeatmapID:1493138
BeatmapSetID:706051

[Difficulty]
HPDrainRate:7
CircleSize:4.5
OverallDifficulty:8.5
ApproachRate:9.4
SliderMultiplier:2.8
SliderTickRate:1

[Events]
//Background and Video events
0,0,"1509487179056.jpg",0,0
//Break Periods
2,65469,72783
//Storyboard Layer 0 (Background)
//Storyboard Layer 1 (Fail)
//Storyboard Layer 2 (Pass)
//Storyboard Layer 3 (Foreground)
//Storyboard Sound Samples

[TimingPoints]
513,324.324324324324,4,2,0,100,1,0
3269,-66.6666666666667,4,2,0,60,0,0
5377,-100,4,2,0,60,0,0
9431,-142.857142857143,4,2,0,60,0,0
9756,-100,4,2,0,60,0,0
10729,-200,4,2,0,60,0,0
12188,-100,4,2,0,80,0,0
12837,-166.666666666667,4,2,0,70,0,0
12999,-142.857142857143,4,2,0,75,0,0
13161,-125,4,2,0,80,0,0
13323,-111.111111111111,4,2,0,85,0,0
13485,-100,4,2,0,90,0,0
13648,-100,4,2,0,70,0,0
14945,-200,4,2,0,40,0,0
15756,-100,4,2,0,70,0,0
18107,-100,4,2,0,10,0,0
18188,-83.3333333333333,4,2,0,70,0,0
18675,-142.857142857143,4,2,0,50,0,0
19891,-142.857142857143,4,2,0,60,0,0
21269,-142.857142857143,4,2,0,70,0,0
22567,-142.857142857143,4,2,0,75,0,0
22810,-142.857142857143,4,2,0,80,0,0
23053,-142.857142857143,4,2,0,85,0,0
23296,-142.857142857143,4,2,0,90,0,0
23540,-142.857142857143,4,2,0,95,0,0
23864,-200,4,2,0,50,0,0
25810,-86.9565217391304,4,2,0,65,0,0
26458,-153.846153846154,4,2,0,50,0,0
28404,-74.0740740740741,4,2,0,65,0,0
29053,-125,4,2,0,70,0,0
30999,-111.111111111111,4,2,0,70,0,0
31323,-100,4,2,0,70,0,0
32783,-200,4,2,0,70,0,0
34242,-76.9230769230769,4,2,0,80,0,1
34891,-125,4,2,0,80,0,1
35540,-76.9230769230769,4,2,0,80,0,1
36188,-125,4,2,0,80,0,1
36837,-76.9230769230769,4,2,0,80,0,1
37485,-125,4,2,0,80,0,1
38134,-76.9230769230769,4,2,0,80,0,1
38783,-100,4,2,0,80,0,1
39431,-76.9230769230769,4,2,0,80,0,1
39918,-125,4,2,0,80,0,1
40729,-76.9230769230769,4,2,0,80,0,1
41215,-125,4,2,0,80,0,1
42026,-100,4,2,0,80,0,1
43161,-125,4,2,0,80,0,1
43485,-76.9230769230769,4,2,0,80,0,1
45756,-125,4,2,0,80,0,1
45918,-76.9230769230769,4,2,0,80,0,1
46567,-125,4,2,0,80,0,1
47215,-76.9230769230769,4,2,0,80,0,1
47864,-125,4,2,0,80,0,1
48512,-100,4,2,0,80,0,1
49810,-125,4,2,0,80,0,1
51107,-76.9230769230769,4,2,0,80,0,1
52404,-100,4,2,0,80,0,1
52729,-125,4,2,0,80,0,1
53540,-76.9230769230769,4,2,0,80,0,1
53864,-125,4,2,0,80,0,1
54999,-76.9230769230769,4,2,0,80,0,1
55972,-125,4,2,0,80,0,1
56296,-76.9230769230769,4,2,0,80,0,1
57269,-125,4,2,0,80,0,1
60188,-76.9230769230769,4,2,0,80,0,1
61161,-125,4,2,0,80,0,1
61485,-76.9230769230769,4,2,0,80,0,1
62458,-125,4,2,0,80,0,1
62783,-100,4,2,0,80,0,1
65377,-100,4,2,0,80,0,0
75594,-100,4,2,0,5,0,0
75756,-400,4,2,0,10,0,0
76296,-400,4,2,0,5,0,0
76404,-400,4,2,0,15,0,0
76945,-400,4,2,0,5,0,0
77053,-400,4,2,0,20,0,0
77594,-400,4,2,0,5,0,0
77702,-400,4,2,0,25,0,0
78242,-400,4,2,0,5,0,0
78350,-400,4,2,0,30,0,0
78891,-400,4,2,0,5,0,0
78999,-400,4,2,0,35,0,0
79540,-400,4,2,0,5,0,0
79648,-400,4,2,0,40,0,0
80188,-400,4,2,0,5,0,0
80296,-400,4,2,0,45,0,0
80837,-400,4,2,0,5,0,0
80945,-400,4,2,0,50,0,0
81485,-400,4,2,0,5,0,0
81594,-400,4,2,0,55,0,0
82134,-400,4,2,0,5,0,0
82242,-400,4,2,0,60,0,0
82783,-400,4,2,0,5,0,0
82891,-400,4,2,0,65,0,0
83431,-400,4,2,0,5,0,0
83540,-400,4,2,0,70,0,0
84837,-666.666666666667,4,2,0,80,0,0
86134,-66.6666666666667,4,2,0,80,0,0
88080,-178.571428571429,4,2,0,80,0,0
88729,-66.6666666666667,4,2,0,80,0,0
90675,-400,4,2,0,80,0,0
91323,-66.6666666666667,4,2,0,80,0,0
96512,-83.3333333333333,4,2,0,80,0,0
119864,-76.9230769230769,4,2,0,80,0,1
135431,-100,4,2,0,80,0,0

[Colours]
Combo1 : 255,140,255
Combo2 : 193,193,255
Combo3 : 255,170,255
Combo4 : 149,149,255

[HitObjects]
256,192,999,12,0,3026,0:0:0:0:
132,137,3269,6,0,P|156:220|279:190,1,210.000008010865
232,114,3756,1,0,0:0:0:0:
259,69,3918,1,0,0:0:0:0:
206,160,4242,5,0,0:0:0:0:
299,293,5377,6,0,P|335:264|336:158,1,140
209,284,5864,1,0,0:0:0:0:
262,210,6026,1,0,0:0:0:0:
352,367,6350,1,0,0:0:0:0:
299,293,6512,1,0,0:0:0:0:
156,358,6837,5,0,0:0:0:0:
268,377,7972,1,0,0:0:0:0:
268,377,8134,1,0,0:0:0:0:
398,292,8458,6,0,L|494:160,1,140
322,258,8945,1,0,0:0:0:0:
480,328,9107,1,0,0:0:0:0:
467,158,9431,2,0,P|426:124|460:183,1,195.999994018555
445,34,9918,1,0,0:0:0:0:
325,55,10080,1,0,0:0:0:0:
124,0,10404,1,0,0:0:0:0:
157,106,10729,6,0,L|71:81,1,70
233,25,11053,1,0,0:0:0:0:
266,132,11215,1,0,0:0:0:0:
81,187,11377,5,0,0:0:0:0:
157,106,11540,1,0,0:0:0:0:
190,213,11702,1,0,0:0:0:0:
5,268,11864,5,0,0:0:0:0:
81,187,12027,1,0,0:0:0:0:
114,294,12188,5,0,0:0:0:0:
114,294,12350,1,0,0:0:0:0:
114,294,12512,2,0,P|174:325|242:311,1,140
319,322,12837,2,0,L|351:385,1,41.9999987182618
356,324,12999,2,0,L|424:387,1,48.9999985046387
391,313,13161,2,0,L|477:348,1,56
420,290,13323,2,0,L|513:294,1,62.9999980773926
439,258,13485,1,0,0:0:0:0:
211,132,13648,6,0,L|334:199,1,140
326,33,14134,5,0,0:0:0:0:
418,137,14296,1,0,0:0:0:0:
140,44,14621,1,0,0:0:0:0:
140,44,14945,6,0,L|76:78,1,70
17,110,15431,1,0,0:0:0:0:
17,110,15593,1,0,0:0:0:0:
140,44,15756,6,0,B|83:73|83:73|106:122|77:157,1,140
126,238,16080,1,0,0:0:0:0:
34,242,16242,2,0,P|67:308|142:329,1,140
363,377,16729,1,0,0:0:0:0:
206,285,16891,1,0,0:0:0:0:
364,195,17215,1,0,0:0:0:0:
311,286,17377,5,0,0:0:0:0:
418,286,17540,5,0,0:0:0:0:
258,192,17702,1,0,0:0:0:0:
420,100,17864,2,0,B|478:83|478:83|485:39|458:13|458:13|411:6|411:6|386:59,1,210
420,100,18188,2,0,B|356:94|356:94|311:109|311:109|245:75|268:10|268:10|338:6|338:6|324:37,1,335.999989746094
111,14,18675,5,0,0:0:0:0:
162,70,18837,2,0,L|115:177,1,97.9999970092774
71,103,19242,1,0,0:0:0:0:
211,160,19404,1,0,0:0:0:0:
211,160,19485,1,0,0:0:0:0:
334,208,19648,1,0,0:0:0:0:
334,208,19729,1,0,0:0:0:0:
127,162,19891,5,0,0:0:0:0:
127,162,19972,2,0,L|80:269,1,97.9999970092774
28,171,20215,1,0,0:0:0:0:
48,341,20377,5,0,0:0:0:0:
48,341,20458,2,0,L|95:234,1,97.9999970092774
305,258,20702,1,0,0:0:0:0:
206,249,20864,5,0,0:0:0:0:
206,249,20945,2,0,L|253:356,1,97.9999970092774
147,332,21188,1,0,0:0:0:0:
314,159,21269,5,0,0:0:0:0:
452,252,21431,1,0,0:0:0:0:
452,252,21512,1,0,0:0:0:0:
452,252,21594,2,0,L|412:341,1,97.9999970092774
215,150,21918,5,0,0:0:0:0:
425,141,22080,1,0,0:0:0:0:
425,141,22161,1,0,0:0:0:0:
425,141,22243,2,0,L|464:51,1,97.9999970092774
342,123,22567,6,0,L|267:109,2,48.9999985046387
244,73,22810,2,0,L|206:41,2,48.9999985046387
233,135,23053,2,0,L|186:151,2,48.9999985046387
145,39,23296,2,0,L|107:7,2,48.9999985046387
128,133,23540,2,0,L|81:149,2,48.9999985046387
40,72,23864,6,0,B|80:72|80:72|80:80|80:80|120:80|120:80|120:88|120:88|160:88|160:88|160:96|160:96|200:96|200:96,1,175
24,184,24350,2,0,B|64:184|64:184|64:192|64:192|104:192|104:192|104:200|104:200|144:200|144:200|144:208|144:208|184:208|184:208,1,175
24,296,24837,2,0,B|64:296|64:296|64:304|64:304|104:304|104:304|104:312|104:312|144:312|144:312|144:320|144:320|184:320|184:320|184:328|184:328|224:328|224:328|224:336|224:336|264:336|264:336|264:344|264:344|304:344|304:344|304:352|304:352|344:352|344:352|344:360|344:360|376:360|376:360,1,385
464,360,25810,6,0,B|501:217|496:88|368:48|257:101|233:207|276:275|351:284|415:260|365:175,1,563.50001074791
495,103,26458,6,0,B|475:85|475:85|426:57|426:57|368:50|368:50|317:60|317:60|288:79,1,227.499989585877
322,319,26945,2,0,B|269:295|269:295|231:238|231:238|227:175|227:175|249:127,1,227.499989585877
378,205,27431,6,0,B|378:226|378:226|366:245|366:245|341:253|341:253|314:240|314:240|298:216|298:216|296:185|296:185|315:150|315:150|342:128|342:128|372:121|372:121|408:127|408:127|446:152|446:152|467:190|467:190|475:226|475:226|479:270|479:270|477:296|477:296|473:316,1,500.499977088929
402,353,28404,6,0,B|328:313|229:330|171:365|171:365|171:371|171:371|177:369|177:369|222:302|201:200|42:175|-9:309|51:408|148:379,1,661.500002523422
218,209,29053,6,0,P|144:173|62:186,1,168
286,251,29377,2,0,P|360:215|442:228,1,168
280,160,29702,2,0,B|264:144|240:128|240:128|264:144|312:152|344:144|344:144|312:152|288:160,1,168
321,76,30026,2,0,P|312:13|285:70,1,168
400,97,30350,6,0,B|459:85|515:117|515:117|491:101|491:77|491:77|459:85,1,168
425,166,30675,2,0,P|434:229|461:172,1,168
512,268,30999,2,0,P|428:300|352:250,1,188.999994232178
295,295,31323,2,0,B|323:342|372:362|372:362|294:344|224:380,1,210
242,377,31648,5,0,0:0:0:0:
215,383,31729,1,0,0:0:0:0:
187,381,31810,1,0,0:0:0:0:
161,372,31891,1,0,0:0:0:0:
139,354,31972,5,0,0:0:0:0:
90,356,32053,1,0,0:0:0:0:
65,313,32134,1,0,0:0:0:0:
93,272,32215,1,0,0:0:0:0:
143,278,32296,1,0,0:0:0:0:
207,293,32377,5,0,0:0:0:0:
188,231,32458,1,0,0:0:0:0:
241,193,32540,1,0,0:0:0:0:
293,231,32621,1,0,0:0:0:0:
272,292,32702,1,0,0:0:0:0:
375,293,32783,2,0,L|320:277,1,35
116,195,34242,6,0,B|174:169|174:169|199:124|199:124|260:98,1,181.999991668702
111,98,34567,1,0,0:0:0:0:
265,195,34729,1,0,0:0:0:0:
39,150,34891,2,0,P|36:50|178:37,1,224
222,36,35377,2,0,L|247:24,2,28
186,147,35540,6,0,B|244:119|244:119|261:190|261:190|340:222,1,181.999991668702
119,289,35864,1,0,0:0:0:0:
335,122,36026,1,0,0:0:0:0:
341,330,36188,6,0,B|295:351|295:351|278:280|278:280|237:264,1,168
212,339,36512,1,0,0:0:0:0:
444,173,36675,2,0,L|471:238,1,56
493,304,36837,6,0,B|446:329|392:294|379:245|379:245|341:260,1,181.999991668702
434,54,37161,1,0,0:0:0:0:
493,304,37323,1,0,0:0:0:0:
212,338,37485,2,0,P|206:244|120:284,1,224
59,384,37972,2,0,P|86:370|97:343,1,56
44,290,38134,6,0,B|18:224|18:224|80:208|80:208|139:157,1,181.999991668702
0,41,38458,1,0,0:0:0:0:
36,125,38620,1,0,0:0:0:0:
189,14,38783,2,0,L|152:97,1,70
137,182,38945,2,0,L|227:171,1,70
309,143,39107,2,0,L|254:69,1,70
335,40,39269,2,0,L|426:30,1,70
410,114,39431,6,0,L|337:280,1,181.999991668702
489,187,39756,1,0,0:0:0:0:
411,353,39918,2,0,P|307:379|235:300,1,224
450,270,40404,1,0,0:0:0:0:
168,267,40567,2,0,L|138:289,2,28
90,241,40729,6,0,B|63:296|63:296|103:354|103:354|153:358,1,181.999991668702
45,139,41053,1,0,0:0:0:0:
235,300,41215,2,0,B|208:256|210:214|210:214|181:211|161:191|161:191|173:231|167:272,1,224
0,384,41702,2,0,L|45:351,1,56
220,124,41864,2,0,L|265:91,1,56
177,30,42026,6,0,B|124:71|124:71|51:28|51:28|7:66|7:66|46:47|97:68,1,280
254,10,42512,1,0,0:0:0:0:
336,280,42675,1,0,0:0:0:0:
483,225,42837,1,0,0:0:0:0:
362,124,42999,1,0,0:0:0:0:
322,355,43161,2,0,P|345:357|384:338,1,56
473,114,43323,6,0,L|413:189,1,56
362,124,43485,2,0,B|359:59|359:59|413:64|413:64|451:14,2,181.999991668702
277,108,43891,1,0,0:0:0:0:
279,129,43972,1,0,0:0:0:0:
280,152,44053,1,0,0:0:0:0:
209,213,44134,2,0,B|206:161|206:161|187:163|187:163|206:180,1,90.9999958343508
141,102,44296,2,0,B|97:130|97:130|108:146|108:146|113:121,1,90.9999958343508
80,216,44459,2,0,B|126:239|126:239|134:221|134:221|110:229,1,90.9999958343508
210,65,44621,5,0,0:0:0:0:
152,30,44702,1,0,0:0:0:0:
86,36,44783,1,0,0:0:0:0:
36,82,44864,1,0,0:0:0:0:
24,148,44945,1,0,0:0:0:0:
209,64,45107,6,0,P|279:120|368:62,1,181.999991668702
512,177,45431,1,0,0:0:0:0:
272,296,45594,1,0,0:0:0:0:
289,28,45756,2,0,L|289:0,2,28
502,105,45918,6,0,P|435:51|356:85,1,181.999991668702
181,229,46242,1,0,0:0:0:0:
424,133,46404,1,0,0:0:0:0:
348,279,46567,2,0,P|386:331|378:264,1,168
272,296,46891,2,0,P|275:323|288:354,1,56
482,299,47053,2,0,P|478:271|468:245,1,56
184,300,47215,6,0,B|149:305|106:274|110:231|110:231|78:259|39:249,1,181.999991668702
179,0,47540,1,0,0:0:0:0:
276,194,47702,1,0,0:0:0:0:
60,180,47864,2,0,P|119:159|181:234,1,168
66,334,48188,1,0,0:0:0:0:
175,76,48350,2,0,L|142:153,1,56
41,68,48512,6,0,P|7:13|68:35,1,168
0,261,48837,1,0,0:0:0:0:
272,296,48999,1,0,0:0:0:0:
290,98,49161,2,0,P|324:93|358:101,1,70
485,135,49323,2,0,P|450:139|416:131,1,70
368,214,49485,2,0,P|363:179|371:145,1,70
406,19,49648,2,0,P|410:53|402:87,1,70
270,196,49810,5,0,0:0:0:0:
467,233,50053,5,0,0:0:0:0:
306,4,50296,6,0,B|297:28|274:43|274:43|290:97|290:97|227:85|168:136|171:194,1,280
270,196,50783,1,0,0:0:0:0:
504,37,50945,2,0,L|491:73,2,28
361,66,51107,1,0,0:0:0:0:
479,245,51269,6,0,B|508:436|390:437|323:351|425:271|476:295|525:371,1,363.999983337403
388,237,51756,1,0,0:0:0:0:
293,318,51918,2,0,P|253:338|209:328,1,90.9999958343508
212,289,52080,1,0,0:0:0:0:
180,259,52161,1,0,0:0:0:0:
139,273,52242,1,0,0:0:0:0:
134,316,52323,1,0,0:0:0:0:
169,341,52404,6,0,P|77:311|94:218,1,210
95,137,52729,2,0,P|87:168|73:190,1,56
0,125,52891,2,0,P|8:97|22:75,1,56
156,60,53053,2,0,P|176:80|188:104,1,56
264,201,53215,2,0,P|286:217|313:223,1,56
338,17,53377,2,0,P|332:44|315:66,1,56
460,173,53540,2,0,B|465:154|465:154|429:155|429:155|463:221|431:286,1,181.999991668702
482,363,53864,6,0,P|438:331|435:276,2,112
264,201,54350,1,0,0:0:0:0:
421,4,54512,2,0,P|464:36|467:90,2,112
330,256,54999,6,0,B|266:313|193:277|182:215|182:215|185:269|148:300,1,272.999987503052
336,354,55323,1,0,0:0:0:0:
80,222,55485,1,0,0:0:0:0:
378,53,55648,2,0,B|350:75|353:129|353:129|333:52|244:38|198:99,1,272.999987503052
101,55,55972,2,0,L|107:0,1,56
270,145,56134,2,0,L|264:201,1,56
157,291,56296,6,0,B|106:285|78:328|78:328|22:278|22:278|40:343|-7:380,1,272.999987503052
0,132,56621,1,0,0:0:0:0:
143,366,56783,1,0,0:0:0:0:
423,208,56945,2,0,B|465:154|543:181|558:261|510:308|455:297|455:297|462:245,1,272.999987503052
475,104,57269,2,0,L|481:49,1,56
372,287,57431,2,0,L|366:343,1,56
260,108,57594,5,0,0:0:0:0:
157,291,57756,1,0,0:0:0:0:
400,131,57918,2,0,P|395:91|375:65,1,56
117,148,58080,1,0,0:0:0:0:
265,342,58242,1,0,0:0:0:0:
400,131,58404,2,0,P|395:91|375:65,1,56
356,53,58567,1,0,0:0:0:0:
325,48,58648,1,0,0:0:0:0:
295,57,58729,1,0,0:0:0:0:
271,78,58810,1,0,0:0:0:0:
260,107,58891,5,0,0:0:0:0:
438,304,59053,1,0,0:0:0:0:
185,371,59215,1,0,0:0:0:0:
418,217,59377,1,0,0:0:0:0:
175,67,59540,1,0,0:0:0:0:
483,158,59702,1,0,0:0:0:0:
104,221,59864,1,0,0:0:0:0:
503,245,60026,1,0,0:0:0:0:
69,336,60188,6,0,B|80:296|80:296|20:279|-12:194|57:107|151:155,1,272.999987503052
154,284,60512,1,0,0:0:0:0:
78,49,60675,1,0,0:0:0:0:
219,254,60837,2,0,B|276:264|342:204|311:118|251:101|251:101|262:61,1,272.999987503052
430,20,61161,2,0,L|484:33,1,56
228,177,61323,2,0,L|173:163,1,56
376,96,61485,6,0,B|412:152|405:223|357:290|357:290|423:274|405:223,1,272.999987503052
331,14,61810,1,0,0:0:0:0:
474,203,61972,1,0,0:0:0:0:
283,332,62134,2,0,B|335:405|437:363|482:301|482:301|494:362|427:381,1,272.999987503052
243,85,62458,2,0,P|243:58|229:30,1,56
108,299,62621,2,0,P|109:328|121:353,1,56
383,224,62783,6,0,L|494:197,1,93.3333333333333
161,120,62999,2,0,L|128:230,1,93.3333333333333
410,135,63215,2,0,L|521:108,1,93.3333333333333
96,51,63431,1,0,0:0:0:0:
69,140,63539,1,0,0:0:0:0:
43,230,63647,5,0,0:0:0:0:
134,209,63756,1,0,0:0:0:0:
197,277,63864,1,0,0:0:0:0:
288,256,63972,5,0,0:0:0:0:
260,345,64080,1,0,0:0:0:0:
197,277,64188,1,0,0:0:0:0:
225,188,64296,5,0,0:0:0:0:
315,167,64404,1,0,0:0:0:0:
343,78,64512,1,0,0:0:0:0:
280,10,64621,1,0,0:0:0:0:
190,31,64729,1,0,0:0:0:0:
162,120,64837,5,0,0:0:0:0:
184,114,64945,1,0,0:0:0:0:
207,109,65053,1,0,0:0:0:0:
230,104,65161,1,0,0:0:0:0:
253,99,65269,1,0,0:0:0:0:
256,192,73323,12,0,75594,0:0:0:0:
128,72,75756,6,0,L|225:161,1,116.666666666667
384,72,76404,2,0,L|290:157,1,116.666666666667
392,312,77053,2,0,L|304:232,1,116.666666666667
120,312,77702,2,0,L|208:232,1,116.666666666667
104,48,78350,6,0,L|192:128,1,116.666666666667
408,48,78998,2,0,L|320:128,1,116.666666666667
416,336,79647,2,0,L|328:256,1,116.666666666667
96,336,80296,2,0,L|184:256,1,116.666666666667
80,24,80945,6,0,L|168:104,1,116.666666666667
432,24,81593,2,0,L|344:104,1,116.666666666667
440,360,82242,2,0,L|352:280,1,116.666666666667
72,360,82891,2,0,L|160:280,1,116.666666666667
256,192,83540,5,0,0:0:0:0:
256,192,84837,6,0,L|256:255,2,62.9999980773926
156,89,86134,6,0,B|73:179|136:296|136:296|160:317|192:320|192:320|180:331|176:352|176:352|158:338|134:334|134:334|156:312|158:290|158:290|190:335|261:319,1,525.000020027161
356,295,86621,6,0,B|439:205|376:88|376:88|352:67|320:64|320:64|332:53|336:32|336:32|354:46|378:50|378:50|356:72|354:94|354:94|322:49|251:65,1,525.000020027161
206,183,87107,2,0,P|79:17|260:62,1,525.000020027161
251,321,87594,2,0,P|452:337|305:200,1,525.000020027161
251,320,88080,2,0,B|215:258|255:196|255:196|293:133|259:59,1,274.400003349609
0,71,88729,6,0,B|86:48|137:150|73:210|73:210|103:222|103:222|7:214|-35:329|39:404|123:381,1,525.000020027161
412,384,89215,2,0,B|471:402|550:326|504:213|408:221|408:221|438:209|438:209|374:149|425:47|511:70,1,525.000020027161
368,13,89702,2,0,B|317:45|295:118|316:188|316:188|272:184|256:152|256:152|232:184|197:189|197:189|218:82|181:22|106:1,1,525.000020027161
92,305,90188,2,0,B|160:312|216:264|216:264|192:328|256:376|256:376|320:328|296:264|296:264|352:312|424:304,1,525.000020027161
192,88,90675,2,0,B|240:72|240:72|272:72|272:72|320:88,1,122.5
256,0,90837,1,0,0:0:0:0:
256,72,90999,1,0,0:0:0:0:
256,144,91161,1,0,0:0:0:0:
