osu file format v14

[General]
AudioFilename: audio.mp3
AudioLeadIn: 0
PreviewTime: 117269
Countdown: 1
SampleSet: None
StackLeniency: 0.7
Mode: 0
LetterboxInBreaks: 0
WidescreenStoryboard: 0

[Editor]
Bookmarks: 513,86108,109486,128945,129188,129431,129675,129918,130080,135431
DistanceSpacing: 0.9
BeatDivisor: 4
GridSize: 4
TimelineZoom: 1.800006

[Metadata]
Title:Tougenkyou
TitleUnicode:Tougenkyou
Artist:MYTK
ArtistUnicode:MYTK
Creator:Riosnake
Version:Special
Source:VOEZ
Tags:Stream
BeatmapID:1001540
BeatmapSetID:468227

[Difficulty]
HPDrainRate:6.5
CircleSize:3.7
OverallDifficulty:8
ApproachRate:9
SliderMultiplier:1.5
SliderTickRate:1

[Events]
//Background and Video events
0,0,"Tougenkyou_Back.jpg",0,0
//Break Periods
2,65577,70242
2,104621,106891
//Storyboard Layer 0 (Background)
//Storyboard Layer 1 (Fail)
//Storyboard Layer 2 (Pass)
//Storyboard Layer 3 (Foreground)
//Storyboard Sound Samples

[TimingPoints]
513,324.324324324324,4,3,0,100,1,0
513,-100,4,3,0,5,0,0
837,-100,4,3,0,10,0,0
1161,-100,4,3,0,15,0,0
1485,-100,4,3,0,20,0,0
1810,-100,4,3,0,25,0,0
2134,-100,4,3,0,30,0,0
2458,-100,4,3,0,35,0,0
2783,-100,4,3,0,40,0,0
2945,-100,4,3,0,5,0,0
3107,-100,4,3,0,100,0,0
21107,-50,4,3,0,100,0,0
21269,-100,4,3,0,100,0,0
24269,-100,4,3,0,15,0,0
24350,-76.9230769230769,4,3,0,100,0,0
24756,-76.9230769230769,4,3,0,15,0,0
24837,-66.6666666666667,4,3,0,100,0,0
25648,-100,4,3,0,100,0,0
26458,-76.9230769230769,4,3,0,100,0,0
30513,-76.9230769230769,4,3,0,100,0,0
31648,-100,4,3,0,100,0,0
34242,-66.6666666666667,4,3,0,100,0,1
44621,-100,4,3,0,100,0,1
44945,-66.6666666666667,4,3,0,100,0,1
65377,-100,4,3,0,100,0,0
73485,-100,4,3,0,15,0,0
75756,-100,4,3,0,100,0,0
77053,-200,4,3,0,100,0,0
77621,-100,4,3,0,5,0,0
77702,-111.111111111111,4,3,0,100,0,0
78269,-100,4,3,0,5,0,0
78350,-76.9230769230769,4,3,0,100,0,0
78918,-100,4,3,0,5,0,0
78999,-66.6666666666667,4,3,0,100,0,0
79567,-100,4,3,0,5,0,0
79648,-55.5555555555556,4,3,0,100,0,0
80215,-100,4,3,0,5,0,0
80296,-50,4,3,0,100,0,0
80945,-100,4,3,0,100,0,0
86108,-83.3333333333333,4,3,0,100,0,0
88323,-83.3333333333333,4,3,0,5,0,0
88404,-83.3333333333333,4,3,0,100,0,0
93269,-66.6666666666667,4,3,0,100,0,0
93513,-83.3333333333333,4,3,0,5,0,0
93594,-83.3333333333333,4,3,0,100,0,0
109484,-200,4,3,0,100,0,0
110053,-200,4,3,0,15,0,0
110134,-71.4285714285714,4,3,0,100,0,0
110540,-100,4,3,0,100,0,0
114026,-66.6666666666667,4,3,0,100,0,0
114269,-66.6666666666667,4,3,0,5,0,0
114350,-100,4,3,0,100,0,0
114675,-142.857142857143,4,3,0,100,0,0
115160,-100,4,3,0,100,0,0
119864,-66.6666666666667,4,3,0,100,0,1
135431,-100,4,3,0,100,0,0
135918,-100,4,3,0,95,0,0
136404,-100,4,3,0,90,0,0
136891,-100,4,3,0,80,0,0
137377,-100,4,3,0,75,0,0
137864,-100,4,3,0,60,0,0
138350,-100,4,3,0,50,0,0
138837,-100,4,3,0,40,0,0
139323,-100,4,3,0,30,0,0
139810,-100,4,3,0,20,0,0
140296,-100,4,3,0,15,0,0
140621,-100,4,3,0,10,0,0

[HitObjects]
256,192,513,12,0,2945,0:0:0:0:
416,204,3269,5,0,0:0:0:0:
316,44,3431,1,4,0:0:0:0:
316,44,3756,1,0,0:0:0:0:
132,76,3918,1,0,0:0:0:0:
420,320,4243,1,2,0:0:0:0:
420,320,5377,2,0,L|496:292,1,75
176,80,5864,5,0,0:0:0:0:
60,228,6026,1,4,0:0:0:0:
60,228,6350,1,0,0:0:0:0:
224,320,6512,1,0,0:0:0:0:
256,60,6838,1,2,0:0:0:0:
256,60,7972,2,0,L|160:36,1,75
376,56,8459,5,0,0:0:0:0:
448,232,8622,1,4,0:0:0:0:
448,232,8946,1,0,0:0:0:0:
260,216,9108,1,0,0:0:0:0:
116,40,9432,1,2,0:0:0:0:
444,232,9757,2,0,L|504:304,2,75
68,280,10405,1,0,0:0:0:0:
208,48,10730,1,0,0:0:0:0:
396,44,10892,6,0,P|432:128|404:184,1,150,8|0,0:0|0:0,0:0:0:0:
240,116,11378,2,0,P|208:196|236:256,1,150,8|0,0:0|0:0,0:0:0:0:
424,320,11865,1,0,0:0:0:0:
424,52,12188,2,4,L|392:120,1,75
368,320,12512,1,8,0:0:0:0:
208,264,12675,5,0,0:0:0:0:
168,236,12756,1,0,0:0:0:0:
144,192,12837,1,4,0:0:0:0:
140,144,12918,1,0,0:0:0:0:
156,100,12999,1,0,0:0:0:0:
188,64,13080,1,0,0:0:0:0:
232,44,13161,5,8,0:0:0:0:
280,40,13242,1,0,0:0:0:0:
328,52,13323,1,0,0:0:0:0:
368,76,13404,1,0,0:0:0:0:
400,108,13485,1,8,0:0:0:0:
460,192,13648,5,0,0:0:0:0:
304,296,13810,1,4,0:0:0:0:
304,296,14134,1,0,0:0:0:0:
144,172,14296,1,0,0:0:0:0:
216,36,14621,1,2,0:0:0:0:
52,192,14945,5,0,0:0:0:0:
208,88,15107,1,4,0:0:0:0:
208,88,15431,1,0,0:0:0:0:
356,204,15593,1,0,0:0:0:0:
244,356,15756,1,0,0:0:0:0:
116,220,15918,2,0,L|76:284,1,75,0|8,0:0|0:0,0:0:0:0:
168,340,16242,5,0,0:0:0:0:
144,152,16404,1,4,0:0:0:0:
144,152,16729,1,0,0:0:0:0:
296,44,16891,1,0,0:0:0:0:
432,332,17215,1,2,0:0:0:0:
296,44,17540,1,0,0:0:0:0:
124,120,17702,1,0,0:0:0:0:
224,184,17864,1,0,0:0:0:0:
472,184,18188,2,0,P|388:148|384:72,1,150
212,52,18675,5,8,1:0:0:0:
64,108,18837,1,0,2:0:0:0:
64,108,18918,1,0,0:0:0:0:
64,108,18999,1,0,1:0:0:0:
168,264,19161,2,0,L|208:224|232:200,1,75,0|8,0:0|0:0,0:0:0:0:
300,52,19484,5,0,2:0:0:0:
448,108,19648,1,0,1:0:0:0:
436,152,19729,1,0,0:0:0:0:
424,196,19810,1,0,0:0:0:0:
412,240,19891,1,0,0:0:0:0:
400,284,19972,1,8,1:0:0:0:
284,156,20134,6,0,L|236:128,1,37.5,0|0,2:0|0:0,0:0:0:0:
116,88,20377,2,0,L|112:140,1,37.5
104,328,20621,1,8,0:0:0:0:
140,300,20702,1,0,0:0:0:0:
176,272,20783,1,0,2:0:0:0:
212,244,20864,1,0,0:0:0:0:
248,216,20945,1,0,1:0:0:0:
372,84,21107,2,8,P|436:72|392:144,1,150,8|8,0:0|1:0,0:0:0:0:
256,148,21594,5,0,1:0:0:0:
108,48,21756,1,0,0:0:0:0:
80,84,21837,1,0,0:0:0:0:
72,128,21918,1,8,0:0:0:0:
76,172,21999,1,0,0:0:0:0:
104,208,22080,1,0,2:0:0:0:
184,288,22243,1,0,1:0:0:0:
256,204,22405,1,0,0:0:0:0:
328,292,22568,1,8,1:0:0:0:
408,208,22730,5,0,2:0:0:0:
436,172,22811,1,0,0:0:0:0:
440,128,22892,1,0,1:0:0:0:
432,84,22973,1,0,0:0:0:0:
404,48,23054,1,0,0:0:0:0:
304,152,23216,5,8,0:0:0:0:
260,172,23297,1,0,0:0:0:0:
212,164,23378,1,0,2:0:0:0:
176,132,23459,1,0,0:0:0:0:
168,84,23541,1,0,1:0:0:0:
192,40,23622,1,0,0:0:0:0:
236,24,23703,1,0,0:0:0:0:
284,28,23784,1,0,0:0:0:0:
328,48,23865,6,0,P|372:92|416:212,1,187.5,0|0,1:0|1:0,1:0:0:0:
320,176,24351,2,0,B|236:168|236:168|280:120|236:64|184:36,1,243.749988842011,0|0,1:0|1:0,1:0:0:0:
104,40,24838,2,2,B|36:92|36:92|120:116|120:116|12:156|32:212|80:320|332:304,1,562.500021457673,2|4,1:0|1:0,1:0:0:0:
256,192,25811,12,0,26378,0:0:0:0:
360,104,26459,6,0,P|392:192|336:300,1,194.999991073609,0|0,1:0|3:0,1:0:0:0:
151,280,26946,2,0,P|120:192|176:84,1,194.999991073609,0|0,1:0|3:0,1:0:0:0:
256,192,27431,1,2,0:0:0:0:
256,192,27595,1,0,0:0:0:0:
256,284,27757,1,0,0:0:0:0:
107,191,27919,1,0,0:0:0:0:
256,43,28081,1,8,0:0:0:0:
404,192,28243,1,0,0:0:0:0:
256,192,28405,12,0,29054,1:0:0:0:
416,32,29216,5,0,0:0:0:0:
192,44,29378,1,2,0:0:0:0:
104,252,29541,1,0,0:0:0:0:
104,252,29622,1,0,0:0:0:0:
104,252,29703,1,0,1:0:0:0:
304,152,29865,1,0,0:0:0:0:
476,296,30027,1,2,0:0:0:0:
256,252,30189,1,0,0:0:0:0:
256,252,30270,1,0,0:0:0:0:
256,252,30351,1,0,1:0:0:0:
160,48,30512,2,0,P|108:96|100:160,1,97.4999955368044,0|2,0:0|0:0,0:0:0:0:
52,224,30838,5,0,0:0:0:0:
88,256,30919,1,0,0:0:0:0:
128,284,31000,1,0,1:0:0:0:
168,312,31081,1,0,0:0:0:0:
208,340,31162,1,0,0:0:0:0:
428,236,31324,2,0,P|360:244|332:280,1,97.4999955368044,2|0,0:0|0:0,0:0:0:0:
208,340,31649,5,0,1:0:0:0:
220,288,31730,1,0,0:0:0:0:
248,244,31810,1,4,2:0:0:0:
292,212,31892,1,0,0:0:0:0:
336,184,31973,1,0,1:0:0:0:
360,140,32054,1,0,0:0:0:0:
356,88,32135,1,4,0:0:0:0:
324,48,32216,1,0,0:0:0:0:
276,32,32297,5,0,1:0:0:0:
224,28,32378,1,0,0:0:0:0:
180,56,32459,1,0,2:0:0:0:
148,96,32541,1,0,0:0:0:0:
148,148,32622,1,0,1:0:0:0:
168,196,32703,1,0,0:0:0:0:
204,236,32784,1,0,1:0:0:0:
252,256,32865,1,0,0:0:0:0:
372,156,33108,5,0,0:0:0:0:
196,52,33270,1,4,0:0:0:0:
196,52,33595,1,0,0:0:0:0:
208,252,33757,1,0,0:0:0:0:
324,152,34081,1,2,0:0:0:0:
128,96,34243,6,0,P|88:136|84:216,1,112.500004291535,8|0,0:0|0:0,0:0:0:0:
300,228,34568,1,0,2:0:0:0:
200,28,34730,1,4,0:0:0:0:
128,240,34892,2,0,P|176:168|204:144,1,112.500004291535,8|0,0:0|0:0,0:0:0:0:
392,44,35216,1,0,2:0:0:0:
352,264,35378,1,6,0:0:0:0:
284,48,35541,6,0,P|328:108|328:160,1,112.500004291535,8|0,0:0|0:0,0:0:0:0:
232,348,35865,1,0,2:0:0:0:
156,184,36027,1,4,0:0:0:0:
292,240,36189,2,0,P|264:176|228:144,1,112.500004291535,8|0,0:0|0:0,0:0:0:0:
112,64,36512,1,8,1:0:0:0:
112,64,36676,1,6,2:0:0:0:
324,48,36838,6,0,P|392:72|424:120,1,112.500004291535,8|0,0:0|0:0,0:0:0:0:
436,316,37162,1,0,2:0:0:0:
276,192,37324,1,4,0:0:0:0:
60,288,37485,2,0,P|92:212|120:184,1,112.500004291535,8|0,0:0|0:0,0:0:0:0:
300,84,37811,1,0,2:0:0:0:
232,284,37973,1,6,0:0:0:0:
148,88,38135,6,0,P|200:68|264:72,1,112.500004291535,8|0,0:0|0:0,0:0:0:0:
140,280,38459,1,0,2:0:0:0:
304,280,38622,1,4,0:0:0:0:
392,76,38784,2,0,P|328:120|288:116,1,112.500004291535,8|0,0:0|0:0,0:0:0:0:
84,80,39108,1,8,1:0:0:0:
84,80,39270,1,6,2:0:0:0:
296,44,39431,6,0,P|276:108|300:176,1,112.500004291535,8|0,0:0|0:0,0:0:0:0:
456,284,39757,1,0,2:0:0:0:
416,76,39919,1,4,0:0:0:0:
272,232,40081,2,0,P|220:180|216:132,1,112.500004291535,8|0,0:0|0:0,0:0:0:0:
104,40,40405,1,0,2:0:0:0:
320,36,40568,1,6,0:0:0:0:
460,196,40730,6,0,P|428:272|392:284,1,112.500004291535,8|0,0:0|0:0,0:0:0:0:
192,300,41054,1,0,2:0:0:0:
380,200,41216,1,4,0:0:0:0:
320,36,41378,2,0,P|264:36|208:72,1,112.500004291535,8|0,0:0|0:0,0:0:0:0:
84,232,41702,1,8,1:0:0:0:
84,232,41865,1,6,2:0:0:0:
276,324,42027,6,0,P|248:272|260:208,1,112.500004291535,8|0,0:0|0:0,0:0:0:0:
448,136,42351,1,0,2:0:0:0:
256,36,42512,1,4,0:0:0:0:
72,144,42676,2,0,P|104:208|160:208,1,112.500004291535,8|0,0:0|0:0,0:0:0:0:
256,36,43000,1,0,2:0:0:0:
360,224,43162,1,6,0:0:0:0:
464,40,43323,5,8,0:0:0:0:
460,188,43485,1,0,0:0:0:0:
340,104,43649,1,2,2:0:0:0:
192,104,43810,5,4,1:0:0:0:
152,76,43892,1,0,0:0:0:0:
100,84,43972,1,8,1:0:0:0:
60,116,44054,1,0,0:0:0:0:
52,164,44134,1,0,1:0:0:0:
64,212,44216,1,0,0:0:0:0:
96,248,44297,1,0,2:0:0:0:
144,268,44378,1,0,0:0:0:0:
192,280,44459,1,0,1:0:0:0:
292,200,44622,6,0,L|264:256,3,37.5
348,72,45108,2,2,P|424:48|368:120,1,225.000008583069,2|0,0:0|0:0,1:0:0:0:
168,64,45595,1,0,2:0:0:0:
44,236,45757,1,6,0:0:0:0:
240,324,45919,6,0,P|248:264|216:208,1,112.500004291535,8|0,0:0|0:0,0:0:0:0:
72,60,46243,1,0,2:0:0:0:
284,60,46405,1,4,0:0:0:0:
480,152,46568,2,0,L|448:272,1,112.500004291535,8|0,0:0|0:0,0:0:0:0:
240,268,46892,1,8,1:0:0:0:
240,268,47054,1,6,2:0:0:0:
284,60,47216,6,0,P|224:92|176:136,1,112.500004291535,8|0,0:0|0:0,0:0:0:0:
60,292,47541,1,0,2:0:0:0:
88,80,47703,1,4,0:0:0:0:
316,76,47864,2,0,P|376:80|416:128,1,112.500004291535,8|0,0:0|0:0,0:0:0:0:
460,324,48189,1,0,2:0:0:0:
260,252,48351,1,6,0:0:0:0:
209,41,48512,6,0,P|264:44|329:77,1,112.500004291535,8|0,0:0|0:0,0:0:0:0:
468,224,48838,1,0,2:0:0:0:
384,100,49000,1,4,0:0:0:0:
316,236,49162,2,0,B|260:268|196:264,1,112.500004291535,8|0,0:0|0:0,0:0:0:0:
156,68,49485,1,8,1:0:0:0:
156,68,49649,1,6,2:0:0:0:
436,48,49811,6,0,L|380:204,1,112.500004291535
328,216,50054,2,0,P|296:140|228:100,1,112.500004291535
228,52,50297,2,0,P|160:64|120:104,1,112.500004291535
80,300,50621,1,4,0:0:0:0:
256,176,50784,2,0,P|280:236|336:260,1,112.500004291535,6|0,0:0|0:0,0:0:0:0:
432,76,51108,6,0,P|368:48|304:68,1,112.500004291535,8|0,0:0|0:0,0:0:0:0:
116,76,51432,1,0,2:0:0:0:
300,188,51595,1,4,0:0:0:0:
96,248,51757,2,0,P|148:304|196:320,1,112.500004291535,8|0,0:0|0:0,0:0:0:0:
444,268,52081,1,8,1:0:0:0:
444,268,52243,1,6,2:0:0:0:
180,216,52405,6,0,P|112:192|100:152,1,112.500004291535,8|0,0:0|0:0,0:0:0:0:
352,60,52730,1,0,2:0:0:0:
152,60,52892,1,4,0:0:0:0:
340,164,53054,1,8,0:0:0:0:
384,188,53135,1,0,0:0:0:0:
404,236,53216,1,0,1:0:0:0:
388,284,53297,1,0,0:0:0:0:
344,308,53377,1,0,2:0:0:0:
296,292,53459,1,0,0:0:0:0:
280,244,53541,1,4,1:0:0:0:
244,208,53622,1,0,0:0:0:0:
192,204,53703,1,2,0:0:0:0:
136,276,53865,6,0,P|96:228|92:172,1,112.500004291535
256,44,54189,1,0,0:0:0:0:
376,276,54351,1,2,0:0:0:0:
376,276,54512,2,0,P|416:228|420:172,1,112.500004291535
256,44,54838,1,0,0:0:0:0:
52,108,55000,6,0,P|112:88|172:128,1,112.500004291535,8|0,0:0|0:0,0:0:0:0:
256,296,55324,1,0,2:0:0:0:
456,104,55485,2,0,P|400:80|344:112,1,112.500004291535,0|8,0:0|0:0,0:0:0:0:
260,164,55811,1,0,0:0:0:0:
404,152,55973,1,8,1:0:0:0:
288,332,56135,1,6,2:0:0:0:
220,76,56297,6,0,P|272:48|348:48,1,112.500004291535,8|0,0:0|0:0,0:0:0:0:
480,192,56621,1,0,2:0:0:0:
292,76,56784,2,0,P|252:40|176:40,1,112.500004291535,0|8,0:0|0:0,0:0:0:0:
88,64,57108,1,0,0:0:0:0:
220,124,57270,1,8,1:0:0:0:
92,296,57432,1,6,2:0:0:0:
256,320,57595,5,0,0:0:0:0:
256,320,57676,1,0,0:0:0:0:
256,320,57757,1,0,1:0:0:0:
452,232,57919,1,0,2:0:0:0:
356,44,58081,1,0,0:0:0:0:
356,44,58162,1,0,0:0:0:0:
356,44,58243,1,0,1:0:0:0:
176,156,58405,2,0,B|104:120|88:68|92:68,2,112.500004291535,0|10|0,2:0|0:0|1:0,0:0:0:0:
384,104,58892,5,0,0:0:0:0:
404,144,58973,1,0,0:0:0:0:
400,188,59054,1,0,1:0:0:0:
380,228,59135,1,0,0:0:0:0:
340,248,59216,1,0,2:0:0:0:
296,256,59297,1,0,0:0:0:0:
256,240,59378,1,0,0:0:0:0:
232,200,59459,1,0,0:0:0:0:
232,156,59541,5,0,1:0:0:0:
220,112,59622,1,0,0:0:0:0:
188,80,59703,1,0,2:0:0:0:
144,64,59784,1,0,0:0:0:0:
100,72,59865,1,10,0:0:0:0:
64,100,59946,1,0,0:0:0:0:
44,140,60027,1,0,1:0:0:0:
44,184,60108,1,0,0:0:0:0:
48,228,60189,6,0,P|80:292|144:324,1,112.500004291535,8|0,0:0|0:0,0:0:0:0:
316,292,60512,1,0,2:0:0:0:
384,100,60676,2,0,P|428:176|416:216,1,112.500004291535,0|8,0:0|0:0,0:0:0:0:
368,292,61000,1,0,0:0:0:0:
224,264,61162,1,8,1:0:0:0:
272,32,61324,1,6,2:0:0:0:
292,240,61485,6,0,P|380:228|408:172,1,112.500004291535,8|0,0:0|0:0,0:0:0:0:
316,104,61811,1,0,2:0:0:0:
308,316,61972,2,0,P|396:304|424:248,1,112.500004291535,0|8,0:0|0:0,0:0:0:0:
320,68,62297,1,0,0:0:0:0:
192,132,62459,1,8,1:0:0:0:
432,108,62622,1,6,2:0:0:0:
432,108,62784,6,0,L|372:52,1,75.000002861023
304,40,63000,2,0,P|268:28|228:44,1,75.000002861023
268,104,63216,2,0,L|324:160,1,75.000002861023
392,176,63432,2,0,P|356:220|328:228,1,75.000002861023
264,236,63649,1,0,0:0:0:0:
196,208,63757,1,0,0:0:0:0:
164,140,63865,1,0,0:0:0:0:
180,68,63973,1,0,0:0:0:0:
256,192,64081,12,0,65377,0:0:0:0:
256,192,73485,12,0,75430,0:0:0:0:
108,280,75919,5,0,0:0:0:0:
212,104,76081,1,4,0:0:0:0:
212,104,76405,1,0,0:0:0:0:
416,88,76568,1,0,0:0:0:0:
16,40,76892,1,2,0:0:0:0:
236,164,77054,6,0,P|240:208|276:164,1,131.25
228,156,77703,2,0,P|208:198|277:151,1,236.249992790222
228,140,78351,2,0,P|193:205|285:138,1,341.249984378815
216,132,79000,2,0,P|178:195|292:129,1,393.750015020371
200,124,79649,2,0,P|161:202|288:112,1,472.499985580445
204,100,80297,2,0,P|145:177|276:89,1,600
112,52,81108,5,0,0:0:0:0:
128,252,81270,1,4,0:0:0:0:
128,252,81595,1,0,0:0:0:0:
308,156,81757,1,0,0:0:0:0:
112,52,82081,1,2,0:0:0:0:
84,240,82405,1,0,0:0:0:0:
236,104,82568,1,0,0:0:0:0:
272,304,82730,1,0,0:0:0:0:
156,168,83054,2,0,B|188:128|252:128|248:172|264:172|260:128|324:128|364:168,1,225,0|8,0:0|0:0,0:0:0:0:
256,32,84838,5,2,0:0:0:0:
464,316,85324,1,8,2:0:0:0:
48,316,85811,1,4,1:0:0:0:
284,44,86135,2,0,P|348:44|392:68,1,89.9999972534181,2|0,1:0|0:0,0:0:0:0:
468,204,86459,1,0,2:0:0:0:
288,120,86622,6,0,P|216:148|192:192,1,89.9999972534181,0|0,1:0|0:0,0:0:0:0:
40,256,86946,1,0,2:0:0:0:
236,224,87108,2,0,P|288:204|336:212,1,89.9999972534181,2|0,1:0|0:0,0:0:0:0:
472,332,87432,1,0,2:0:0:0:
464,132,87595,2,0,P|432:92|400:64,1,89.9999972534181,0|0,1:0|0:0,0:0:0:0:
208,36,87919,1,0,2:0:0:0:
364,160,88081,2,0,P|288:128|208:136,1,134.999995880127,2|0,1:0|0:0,0:0:0:0:
188,140,88405,1,2,0:0:0:0:
360,40,88568,1,8,1:0:0:0:
468,208,88730,6,0,P|480:272|464:308,1,89.9999972534181,2|0,1:0|0:0,0:0:0:0:
348,140,89053,1,0,2:0:0:0:
256,316,89215,2,0,P|284:256|272:232,1,89.9999972534181,0|0,1:0|0:0,0:0:0:0:
240,44,89540,1,0,2:0:0:0:
76,156,89702,2,0,P|56:208|64:256,1,89.9999972534181,2|0,1:0|0:0,0:0:0:0:
232,148,90026,1,0,2:0:0:0:
176,340,90188,2,0,P|248:344|272:328,1,89.9999972534181,0|0,1:0|0:0,0:0:0:0:
448,268,90512,2,0,P|460:220|432:180,1,89.9999972534181,0|8,2:0|2:0,0:0:0:0:
292,56,90838,5,0,0:0:0:0:
180,220,91000,1,2,0:0:0:0:
368,156,91162,1,8,1:0:0:0:
232,300,91324,6,0,P|172:308|128:292,1,89.9999972534181,2|0,1:0|0:0,0:0:0:0:
48,128,91649,1,0,2:0:0:0:
56,324,91811,2,0,P|68:256|96:224,1,89.9999972534181,0|0,1:0|0:0,0:0:0:0:
180,68,92135,1,0,2:0:0:0:
376,48,92297,2,0,P|344:92|308:128,1,89.9999972534181,2|0,1:0|0:0,0:0:0:0:
164,240,92622,1,0,2:0:0:0:
360,256,92784,2,0,P|416:224|424:188,1,89.9999972534181,0|0,1:0|0:0,0:0:0:0:
324,32,93108,1,0,2:0:0:0:
128,84,93270,2,0,P|116:148|184:116,1,168.750006437302,2|0,1:0|0:0,0:0:0:0:
216,92,93595,1,2,0:0:0:0:
384,160,93757,1,8,1:0:0:0:
256,288,93919,6,0,L|140:228,1,89.9999972534181,2|0,1:0|0:0,0:0:0:0:
76,96,94243,1,0,2:0:0:0:
256,76,94405,2,0,L|272:172,1,89.9999972534181,0|0,1:0|0:0,0:0:0:0:
396,296,94730,1,0,2:0:0:0:
476,136,94892,2,0,L|384:112,1,89.9999972534181,2|0,1:0|0:0,0:0:0:0:
252,232,95216,1,0,2:0:0:0:
76,272,95377,2,0,L|120:180,1,89.9999972534181,0|0,1:0|0:0,0:0:0:0:
296,172,95702,1,0,2:0:0:0:
440,280,95864,6,0,B|468:224|472:188|460:144,1,134.999995880127,0|0,1:0|0:0,0:0:0:0:
444,104,96188,1,2,0:0:0:0:
412,72,96270,1,0,0:0:0:0:
372,52,96351,1,8,1:0:0:0:
328,44,96432,1,0,0:0:0:0:
284,56,96512,2,0,P|256:68|224:64,3,44.999998626709,2|0|0|0,1:0|0:0|0:0|0:0,0:0:0:0:
140,48,96837,6,0,P|84:64|60:104,1,89.9999972534181
60,164,97080,2,0,P|108:176|144:216,1,89.9999972534181
196,156,97323,2,0,P|232:204|232:240,1,89.9999972534181
172,280,97567,2,0,P|212:312|268:320,1,89.9999972534181
316,288,97810,2,0,P|344:248|336:204,1,89.9999972534181
408,180,98054,2,0,P|384:136|336:120,1,89.9999972534181
276,100,98297,1,0,0:0:0:0:
128,68,98459,5,0,1:0:0:0:
96,100,98541,1,0,0:0:0:0:
96,144,98622,1,0,2:0:0:0:
128,176,98703,1,0,0:0:0:0:
172,180,98784,1,0,1:0:0:0:
212,204,98865,1,0,0:0:0:0:
228,248,98946,1,0,2:0:0:0:
216,292,99027,1,0,0:0:0:0:
180,320,99108,2,0,P|156:340|132:344,3,44.999998626709,2|0|2|0,0:0|0:0|0:0|0:0,0:0:0:0:
88,280,99432,6,0,P|104:232|144:204,1,89.9999972534181
192,164,99676,2,0,P|240:136|256:100,1,89.9999972534181
296,48,99919,2,0,P|344:28|392:52,1,89.9999972534181
440,76,100162,2,0,P|452:124|432:164,1,89.9999972534181
364,156,100405,2,0,P|296:160|264:184,1,89.9999972534181
232,228,100649,2,0,P|224:280|244:308,1,89.9999972534181
312,332,100892,1,0,0:0:0:0:
428,244,101054,5,0,1:0:0:0:
384,224,101135,1,0,0:0:0:0:
356,184,101216,1,0,2:0:0:0:
348,136,101297,1,0,0:0:0:0:
328,92,101378,1,0,1:0:0:0:
292,60,101459,1,0,0:0:0:0:
244,40,101541,1,0,2:0:0:0:
196,44,101622,1,0,0:0:0:0:
164,84,101703,2,0,P|152:116|160:136,3,44.999998626709,2|0|2|0,0:0|0:0|0:0|0:0,0:0:0:0:
180,204,102026,6,0,P|232:184|248:152,1,89.9999972534181
320,168,102269,2,0,P|316:108|292:88,1,89.9999972534181
228,60,102512,2,0,P|176:92|160:132,1,89.9999972534181
164,188,102756,2,0,P|184:240|168:276,1,89.9999972534181
192,340,102999,2,0,P|232:324|260:272,1,89.9999972534181
276,216,103242,2,0,P|296:168|328:152,1,89.9999972534181
400,148,103485,1,0,0:0:0:0:
288,32,103649,5,0,1:0:0:0:
240,36,103730,1,0,0:0:0:0:
196,60,103811,1,0,2:0:0:0:
172,104,103892,1,0,0:0:0:0:
172,152,103973,1,0,1:0:0:0:
192,196,104054,1,0,0:0:0:0:
228,228,104135,1,0,2:0:0:0:
248,272,104216,1,0,0:0:0:0:
252,320,104297,1,12,2:0:0:0:
424,96,109485,6,8,P|396:56|328:96,1,131.25,8|0,2:0|2:0,2:0:0:0:
304,152,110135,2,0,B|256:192|256:192|244:144|216:104|216:104|192:156|192:156|116:156,1,262.499991989136,4|0,0:0|0:0,0:0:0:0:
146,156,110622,1,0,0:0:0:0:
256,52,110784,1,8,0:0:0:0:
300,44,110865,1,0,0:0:0:0:
340,60,110946,1,0,1:0:0:0:
364,100,111027,1,0,0:0:0:0:
364,144,111108,1,8,0:0:0:0:
344,184,111189,1,0,0:0:0:0:
308,208,111270,1,0,1:0:0:0:
264,204,111351,1,0,0:0:0:0:
224,184,111432,2,0,L|184:260,1,75,12|0,0:0|0:0,0:0:0:0:
136,320,111757,5,2,0:0:0:0:
100,108,111919,1,2,1:0:0:0:
412,68,112243,5,0,0:0:0:0:
368,264,112405,1,4,0:0:0:0:
368,264,112730,1,0,0:0:0:0:
176,200,112892,1,8,0:0:0:0:
288,32,113054,1,0,1:0:0:0:
280,76,113135,1,0,0:0:0:0:
272,120,113216,1,0,1:0:0:0:
264,164,113297,1,0,0:0:0:0:
256,208,113378,6,0,L|168:236,1,75
112,156,113622,2,0,L|144:76,1,75
300,44,113865,1,0,0:0:0:0:
300,44,114027,2,0,B|344:96|344:96|300:112|296:132|296:132|300:160|300:160|324:216,1,168.750006437302
300,240,114351,1,2,0:0:0:0:
300,240,114512,1,2,1:0:0:0:
188,300,114676,6,0,P|148:312|120:224,1,157.499995193482,12|0,0:0|0:0,0:0:0:0:
312,192,115323,1,0,0:0:0:0:
116,136,115485,1,0,2:0:0:0:
296,44,115649,2,0,P|340:60|368:104,1,75,0|0,0:0|2:0,0:0:0:0:
448,156,115973,5,8,0:0:0:0:
444,208,116054,1,0,0:0:0:0:
420,256,116135,1,2,1:0:0:0:
380,288,116216,1,0,0:0:0:0:
328,288,116297,1,8,2:0:0:0:
288,256,116378,1,0,0:0:0:0:
268,208,116459,1,2,1:0:0:0:
264,156,116541,1,0,0:0:0:0:
292,112,116622,5,8,0:0:0:0:
244,92,116703,1,0,0:0:0:0:
192,76,116784,1,2,1:0:0:0:
140,64,116865,1,0,0:0:0:0:
88,52,116946,1,8,2:0:0:0:
108,100,117027,1,0,0:0:0:0:
128,148,117108,1,2,1:0:0:0:
152,196,117189,1,0,0:0:0:0:
176,240,117270,5,12,0:0:0:0:
272,284,117432,1,0,0:0:0:0:
172,304,117595,1,8,0:0:0:0:
172,304,117919,1,0,0:0:0:0:
312,156,118081,1,8,0:0:0:0:
104,68,118405,1,2,0:0:0:0:
388,160,118730,2,0,P|368:108|380:84,2,75
428,332,119216,5,8,0:0:0:0:
400,296,119297,1,0,0:0:0:0:
364,268,119378,1,0,1:0:0:0:
324,244,119459,1,0,0:0:0:0:
280,232,119541,1,8,0:0:0:0:
236,232,119622,1,0,0:0:0:0:
192,240,119703,1,0,1:0:0:0:
156,264,119784,1,0,0:0:0:0:
124,296,119865,5,8,0:0:0:0:
88,96,120027,2,0,P|152:64|200:60,1,112.500004291535,0|0,0:0|2:0,0:0:0:0:
336,200,120351,1,4,0:0:0:0:
468,44,120512,2,0,P|400:48|344:76,1,112.500004291535,8|0,0:0|0:0,0:0:0:0:
180,160,120838,1,0,2:0:0:0:
64,328,121000,1,6,0:0:0:0:
60,124,121162,6,0,P|104:72|164:56,1,112.500004291535,8|0,0:0|0:0,0:0:0:0:
332,140,121485,1,0,2:0:0:0:
200,296,121649,1,4,0:0:0:0:
404,296,121810,2,0,P|388:228|352:176,1,112.500004291535,8|0,0:0|0:0,0:0:0:0:
224,48,122135,1,8,1:0:0:0:
140,232,122297,1,6,2:0:0:0:
84,36,122459,5,8,0:0:0:0:
288,52,122621,2,0,P|360:76|392:120,1,112.500004291535,0|0,0:0|2:0,0:0:0:0:
452,292,122946,1,4,0:0:0:0:
252,320,123108,2,0,P|184:296|152:248,1,112.500004291535,8|0,0:0|0:0,0:0:0:0:
132,64,123432,1,0,2:0:0:0:
48,248,123595,1,6,0:0:0:0:
248,224,123757,6,0,P|296:252|368:256,1,112.500004291535,8|0,0:0|0:0,0:0:0:0:
468,92,124080,1,0,2:0:0:0:
484,292,124243,1,4,0:0:0:0:
364,128,124405,2,0,P|328:68|280:20,1,112.500004291535,8|0,0:0|0:0,0:0:0:0:
264,196,124729,1,6,0:0:0:0:
100,76,124891,1,8,1:0:0:0:
188,260,125054,1,8,0:0:0:0:
424,164,125378,5,0,0:0:0:0:
400,120,125459,1,0,0:0:0:0:
356,92,125541,1,2,1:0:0:0:
308,76,125622,1,0,0:0:0:0:
256,76,125703,1,0,2:0:0:0:
208,96,125784,1,0,0:0:0:0:
172,132,125865,1,0,0:0:0:0:
160,180,125946,1,0,0:0:0:0:
212,176,126027,5,2,1:0:0:0:
260,192,126108,1,0,0:0:0:0:
292,232,126189,1,0,0:0:0:0:
308,280,126270,1,0,0:0:0:0:
292,328,126351,1,0,2:0:0:0:
248,352,126432,1,0,0:0:0:0:
200,340,126512,1,2,1:0:0:0:
168,304,126594,1,0,0:0:0:0:
160,252,126676,2,0,P|176:196|212:188,3,56.2500021457673
212,168,127000,5,2,2:0:0:0:
260,156,127081,1,0,0:0:0:0:
308,172,127162,1,0,0:0:0:0:
340,208,127243,1,0,0:0:0:0:
392,212,127324,1,0,1:0:0:0:
436,188,127405,1,0,0:0:0:0:
456,140,127485,1,2,1:0:0:0:
440,92,127568,1,0,0:0:0:0:
404,56,127649,6,0,P|376:36|352:32,3,56.2500021457673,0|0|0|0,2:0|0:0|0:0|0:0,0:0:0:0:
304,32,127973,1,2,1:0:0:0:
260,60,128054,1,0,0:0:0:0:
240,108,128135,1,0,0:0:0:0:
256,156,128216,1,0,0:0:0:0:
268,204,128297,1,0,2:0:0:0:
248,252,128378,1,0,0:0:0:0:
208,284,128459,1,2,1:0:0:0:
156,284,128541,5,0,0:0:0:0:
124,244,128622,1,0,1:0:0:0:
120,192,128703,1,0,0:0:0:0:
136,144,128784,1,0,0:0:0:0:
172,108,128865,1,0,0:0:0:0:
220,96,128946,1,4,1:0:0:0:
268,108,129026,2,0,P|296:132|320:140,3,56.2500021457673,0|0|4|0,0:0|0:0|1:0|0:0,0:0:0:0:
364,140,129351,5,0,0:0:0:0:
412,124,129432,1,4,1:0:0:0:
452,88,129512,1,0,0:0:0:0:
404,64,129595,1,0,0:0:0:0:
356,56,129676,1,4,1:0:0:0:
304,60,129757,1,0,0:0:0:0:
264,88,129838,1,0,0:0:0:0:
236,132,129919,1,12,0:0:0:0:
244,180,130000,1,0,0:0:0:0:
268,224,130081,1,12,0:0:0:0:
312,252,130162,1,0,0:0:0:0:
364,252,130243,5,8,0:0:0:0:
456,92,130405,2,0,P|384:60|332:56,1,112.500004291535,0|0,0:0|2:0,0:0:0:0:
208,184,130730,1,4,0:0:0:0:
88,36,130892,2,0,P|52:88|48:144,1,112.500004291535
128,308,131216,1,0,2:0:0:0:
300,228,131378,1,6,0:0:0:0:
236,48,131540,5,8,0:0:0:0:
424,72,131703,2,0,P|448:128|448:200,1,112.500004291535,0|0,0:0|2:0,0:0:0:0:
312,308,132027,1,4,0:0:0:0:
248,128,132189,2,0,P|184:104|120:104,1,112.500004291535
100,288,132512,1,0,1:0:0:0:
100,288,132676,1,6,0:0:0:0:
300,304,132838,5,0,0:0:0:0:
440,160,133000,2,0,P|388:136|304:132,1,112.500004291535,0|0,1:0|0:0,0:0:0:0:
212,292,133324,1,0,1:0:0:0:
36,188,133485,2,0,P|72:112|104:84,1,112.500004291535
264,200,133811,1,0,0:0:0:0:
152,32,133973,5,0,1:0:0:0:
152,32,134297,1,0,0:0:0:0:
400,248,134459,1,0,0:0:0:0:
312,64,134622,1,8,1:0:0:0:
76,332,134945,1,0,1:0:0:0:
256,192,135270,1,0,0:0:0:0:
256,192,135432,5,2,1:0:0:0:
256,192,135512,12,4,140620,0:0:0:0:
