osu file format v14

[General]
AudioFilename: audio.mp3
AudioLeadIn: 0
PreviewTime: 117269
Countdown: 1
SampleSet: None
StackLeniency: 0.7
Mode: 0
LetterboxInBreaks: 0
WidescreenStoryboard: 1

[Editor]
Bookmarks: 513,34242,75756,86134,109460,119864,135405
DistanceSpacing: 1
BeatDivisor: 2
GridSize: 16
TimelineZoom: 1.1

[Metadata]
Title:Tougenkyou
TitleUnicode:Tougenkyou
Artist:MYTK
ArtistUnicode:MYTK
Creator:Riosnake
Version:Easy
Source:VOEZ
Tags:
BeatmapID:1002157
BeatmapSetID:468227

[Difficulty]
HPDrainRate:2
CircleSize:2
OverallDifficulty:5
ApproachRate:4
SliderMultiplier:1
SliderTickRate:2

[Events]
//Background and Video events
0,0,"Tougenkyou_Back.jpg",0,0
//Break Periods
2,65577,73350
2,104496,108166
//Storyboard Layer 0 (Background)
//Storyboard Layer 1 (Fail)
//Storyboard Layer 2 (Pass)
//Storyboard Layer 3 (Foreground)
//Storyboard Sound Samples

[TimingPoints]
513,324.324324324324,4,3,0,100,1,0
513,-100,4,3,0,5,0,0
837,-100,4,3,0,10,0,0
1161,-100,4,3,0,15,0,0
1810,-100,4,3,0,20,0,0
3107,-100,4,3,0,100,0,0
34242,-100,4,3,0,100,0,1
65377,-100,4,3,0,100,0,0
119864,-100,4,3,0,100,0,1
135431,-100,4,3,0,100,0,0
135918,-100,4,3,0,95,0,0
136404,-100,4,3,0,90,0,0
136891,-100,4,3,0,80,0,0
137377,-100,4,3,0,75,0,0
137864,-100,4,3,0,60,0,0
138350,-100,4,3,0,50,0,0
138837,-100,4,3,0,40,0,0
139323,-100,4,3,0,30,0,0
139810,-100,4,3,0,20,0,0
140296,-100,4,3,0,15,0,0
140621,-100,4,3,0,10,0,0

[HitObjects]
256,192,513,12,0,2458,0:0:0:0:
368,144,3269,6,0,B|368:96|320:64|256:48|192:64|144:96|144:144,1,300,0|2,0:0|0:0,0:0:0:0:
256,192,5377,1,0,2:0:0:0:
368,240,5864,6,0,B|368:288|320:320|256:336|192:320|144:288|144:240,1,300,0|2,0:0|0:0,0:0:0:0:
120,96,7972,1,0,2:0:0:0:
256,32,8458,6,0,B|352:64|352:64|320:160|320:160|416:208,1,300,0|8,0:0|0:0,0:0:0:0:
256,336,10080,1,4,1:0:0:0:
104,203,10891,6,0,B|192:160|192:160|160:64|160:64|256:32,1,300
352,32,12188,1,4,0:0:0:0:
304,224,12837,1,4,0:0:0:0:
464,112,13485,6,12,B|416:48|400:48|368:112|336:176|304:176|272:112|240:48|208:48|176:112|144:176|112:176,1,400,12|2,1:0|0:0,0:0:0:0:
256,320,15431,1,0,2:0:0:0:
432,224,16080,2,0,B|384:288|352:288|320:224|288:160|256:160|224:96|192:32|160:32|144:192|144:112,1,400,12|2,1:0|0:0,0:0:0:0:
64,320,18026,1,0,2:0:0:0:
256,192,18675,12,0,23540,0:0:0:0:
128,64,23864,6,0,B|128:144|128:144|176:144|192:176,2,150
256,224,25810,1,2,1:0:0:0:
320,112,26458,6,0,B|399:112|399:112|399:63|431:47,2,150
224,224,28404,1,2,1:0:0:0:
288,32,29053,2,0,B|384:80|352:112|336:160|336:160|400:160|400:160|432:128|496:128,1,300,8|2,0:0|1:0,0:0:0:0:
464,224,30350,2,0,B|416:288|416:288|384:240|384:240|352:288|352:288|320:240|320:240|288:288|288:288,1,300,8|2,0:0|1:0,0:0:0:0:
192,288,31648,1,8,0:0:0:0:
96,112,32296,1,8,0:0:0:0:
256,192,32945,1,12,1:0:0:0:
160,80,34242,5,8,0:0:0:0:
368,80,34891,1,0,2:0:0:0:
368,288,35540,2,0,B|304:240|304:240|304:160|304:160|256:160,1,200,10|4,0:0|1:0,0:0:0:0:
64,160,36837,5,8,0:0:0:0:
192,320,37486,1,0,2:0:0:0:
224,128,38134,2,0,B|304:64|304:64|384:128|384:128|384:128,1,200,10|4,0:0|1:0,0:0:0:0:
432,320,39431,5,8,0:0:0:0:
256,224,40080,1,0,2:0:0:0:
400,96,40729,2,0,P|432:96|384:176,1,200,10|4,0:0|1:0,0:0:0:0:
224,64,42026,5,8,0:0:0:0:
48,160,42675,1,0,2:0:0:0:
192,288,43323,2,0,B|208:160|208:160|256:208|256:208|304:160|304:160|320:304,1,400,8|4,0:0|1:0,0:0:0:0:
256,48,45918,5,10,0:0:0:0:
256,256,46567,1,4,1:0:0:0:
448,192,47215,2,0,B|432:112|368:80|272:80,1,200,8|0,0:0|2:0,0:0:0:0:
96,80,48513,5,10,0:0:0:0:
256,192,49161,1,4,1:0:0:0:
64,192,49810,2,0,B|80:112|144:80|240:80,1,200,8|0,0:0|0:0,0:0:0:0:
416,80,51107,5,8,0:0:0:0:
416,288,51756,1,4,1:0:0:0:
224,288,52404,2,0,B|160:256|160:256|160:208|160:208|224:160,1,200,8|0,0:0|2:0,0:0:0:0:
432,160,53702,2,0,B|464:208|464:208|432:240|432:240|448:272|448:272|400:320,2,200,8|8|8,0:0|1:0|0:0,0:0:0:0:
256,48,55648,1,0,2:0:0:0:
64,48,56296,6,0,B|160:96|160:96|160:208,1,200,8|4,1:0|2:0,0:0:0:0:
320,304,57594,1,8,0:0:0:0:
192,144,58242,1,4,0:0:0:0:
368,48,58891,1,8,0:0:0:0:
400,240,59540,1,4,0:0:0:0:
208,288,60188,6,0,B|160:272|96:288|96:288|96:224|128:192,1,200,8|0,0:0|2:0,0:0:0:0:
288,96,61485,2,0,B|240:48|208:32|144:48|96:96,1,200,8|4,1:0|2:0,0:0:0:0:
256,192,62783,12,4,65377,0:0:0:0:
64,320,75756,6,0,B|128:320|128:320|176:272|176:272|224:272|224:272|256:240|272:192|256:144|256:144|160:144|160:144|128:192|128:192|96:192|96:192|64:144|64:80,1,600,0|6,0:0|0:0,0:0:0:0:
208,48,78350,2,0,B|288:32|288:32|336:96|336:96|400:0|528:96|480:288|336:272|288:96|336:352,1,600,0|6,0:0|0:0,0:0:0:0:
176,336,80945,2,0,B|208:288|208:240|64:288|64:288|112:192|112:192|144:144|32:128|80:48|80:48|176:32|192:96|192:128|192:128,1,600,0|6,0:0|0:0,0:0:0:0:
256,192,83540,1,4,2:0:0:0:
48,144,86134,6,0,L|176:64,1,150,8|8,0:0|1:0,0:0:0:0:
336,64,87107,2,0,L|480:160,1,150,12|8,0:0|1:0,0:0:0:0:
460,147,88080,1,4,2:0:0:0:
464,240,88729,6,0,L|336:320,1,150,8|8,0:0|1:0,0:0:0:0:
176,320,89702,2,0,L|32:224,1,150,12|8,0:0|1:0,0:0:0:0:
51,236,90675,1,4,2:0:0:0:
256,80,91323,6,0,B|192:80|160:112|160:176,1,150,8|8,0:0|1:0,0:0:0:0:
352,160,92296,2,0,B|352:224|320:256|256:256,1,150,12|8,0:0|1:0,0:0:0:0:
64,256,93269,1,4,2:0:0:0:
320,272,93918,6,0,B|288:224|288:224|288:208|288:192|288:192|256:128,1,150,8|8,0:0|1:0,0:0:0:0:
80,64,94891,2,0,B|48:96|48:96|96:128|96:128|48:176,1,150,12|8,0:0|1:0,0:0:0:0:
64,336,95864,2,0,B|128:288|128:256|160:256|160:256|160:224|160:224|192:224|192:224|192:192|192:192,1,200,4|0,2:0|0:0,0:0:0:0:
192,80,96837,6,0,B|272:80|368:112|368:256|160:240|144:160|272:48|368:32|368:32|384:64|368:128|368:128|416:128|464:224,1,700,2|6,2:0|0:0,0:0:0:0:
336,256,99431,2,0,B|272:320|272:320|224:272|224:272|224:192|224:192|272:144|272:144|352:144|352:144|272:48|272:48|256:48|256:48|176:128|176:128|96:128|96:128,1,700,2|6,2:0|0:0,0:0:0:0:
80,256,102026,2,0,B|160:256|160:256|144:224|112:176|112:128|144:80|176:64|256:48|336:64|368:80|400:128|400:176|368:224|352:256|352:256|448:256,1,700,2|4,2:0|0:0,0:0:0:0:
368,64,109486,5,8,0:0:0:0:
256,224,110134,1,4,2:0:0:0:
160,64,110783,2,0,B|128:96|128:96|160:128|160:128|128:160|128:160|160:192|160:192|128:208,1,200,0|0,1:0|3:0,1:0:0:0:
336,256,112080,6,0,B|368:224|368:224|336:176,1,100,8|8,0:0|0:0,0:0:0:0:
336,80,112729,1,2,1:0:0:0:
144,80,113377,6,0,B|96:112|96:112|144:144|144:144|64:224,1,200,0|0,1:0|3:0,1:0:0:0:
256,304,114675,5,8,0:0:0:0:
416,192,115323,1,4,2:0:0:0:
240,96,115972,2,0,P|208:64|240:176,1,400,0|0,0:0|0:0,1:0:0:0:
384,80,117918,1,0,1:0:0:0:
352,272,118567,1,2,3:0:0:0:
240,112,119215,1,14,1:0:0:0:
128,272,119864,6,0,B|96:192|96:192|160:208|224:208|272:176|304:112,1,300,8|2,0:0|0:0,0:0:0:0:
352,64,121161,1,0,1:0:0:0:
416,256,121810,1,4,1:0:0:0:
256,144,122458,6,0,B|224:64|224:64|176:112|160:112|112:64|112:64|80:144,1,300,8|2,0:0|0:0,0:0:0:0:
80,240,123756,1,0,1:0:0:0:
256,320,124404,1,4,0:0:0:0:
464,208,125053,6,0,B|464:144|464:144|416:144|384:112|384:64|384:64,1,150,4|2,0:0|0:0,0:0:0:0:
224,64,126026,2,0,B|192:16|160:80|144:32|144:32|128:16|64:48,1,150,4|2,0:0|0:0,0:0:0:0:
64,208,126999,2,0,B|112:192|112:192|96:240|144:304,1,150,4|2,0:0|0:0,0:0:0:0:
304,336,127972,2,0,P|304:272|224:208,1,150,4|2,0:0|0:0,0:0:0:0:
128,112,128945,2,0,B|176:48|176:48|208:48|208:48|224:112|224:112|288:112|288:112|320:80|320:80|336:48|336:48,1,300,4|12,0:0|1:0,3:0:0:0:
448,48,130242,6,0,B|448:176|448:176|432:192|400:160|368:208|336:176|416:304|416:304|384:304,1,350,8|0,0:0|1:0,0:0:0:0:
96,288,132188,1,4,1:0:0:0:
336,320,132837,6,0,B|416:256|416:256|272:192|416:144|416:144|368:112|400:112|352:96|368:80,1,350,8|0,0:0|1:0,0:0:0:0:
256,192,134783,1,4,1:0:0:0:
256,192,135431,12,12,140621,0:0:0:0:
