osu file format v14

[General]
AudioFilename: audio.mp3
AudioLeadIn: 0
PreviewTime: 0
Countdown: 0
SampleSet: Soft
StackLeniency: 0.2
Mode: 0
LetterboxInBreaks: 0
WidescreenStoryboard: 1

[Editor]
Bookmarks: 37557,62043,64638,67233,69827,80206,80368,87989,90584,100962,108746,110692,113935,120422,121719,124314,129503,133395,134692,139881
DistanceSpacing: 0.6
BeatDivisor: 4
GridSize: 4
TimelineZoom: 3.499999

[Metadata]
Title:Tougenkyou
TitleUnicode:Tougenkyou
Artist:MYTK
ArtistUnicode:MYTK
Creator:-Eriri-
Version:lsahi's Extra
Source:Voez
Tags:Dynamix lsahi gyh000514
BeatmapID:1776118
BeatmapSetID:845693

[Difficulty]
HPDrainRate:6
CircleSize:4
OverallDifficulty:7
ApproachRate:9
SliderMultiplier:2.1
SliderTickRate:1

[Events]
//Background and Video events
0,0,"1.jpg",0,0
//Break Periods
2,65049,74627
//Storyboard Layer 0 (Background)
//Storyboard Layer 1 (Fail)
//Storyboard Layer 2 (Pass)
//Storyboard Layer 3 (Foreground)
//Storyboard Sound Samples

[TimingPoints]
-8,324.289266025295,4,2,0,50,1,0
2748,-133.333333333333,4,2,0,50,0,0
10369,-200,4,2,0,50,0,0
10855,-133.333333333333,4,2,0,50,0,0
11342,-100,4,2,0,50,0,0
12963,-100,4,2,0,50,0,0
18152,-133.333333333333,4,2,0,50,0,0
20746,-100,4,2,0,50,0,0
33718,-66.6666666666667,4,2,0,50,0,0
41501,-100,4,2,0,50,0,0
42149,-80,4,2,0,50,0,0
42798,-66.6666666666667,4,2,0,50,0,0
44419,-100,4,2,0,50,0,0
44581,-66.6666666666667,4,2,0,50,0,0
45878,-66.6666666666667,4,2,0,50,0,0
49283,-55.5555555555556,4,2,0,50,0,0
49770,-100,4,2,0,50,0,0
50175,-66.6666666666667,4,2,0,50,0,0
50581,-66.6666666666667,4,2,0,50,0,0
51229,-100,4,2,0,50,0,0
51553,-66.6666666666667,4,2,0,50,0,0
57066,-133.333333333333,4,2,0,50,0,0
59661,-66.6666666666667,4,2,0,50,0,0
62255,-100,4,2,0,50,0,0
75227,-133.333333333333,4,2,0,50,0,0
85604,-66.6666666666667,4,2,0,50,0,0
96305,-100,4,2,0,50,0,0
96792,-80,4,2,0,50,0,0
97278,-66.6666666666667,4,2,0,50,0,0
98575,-100,4,2,0,50,0,0
99386,-80,4,2,0,50,0,0
99873,-66.6666666666667,4,2,0,50,0,0
101494,-100,4,2,0,50,0,0
101980,-80,4,2,0,50,0,0
102467,-66.6666666666667,4,2,0,50,0,0
108953,-133.333333333333,4,2,0,50,0,0
116736,-100,4,2,0,50,0,0
119330,-66.6666666666667,4,2,0,50,0,0

[HitObjects]
379,102,2748,6,0,B|440:91|440:91|415:119,1,78.7500030040742
373,211,3234,2,0,B|312:200|312:200|337:228,1,78.7500030040742
382,313,3721,1,0,0:0:0:0:
116,316,4856,6,0,P|106:288|119:216,1,78.7500030040742
163,48,5342,2,0,B|203:43|203:43|258:51,1,78.7500030040742
391,333,5829,2,0,B|351:338|351:338|296:330,1,78.7500030040742
102,197,6315,6,0,B|237:122|285:270|417:184,1,315
276,73,7450,2,0,P|300:109|344:124,1,78.7500030040742
186,266,7937,6,0,P|220:282|241:316,1,78.7500030040742
329,148,8423,2,0,P|294:164|273:198,1,78.7500030040742
186,42,8909,1,0,0:0:0:0:
59,137,9234,6,0,L|146:111,2,78.7500030040742
216,120,9882,1,0,0:0:0:0:
137,322,10207,5,0,0:0:0:0:
214,259,10369,2,0,P|261:272|235:239,1,105
237,166,10855,2,0,P|196:147|263:118,1,157.500006008148
336,152,11342,2,0,P|396:144|325:75,1,210
339,169,11828,6,0,B|405:183|470:144|470:144|445:171|453:220,1,210
418,329,12314,2,0,P|400:296|398:265,2,52.5
266,271,12639,1,0,0:0:0:0:
289,260,12720,1,0,0:0:0:0:
307,241,12801,1,0,0:0:0:0:
313,215,12882,1,0,0:0:0:0:
305,188,12963,6,0,B|283:132|283:132|221:151,1,105
178,336,13287,2,0,P|195:271|162:175,1,157.5
85,152,13612,2,0,P|25:174|110:227,1,210
403,73,14260,5,0,0:0:0:0:
481,316,14422,2,0,P|428:318|375:283,1,105
416,86,14909,2,0,B|416:142|416:142|379:178|379:178|373:297,1,210
470,303,15395,1,0,0:0:0:0:
270,308,15557,5,0,0:0:0:0:
470,303,15720,2,0,P|417:305|364:270,1,105
114,104,16206,2,0,P|217:107|307:54,1,210
241,199,16692,1,0,0:0:0:0:
501,180,16855,5,0,0:0:0:0:
305,50,17017,2,0,P|295:111|313:163,1,105
399,245,17341,1,0,0:0:0:0:
135,198,17503,6,0,B|188:203|188:203|235:186|235:186|352:196,1,210
171,91,17989,1,0,0:0:0:0:
350,298,18152,6,0,L|261:288,2,78.7500030040742
465,91,18638,2,0,L|417:96,1,39.3750015020371
384,122,18800,2,0,L|334:114,1,39.3750015020371
308,84,18962,1,0,0:0:0:0:
47,223,19125,1,0,0:0:0:0:
65,216,19206,1,0,0:0:0:0:
83,208,19287,1,0,0:0:0:0:
101,213,19368,1,0,0:0:0:0:
116,217,19449,6,0,L|96:319,1,78.7500030040742
252,345,19692,1,0,0:0:0:0:
267,333,19773,1,0,0:0:0:0:
277,316,19854,1,0,0:0:0:0:
281,294,19935,1,0,0:0:0:0:
300,163,20097,6,0,L|346:154,1,39.3750015020371
239,71,20260,2,0,L|292:77,1,39.3750015020371
111,180,20422,2,0,L|207:160,1,78.7500030040742
381,62,20746,6,0,L|361:193,1,105
451,303,21070,2,0,P|420:277|395:268,1,52.5
228,240,21232,2,0,P|270:237|289:239,1,52.5
481,161,21395,1,0,0:0:0:0:
456,170,21476,1,0,0:0:0:0:
429,172,21557,1,0,0:0:0:0:
402,170,21638,1,0,0:0:0:0:
377,160,21719,2,0,P|361:123|358:107,1,52.5
239,100,21881,2,0,P|255:63|258:47,1,52.5
257,51,22043,6,0,L|122:68,1,105
68,76,22286,1,0,0:0:0:0:
63,101,22367,1,0,0:0:0:0:
57,126,22449,1,0,0:0:0:0:
51,151,22530,1,0,0:0:0:0:
134,317,22692,5,0,0:0:0:0:
179,329,22773,1,0,0:0:0:0:
224,317,22854,1,0,0:0:0:0:
246,275,22935,1,0,0:0:0:0:
238,228,23016,1,0,0:0:0:0:
244,181,23097,1,0,0:0:0:0:
278,149,23178,1,0,0:0:0:0:
324,138,23259,1,0,0:0:0:0:
369,150,23340,6,0,B|401:222|376:314|376:314|313:290|308:218,1,262.5
315,244,23827,2,0,B|396:230|457:288|457:288|478:232|465:178,1,262.5
441,96,24313,6,0,B|394:93|349:96|349:96|366:197|386:271|386:271|422:272|461:281|461:281|435:172|435:172|375:161|301:177,1,577.5
250,223,25286,6,0,B|228:228|228:228|206:218|206:218|178:226|178:226|155:213|155:213|127:222|127:222|97:200|39:204,1,210
67,307,25935,6,0,P|150:271|38:220,1,262.5
52,203,26421,2,0,B|75:56|75:56|163:131,1,262.5
226,175,26908,2,0,P|251:107|281:156,1,157.5
289,233,27232,5,0,0:0:0:0:
250,246,27394,1,0,0:0:0:0:
271,71,27556,5,0,0:0:0:0:
309,64,27718,1,0,0:0:0:0:
370,355,27880,6,0,B|360:289|360:289|362:179,1,157.5
366,122,28205,2,0,B|439:128|439:128|400:149,1,105
204,250,28529,6,0,P|179:191|176:137,1,105
261,111,28853,2,0,L|377:123,1,105
247,340,29178,2,0,L|131:328,1,105
54,287,29502,2,0,P|79:228|82:174,1,105
434,226,29826,6,0,P|378:234|330:278,1,105
206,202,30150,2,0,L|196:76,1,105
291,38,30394,1,0,0:0:0:0:
322,42,30475,1,0,0:0:0:0:
353,46,30556,1,0,0:0:0:0:
384,50,30637,1,0,0:0:0:0:
415,55,30718,1,0,0:0:0:0:
445,61,30799,2,0,B|426:120|426:120|382:147,1,105
269,129,31123,6,0,B|252:108|252:108|246:70,1,52.5
163,176,31285,1,0,0:0:0:0:
163,176,31366,1,0,0:0:0:0:
163,176,31448,2,0,B|180:197|180:197|186:235,1,52.5
62,275,31610,2,0,B|45:254|45:254|39:216,1,52.5
117,54,31772,6,0,L|186:59,1,52.5
105,69,31934,2,0,L|166:75,1,52.5
395,177,32096,2,0,L|326:182,1,52.5
407,192,32258,2,0,L|346:198,1,52.5
371,216,32583,5,0,0:0:0:0:
317,282,32745,1,0,0:0:0:0:
257,111,33069,5,0,0:0:0:0:
311,45,33231,1,0,0:0:0:0:
257,111,33555,5,0,0:0:0:0:
229,280,33718,6,0,B|153:253|58:287|58:287|109:233,1,236.250009012223
315,156,34042,2,0,B|324:198|324:198|319:236,1,78.7500030040742
233,298,34204,2,0,P|132:280|258:241,1,315.000012016297
404,185,34609,1,0,0:0:0:0:
404,185,34690,2,0,P|349:187|297:156,1,78.7500030040742
179,106,34853,2,0,P|234:104|286:135,1,78.7500030040742
192,337,35015,5,0,0:0:0:0:
349,274,35177,2,0,B|377:262|377:262|407:272|407:272|436:262|436:262|468:272|468:272|497:262,1,157.500006008148
476,102,35501,2,0,B|409:46|325:40|325:40|310:89|329:131,1,236.250009012223
255,251,35825,2,0,P|262:207|251:168,1,78.7500030040742
185,114,35988,2,0,P|131:123|187:90,1,157.500006008148
207,213,36312,6,0,B|121:228|56:178|56:178|69:216|58:256,1,236.250009012223
72,93,36636,2,0,B|45:46|45:46|87:52,1,78.7500030040742
297,38,36798,2,0,B|327:173|207:214|207:214|190:64,1,315.000012016297
213,42,37204,1,0,0:0:0:0:
213,42,37285,2,0,B|297:39|297:39|261:131,1,157.500006008148
242,240,37609,5,0,0:0:0:0:
277,348,37771,2,0,B|230:348|230:348|261:305,1,78.7500030040742
363,198,37933,2,0,B|385:217|385:217|306:199,1,78.7500030040742
174,169,38095,2,0,B|121:153|121:153|137:213,1,78.7500030040742
184,251,38258,6,0,L|178:123,1,118.125004506111
191,108,38420,2,0,P|247:99|315:116,1,118.125004506111
326,133,38582,5,0,0:0:0:0:
321,276,38744,1,0,0:0:0:0:
311,99,38906,5,0,0:0:0:0:
466,132,39068,1,0,0:0:0:0:
466,154,39149,1,0,0:0:0:0:
461,174,39231,2,0,P|415:171|381:152,1,78.7500030040742
304,160,39393,2,0,P|296:63|246:184,1,315.000012016297
147,265,39798,1,0,0:0:0:0:
147,265,39879,2,0,B|94:256|94:256|140:232,1,78.7500030040742
91,137,40041,2,0,B|109:131|109:131|75:117,1,39.3750015020371
54,325,40203,5,0,0:0:0:0:
20,54,40366,1,0,0:0:0:0:
35,58,40447,1,0,0:0:0:0:
49,63,40528,2,0,P|55:111|48:153,1,78.7500030040742
37,232,40690,2,0,B|96:232|131:275|131:275|149:242|192:230|192:230|230:240|258:261|258:261|268:236|260:200,1,315.000012016297
337,287,41176,2,0,P|344:263|344:197,1,78.7500030040742
351,298,41338,2,0,P|361:237|361:212,1,78.7500030040742
141,54,41501,5,0,0:0:0:0:
280,76,41663,2,0,L|339:87,1,52.5
412,92,41825,2,0,L|285:109,1,105
470,171,42149,5,0,0:0:0:0:
314,194,42311,2,0,L|241:206,1,65.625
170,213,42473,2,0,L|321:233,1,131.25
446,271,42798,5,0,0:0:0:0:
128,291,42960,1,0,0:0:0:0:
502,340,43122,1,0,0:0:0:0:
305,352,43284,2,0,P|299:317|301:264,1,78.7500030040742
478,204,43446,2,0,P|437:223|386:226,1,78.7500030040742
500,76,43608,2,0,P|475:45|442:23,1,78.7500030040742,0|0,0:3|0:3,0:3:0:0:
305,143,43771,2,0,P|307:103|321:67,1,78.7500030040742,0|0,0:3|0:3,0:3:0:0:
128,35,43933,2,0,P|148:94|149:131,1,78.7500030040742
43,221,44095,5,0,0:0:0:0:
58,219,44176,1,0,0:0:0:0:
73,217,44257,1,0,0:0:0:0:
88,215,44338,1,0,0:0:0:0:
74,300,44419,2,0,L|139:289,1,52.5
175,222,44581,5,0,0:0:0:0:
174,203,44662,1,0,0:0:0:0:
97,174,44743,2,0,B|93:217|93:217|104:258,1,78.7500030040742
440,243,44906,1,0,0:0:0:0:
420,233,45068,2,0,B|392:234|372:238|372:238|347:238|325:224,1,78.7500030040742
197,81,45230,2,0,B|249:71|249:71|203:125,1,78.7500030040742
214,298,45392,2,0,P|131:259|224:186,1,236.250009012223
47,193,45716,2,0,P|67:158|107:117,1,78.7500030040742
325,104,45878,6,0,B|297:108|272:100|272:100|232:107|232:107|200:98|172:112|172:112|157:100|142:94,2,157.500006008148
467,221,46365,2,0,P|404:248|392:168,1,157.500006008148
95,66,46689,5,0,0:0:0:0:
140,212,46851,1,0,0:0:0:0:
140,212,46932,1,0,0:0:0:0:
140,212,47013,2,0,P|85:221|34:213,1,78.7500030040742
251,228,47176,2,0,P|250:168|404:225,1,315.000012016297
278,237,47581,1,0,0:0:0:0:
251,228,47662,2,0,B|326:210|326:210|410:224,1,157.500006008148
98,307,47986,5,0,0:0:0:0:
74,185,48148,1,0,0:0:0:0:
50,63,48311,2,0,B|115:52|115:52|103:181,1,157.500006008148
259,298,48635,2,0,B|261:258|278:226|278:226|247:192|249:137,1,157.500006008148
349,292,48959,2,0,P|390:333|419:347,1,78.7500030040742
357,76,49121,2,0,P|340:132|341:164,1,78.7500030040742
211,141,49283,6,0,P|146:125|22:201,1,188.999994232178
318,310,49527,2,0,P|390:294|468:207,1,188.999994232178
239,28,49770,2,0,L|243:243,1,210
170,305,50175,1,0,0:0:0:0:
170,305,50256,2,0,P|104:311|68:303,1,78.7500030040742
127,151,50418,2,0,P|166:148|204:155,1,78.7500030040742
37,217,50581,5,0,0:0:0:0:
318,202,50743,1,0,0:0:0:0:
318,217,50824,1,0,0:0:0:0:
316,232,50905,2,0,L|308:318,1,78.7500030040742
436,300,51067,1,0,0:0:0:0:
301,344,51229,2,0,L|286:149,1,157.5
193,64,51553,2,0,B|154:54|154:54|109:60,1,78.7500030040742
193,52,51716,2,0,P|155:40|97:65,1,78.7500030040742
392,148,51878,5,0,0:0:0:0:
363,232,52040,1,0,0:0:0:0:
363,232,52121,1,0,0:0:0:0:
363,232,52202,2,0,B|391:236|391:236|420:233|420:233|457:239,1,78.7500030040742
395,48,52364,2,0,P|351:75|305:73,1,78.7500030040742
66,141,52526,1,0,0:0:0:0:
290,180,52689,1,0,0:0:0:0:
258,169,52770,1,0,0:0:0:0:
210,98,52851,2,0,L|216:272,1,157.500006008148
215,255,53175,5,0,0:0:0:0:
327,116,53337,2,0,B|378:112|378:112|427:91|427:91|401:115|394:161,2,157.500006008148
496,166,53824,1,0,0:0:0:0:
314,300,53986,2,0,B|324:252|307:212|307:212|268:206|231:159,2,157.500006008148
258,57,54472,6,0,B|334:26|400:77|400:77|361:116|323:116,1,236.250009012223
190,115,54796,2,0,P|172:73|169:32,1,78.7500030040742
136,187,54959,2,0,P|228:212|112:283,1,315.000012016297
112,284,55445,6,0,B|171:277|171:277|219:292|219:292|282:282,1,157.500006008148
432,213,55769,6,0,B|365:185|365:185|380:85|521:131,1,236.250009012223
492,327,56094,2,0,B|473:306|467:290|467:290|448:299|423:296,1,78.7500030040742
172,221,56256,2,0,B|213:222|234:245|234:245|284:207|343:221|343:221|369:295|274:341,1,315.000012016297
294,329,56742,6,0,B|253:335|253:335|218:289,1,78.7500030040742
172,221,56904,2,0,B|130:215|130:215|108:161,1,78.7500030040742
145,72,57066,5,0,0:0:0:0:
322,207,57229,1,0,0:0:0:0:
367,72,57391,5,0,0:0:0:0:
190,207,57553,1,0,0:0:0:0:
412,155,57715,5,0,0:0:0:0:
100,155,57877,1,0,0:0:0:0:
209,323,58039,1,0,0:0:0:0:
232,333,58120,1,0,0:0:0:0:
257,337,58201,1,0,0:0:0:0:
283,334,58282,1,0,0:0:0:0:
307,322,58364,5,0,0:0:0:0:
339,100,58526,1,0,0:0:0:0:
349,98,58607,1,0,0:0:0:0:
358,93,58688,2,0,L|349:158,1,39.3750015020371
121,253,58850,1,0,0:0:0:0:
173,100,59012,1,0,0:0:0:0:
163,98,59093,1,0,0:0:0:0:
154,93,59174,2,0,L|163:156,1,39.3750015020371
391,253,59336,1,0,0:0:0:0:
201,207,59499,1,0,0:0:0:0:
469,207,59661,5,0,0:0:0:0:
231,304,59823,1,0,0:0:0:0:
215,309,59904,1,0,0:0:0:0:
199,314,59985,2,0,P|158:296|116:290,1,78.7500030040742
261,96,60147,2,0,B|236:196|267:249|267:249|237:220|187:201,1,236.250009012223
357,204,60471,2,0,P|336:176|352:138,1,78.7500030040742
172,195,60634,2,0,L|344:196,1,157.500006008148
69,65,60958,5,0,0:0:0:0:
286,64,61120,1,0,0:0:0:0:
266,88,61201,1,0,0:0:0:0:
235,99,61282,2,0,P|190:102|158:86,1,78.7500030040742
99,308,61444,2,0,B|99:204|181:179|181:179|212:249,1,236.250009012223
444,317,61769,2,0,P|434:271|412:240,1,78.7500030040742
229,250,61931,2,0,B|279:247|279:247|348:255|348:255|403:247,1,157.500006008148
334,82,62255,6,0,P|336:119|357:167,2,70
254,287,62579,2,0,P|276:257|291:207,2,70
168,317,62904,5,0,0:0:0:0:
91,245,63013,1,0,0:0:0:0:
192,213,63121,1,0,0:0:0:0:
159,327,63229,5,0,0:0:0:0:
80,239,63337,1,0,0:0:0:0:
199,219,63445,1,0,0:0:0:0:
67,232,63553,6,0,P|58:189|57:147,1,70
161,58,63769,1,0,0:0:0:0:
145,306,63877,6,0,P|115:273|93:237,1,70
139,108,64093,1,0,0:0:0:0:
256,192,64201,12,0,64849,0:0:0:0:
117,261,75227,5,0,0:0:0:0:
312,82,75389,2,0,B|351:76|351:76|407:85,1,78.7500030040742
426,314,75875,1,0,0:0:0:0:
426,314,76037,2,0,B|373:299|373:299|326:313|326:313|245:288,1,157.500006008148
203,222,76524,2,0,P|201:152|110:246,1,315.000012016297
310,207,77497,2,0,P|308:163|295:112,1,78.7500030040742
134,314,80414,5,0,0:0:0:0:
132,52,80577,2,0,B|121:94|121:94|139:137,1,78.7500030040742
428,197,81063,1,0,0:0:0:0:
277,205,81225,2,0,B|297:207|322:195|322:195|375:210|375:210|402:191|439:198,1,157.500006008148
434,287,81712,2,0,B|444:110|444:110|410:123|348:122|329:50,1,315.000012016297
256,192,83009,12,0,84225,0:0:0:0:
296,169,84306,5,0,0:0:0:0:
166,220,84792,1,0,0:0:0:0:
389,230,85279,1,0,0:0:0:0:
231,230,85604,6,0,P|297:201|179:206,1,393.750015020371
196,247,86090,6,0,B|259:241|259:241|291:167|291:167|246:103|246:103|161:110|161:110|126:184|126:184|161:214,1,393.750015020371
159,253,86577,6,0,B|243:254|243:254|279:170|279:170|201:109|201:109|123:154|123:154|137:200,1,393.750015020371
125,247,87063,6,0,B|220:268|220:268|251:146|251:146|137:120|137:120|125:182,1,393.750015020371
86,233,87550,6,0,B|173:221|173:221|117:146|117:146|87:201,1,236.250009012223
46,217,87874,5,0,0:0:0:0:
327,152,88036,1,0,0:0:0:0:
425,317,88198,6,0,B|389:265|402:217|402:217|473:233,2,157.500006008148
460,140,88685,6,0,B|370:117|370:117|311:58,2,157.500006008148
246,124,89171,6,0,B|306:179|306:179|213:161,2,157.500006008148
274,247,89657,6,0,B|310:206|310:206|322:154|322:154|363:102,2,157.500006008148
405,194,90144,5,0,0:0:0:0:
213,164,90306,1,0,0:0:0:0:
287,338,90468,1,0,0:0:0:0:
213,164,90630,1,0,0:0:0:0:
87,305,90792,6,0,B|102:271|102:271|87:217,4,78.7500030040742
166,84,91279,6,0,P|210:75|254:80,4,78.7500030040742
374,200,91765,6,0,B|371:159|371:159|348:188,4,78.7500030040742
301,314,92252,6,0,P|286:321|291:316,4,78.7500030040742
343,65,92738,6,0,P|374:78|427:86,3,78.7500030040742
493,52,93063,5,0,0:0:0:0:
271,96,93225,1,0,0:0:0:0:
433,265,93387,5,0,0:0:0:0:
376,40,93549,1,0,0:0:0:0:
381,54,93630,1,0,0:0:0:0:
384,69,93711,2,0,L|412:174,1,78.7500030040742
361,334,93873,5,0,0:0:0:0:
126,248,94035,1,0,0:0:0:0:
121,232,94116,1,0,0:0:0:0:
141,188,94198,2,0,L|239:190,1,78.7500030040742
57,73,94360,5,0,0:0:0:0:
67,336,94522,1,0,0:0:0:0:
81,330,94603,1,0,0:0:0:0:
92,319,94684,2,0,P|104:287|89:233,1,78.7500030040742
416,275,94846,5,0,0:0:0:0:
148,182,95008,1,0,0:0:0:0:
158,193,95089,1,0,0:0:0:0:
168,204,95170,2,0,B|200:218|200:218|245:222,1,78.7500030040742
318,175,95333,5,0,0:0:0:0:
282,298,95495,1,0,0:0:0:0:
293,204,95657,6,0,L|291:282,3,78.7500030040742
256,118,95981,5,0,0:0:0:0:
218,146,96062,1,0,0:0:0:0:
171,156,96143,1,0,0:0:0:0:
125,143,96224,1,0,0:0:0:0:
93,107,96305,6,0,B|145:80|145:80|136:129,1,105
136,125,96549,2,0,B|128:171|128:171|180:144,1,105
192,222,96792,6,0,B|252:190|252:190|233:275,1,131.25
179,300,97035,2,0,B|165:361|165:361|225:329,1,131.25
304,299,97278,6,0,B|382:255|382:255|366:325,1,157.500006008148
387,161,97521,2,0,B|309:205|309:205|325:135,1,157.500006008148
383,78,97765,1,0,0:0:0:0:
468,118,97927,5,0,0:0:0:0:
467,149,98008,1,0,0:0:0:0:
465,180,98089,1,0,0:0:0:0:
464,211,98170,1,0,0:0:0:0:
460,279,98251,5,0,0:0:0:0:
433,230,98332,1,0,0:0:0:0:
405,182,98413,1,0,0:0:0:0:
378,133,98494,1,0,0:0:0:0:
344,73,98575,5,0,0:0:0:0:
275,78,98657,1,0,0:0:0:0:
207,83,98738,1,0,0:0:0:0:
139,88,98819,1,0,0:0:0:0:
71,94,98900,6,0,L|193:109,1,105
175,106,99143,2,0,L|66:136,1,105
73,133,99386,6,0,L|206:146,1,131.25
204,145,99629,2,0,L|74:176,1,131.25
76,175,99873,6,0,L|239:192,1,157.500006008148
239,192,100116,2,0,L|82:242,1,157.500006008148
271,240,100359,1,0,0:0:0:0:
275,45,100521,5,0,0:0:0:0:
330,46,100602,1,0,0:0:0:0:
380,67,100683,1,0,0:0:0:0:
417,107,100764,1,0,0:0:0:0:
379,147,100845,5,0,0:0:0:0:
396,182,100927,1,0,0:0:0:0:
398,221,101008,1,0,0:0:0:0:
385,258,101089,1,0,0:0:0:0:
402,321,101170,5,0,0:0:0:0:
354,268,101251,1,0,0:0:0:0:
292,233,101332,1,0,0:0:0:0:
221,226,101413,1,0,0:0:0:0:
153,247,101494,6,0,P|144:209|108:251,1,105
163,245,101737,2,0,P|164:205|118:237,1,105
222,138,101980,6,0,P|240:175|292:129,1,131.25
213,139,102224,2,0,P|220:179|282:148,1,131.25
397,148,102467,6,0,P|412:175|324:170,1,157.500006008148
415,157,102710,2,0,P|422:186|338:159,1,157.500006008148
292,279,102953,1,0,0:0:0:0:
181,335,103115,5,0,0:0:0:0:
148,312,103197,1,0,0:0:0:0:
115,289,103278,1,0,0:0:0:0:
82,266,103359,1,0,0:0:0:0:
30,229,103440,5,0,0:0:0:0:
90,210,103521,1,0,0:0:0:0:
150,191,103602,1,0,0:0:0:0:
210,172,103683,1,0,0:0:0:0:
256,192,103764,12,0,105061,0:0:0:0:
216,286,108953,6,0,L|406:267,1,157.500006008148
76,74,109601,1,0,0:0:0:0:
111,304,109926,2,0,L|109:258,1,39.3750015020371
178,90,110088,2,0,L|182:141,1,39.3750015020371
306,195,110250,1,0,0:0:0:0:
336,189,110331,1,0,0:0:0:0:
365,199,110412,1,0,0:0:0:0:
381,225,110493,1,0,0:0:0:0:
381,256,110574,1,0,0:0:0:0:
360,279,110655,1,0,0:0:0:0:
330,288,110736,1,0,0:0:0:0:
301,275,110817,1,0,0:0:0:0:
285,247,110898,2,0,P|278:172|233:256,1,236.250009012223
387,113,111547,5,0,0:0:0:0:
115,57,111871,1,0,0:0:0:0:
157,308,112196,2,0,L|121:182,1,118.125004506111
141,167,112520,1,0,0:0:0:0:
169,153,112601,1,0,0:0:0:0:
200,151,112682,1,0,0:0:0:0:
476,259,112844,6,0,P|434:274|376:269,1,78.7500030040742
195,88,113087,2,0,P|260:77|293:86,1,78.7500030040742
240,322,113331,2,0,P|231:283|230:264,1,39.3750015020371
415,82,113493,2,0,B|408:176|408:176|363:95,1,157.500006008148
415,82,113979,1,0,0:0:0:0:
77,101,114141,5,0,0:0:0:0:
122,322,114628,1,0,0:0:0:0:
122,322,114709,1,0,0:0:0:0:
122,322,114790,2,0,B|176:303|176:303|143:292,1,78.7500030040742
77,101,115114,1,0,0:0:0:0:
246,180,115276,2,0,L|244:218,1,19.6875007510186
410,291,115438,6,0,P|413:268|409:244,1,39.3750015020371
264,84,115601,1,0,0:0:0:0:
294,89,115682,1,0,0:0:0:0:
324,94,115763,1,0,0:0:0:0:
355,99,115844,1,0,0:0:0:0:
385,104,115925,1,0,0:0:0:0:
416,110,116006,1,0,0:0:0:0:
468,175,116087,6,0,B|458:267|400:287|400:287|361:250|364:189,1,236.250009012223
121,308,116736,5,0,0:0:0:0:
267,222,116898,2,0,P|282:284|299:328,2,105
443,227,117384,5,0,0:0:0:0:
325,46,117546,2,0,P|265:58|204:45,2,105
126,81,118033,5,0,0:0:0:0:
155,329,118195,1,0,0:0:0:0:
196,152,118357,1,0,0:0:0:0:
87,257,118519,6,0,P|52:271|26:272,1,52.5
190,226,118681,2,0,P|219:249|233:271,1,52.5
120,103,118844,2,0,P|111:127|109:154,1,52.5
309,148,119006,2,0,L|182:143,1,105
184,319,119249,1,0,0:0:0:0:
184,319,119330,6,0,L|347:313,1,157.500006008148
436,127,119654,1,0,0:0:0:0:
216,42,119816,1,0,0:0:0:0:
216,42,119897,1,0,0:0:0:0:
216,42,119979,2,0,P|201:108|205:131,1,78.7500030040742
56,240,120141,2,0,P|117:229|144:212,1,78.7500030040742
353,254,120303,2,0,B|374:211|374:211|260:223,1,157.500006008148
320,327,120627,6,0,L|306:70,1,236.250009012223
400,35,120951,2,0,P|437:52|479:54,1,78.7500030040742
356,227,121114,2,0,B|311:159|216:155|216:155|221:230,1,236.250009012223
455,248,121438,2,0,P|450:202|457:161,1,78.7500030040742
269,68,121600,2,0,P|279:171|259:234,1,157.500006008148
102,297,121924,5,0,0:0:0:0:
364,224,122086,1,0,0:0:0:0:
35,204,122249,1,0,0:0:0:0:
217,39,122411,1,0,0:0:0:0:
227,71,122492,1,0,0:0:0:0:
252,93,122573,2,0,P|296:106|331:102,1,78.7500030040742
424,235,122735,2,0,P|402:189|398:140,1,78.7500030040742
213,303,122897,2,0,L|332:169,1,157.500006008148
496,173,123221,5,0,0:0:0:0:
118,62,123384,1,0,0:0:0:0:
136,91,123465,1,0,0:0:0:0:
159,111,123546,2,0,P|211:127|237:127,1,78.7500030040742
317,185,123708,2,0,P|369:169|395:169,1,78.7500030040742
204,324,123870,5,0,0:0:0:0:
393,167,124032,1,0,0:0:0:0:
357,183,124113,1,0,0:0:0:0:
315,183,124194,2,0,P|267:167|244:142,1,78.7500030040742
155,38,124356,2,0,P|140:96|109:121,1,78.7500030040742
27,146,124519,5,0,0:0:0:0:
206,338,124843,5,0,0:0:0:0:
252,342,124924,1,0,0:0:0:0:
298,332,125005,1,0,0:0:0:0:
335,303,125086,1,0,0:0:0:0:
348,257,125167,5,0,0:0:0:0:
335,211,125248,1,0,0:0:0:0:
292,190,125329,1,0,0:0:0:0:
247,206,125410,1,0,0:0:0:0:
200,213,125491,1,0,0:0:0:0:
160,185,125573,1,0,0:0:0:0:
148,139,125654,1,0,0:0:0:0:
168,96,125735,1,0,0:0:0:0:
213,83,125816,6,0,P|246:99|290:95,3,78.7500030040742
381,75,126140,2,0,B|421:73|421:73|389:101,3,78.7500030040742
441,172,126464,6,0,P|456:209|464:251,1,78.7500030040742
265,233,126626,2,0,P|250:270|242:312,1,78.7500030040742
486,334,126789,1,0,0:0:0:0:
148,329,126951,1,0,0:0:0:0:
70,92,127113,5,0,0:0:0:0:
59,138,127194,1,0,0:0:0:0:
67,184,127275,1,0,0:0:0:0:
95,221,127356,1,0,0:0:0:0:
138,240,127437,1,0,0:0:0:0:
185,243,127518,1,0,0:0:0:0:
231,233,127599,1,0,0:0:0:0:
267,202,127680,1,0,0:0:0:0:
237,93,127761,5,0,0:0:0:0:
193,112,127843,1,0,0:0:0:0:
159,145,127924,1,0,0:0:0:0:
136,186,128005,1,0,0:0:0:0:
162,225,128086,5,0,0:0:0:0:
197,256,128167,1,0,0:0:0:0:
241,271,128248,1,0,0:0:0:0:
288,271,128329,1,0,0:0:0:0:
356,220,128410,6,0,P|346:190|349:140,1,78.7500030040742
91,52,128572,1,0,0:0:0:0:
91,52,128653,2,0,P|139:65|167:88,1,78.7500030040742
93,346,128815,1,0,0:0:0:0:
93,346,128896,2,0,P|129:324|164:291,1,78.7500030040742
281,195,129059,5,0,0:0:0:0:
281,195,129140,2,0,P|326:214|369:220,1,78.7500030040742
461,337,129302,1,0,0:0:0:0:
461,337,129383,2,0,P|436:283|434:255,1,78.7500030040742
365,39,129545,2,0,P|363:92|347:125,1,78.7500030040742
57,169,129707,5,0,0:0:0:0:
177,319,129869,2,0,B|169:268|153:238|153:238|168:203|170:156,1,157.500006008148
371,281,130194,2,0,B|321:252|251:239|251:239|280:227,2,157.500006008148
303,107,130680,2,0,B|321:151|343:168|343:168|385:183|423:209,1,157.500006008148
276,339,131004,6,0,B|97:375|41:269|41:269|93:229|178:222,1,393.750015020371
160,223,131491,6,0,B|227:267|227:267|303:232,2,157.500006008148
243,80,131977,1,0,0:0:0:0:
236,171,132139,1,0,0:0:0:0:
301,236,132302,5,0,0:0:0:0:
156,123,132464,1,0,0:0:0:0:
327,51,132626,2,0,B|385:105|385:105|308:146,1,157.500006008148
458,167,132950,2,0,L|316:238,2,157.500006008148
219,180,133437,5,0,0:0:0:0:
138,314,133761,2,0,B|135:291|139:267|139:267|103:223|93:144,1,157.500006008148
271,78,134085,1,0,0:0:0:0:
93,159,134247,1,0,0:0:0:0:
244,303,134409,2,0,B|322:297|322:297|372:309|410:302,2,157.500006008148
256,192,134896,12,0,140084,0:0:0:0:
