osu file format v14

[General]
AudioFilename: audio.mp3
AudioLeadIn: 0
PreviewTime: -1
Countdown: 0
SampleSet: Soft
StackLeniency: 0.7
Mode: 3
LetterboxInBreaks: 0
SpecialStyle: 0
WidescreenStoryboard: 1

[Editor]
DistanceSpacing: 1
BeatDivisor: 4
GridSize: 32
TimelineZoom: 1.5

[Metadata]
Title:Ymir
TitleUnicode:ユミル
Artist:MYTHOLOGIA by MLREC.
ArtistUnicode:MYTHOLOGIA by MLREC.
Creator:ZZHBOY
Version:Normal
Source:
Tags:
BeatmapID:1128010
BeatmapSetID:531292

[Difficulty]
HPDrainRate:7
CircleSize:4
OverallDifficulty:7
ApproachRate:5
SliderMultiplier:1.4
SliderTickRate:1

[Events]
//Background and Video events
//Break Periods
//Storyboard Layer 0 (Background)
//Storyboard Layer 1 (Fail)
//Storyboard Layer 2 (Pass)
//Storyboard Layer 3 (Foreground)
//Storyboard Sound Samples

[TimingPoints]
365,365.853658536585,4,2,0,30,1,0

[HitObjects]
224,192,1462,5,0,0:0:0:0:
416,192,1828,1,0,0:0:0:0:
64,192,1828,1,0,0:0:0:0:
320,192,2194,1,0,0:0:0:0:
96,192,2377,1,0,0:0:0:0:
448,192,2560,1,0,0:0:0:0:
192,192,2743,1,0,0:0:0:0:
352,192,2925,1,0,0:0:0:0:
64,192,3291,1,0,0:0:0:0:
448,192,3291,1,0,0:0:0:0:
192,192,3657,1,0,0:0:0:0:
160,192,4389,1,0,0:0:0:0:
64,192,4755,1,0,0:0:0:0:
352,192,4755,1,0,0:0:0:0:
192,192,5121,1,0,0:0:0:0:
96,192,5304,1,0,0:0:0:0:
416,192,5486,1,0,0:0:0:0:
192,192,5669,1,0,0:0:0:0:
320,192,5852,1,0,0:0:0:0:
448,192,6218,1,0,0:0:0:0:
96,192,6218,1,0,0:0:0:0:
160,192,7316,1,0,0:0:0:0:
96,192,7682,1,0,0:0:0:0:
416,192,7682,1,0,0:0:0:0:
320,192,8047,1,0,0:0:0:0:
192,192,8230,1,0,0:0:0:0:
448,192,8413,1,0,0:0:0:0:
64,192,8596,1,0,0:0:0:0:
320,192,8779,1,0,0:0:0:0:
64,192,9145,1,0,0:0:0:0:
320,192,9145,1,0,0:0:0:0:
480,192,9877,1,0,0:0:0:0:
192,192,9877,1,0,0:0:0:0:
448,192,10608,1,0,0:0:0:0:
160,192,10608,1,0,0:0:0:0:
64,192,10974,1,0,0:0:0:0:
448,192,11157,1,0,0:0:0:0:
192,192,11340,1,0,0:0:0:0:
320,192,11523,1,0,0:0:0:0:
64,192,11706,1,0,0:0:0:0:
64,192,12072,1,0,0:0:0:0:
416,192,12072,1,0,0:0:0:0:
64,192,12804,128,0,13535:0:0:0:0:
448,192,13169,128,0,13535:0:0:0:0:
192,192,13535,1,0,0:0:0:0:
320,192,13535,1,0,0:0:0:0:
320,192,14267,128,0,14999:0:0:0:0:
96,192,14999,1,0,0:0:0:0:
448,192,14999,1,0,0:0:0:0:
64,192,14999,128,0,16096:0:0:0:0:
192,192,16462,1,0,0:0:0:0:
448,192,16462,1,0,0:0:0:0:
192,192,17011,1,0,0:0:0:0:
320,192,17102,1,0,0:0:0:0:
448,192,17194,1,0,0:0:0:0:
320,192,17743,1,0,0:0:0:0:
192,192,17834,1,0,0:0:0:0:
480,192,17925,1,0,0:0:0:0:
64,192,17925,1,0,0:0:0:0:
192,192,18474,1,0,0:0:0:0:
320,192,18566,1,0,0:0:0:0:
448,192,18657,1,0,0:0:0:0:
320,192,19206,1,0,0:0:0:0:
192,192,19297,1,0,0:0:0:0:
96,192,19389,1,0,0:0:0:0:
448,192,19389,1,0,0:0:0:0:
192,192,19755,1,0,0:0:0:0:
320,192,20121,1,0,0:0:0:0:
64,192,20486,1,0,0:0:0:0:
448,192,20852,1,0,0:0:0:0:
192,192,21218,1,0,0:0:0:0:
320,192,21584,1,0,0:0:0:0:
64,192,21950,1,0,0:0:0:0:
448,192,22316,1,0,0:0:0:0:
192,192,22316,1,0,0:0:0:0:
320,192,23047,1,0,0:0:0:0:
64,192,23047,128,0,23779:0:0:0:0:
192,192,23779,1,0,0:0:0:0:
448,192,23779,1,0,0:0:0:0:
448,192,25243,1,0,0:0:0:0:
64,192,25243,1,0,0:0:0:0:
320,192,25608,1,0,0:0:0:0:
192,192,25974,1,0,0:0:0:0:
448,192,26340,1,0,0:0:0:0:
64,192,26706,1,0,0:0:0:0:
192,192,27072,1,0,0:0:0:0:
320,192,27438,1,0,0:0:0:0:
192,192,27804,1,0,0:0:0:0:
448,192,28169,1,0,0:0:0:0:
64,192,28169,1,0,0:0:0:0:
320,192,28535,1,0,0:0:0:0:
192,192,28901,1,0,0:0:0:0:
320,192,29267,1,0,0:0:0:0:
448,192,29633,1,0,0:0:0:0:
192,192,29999,1,0,0:0:0:0:
64,192,30364,1,0,0:0:0:0:
320,192,30730,1,0,0:0:0:0:
448,192,31096,1,0,0:0:0:0:
192,192,31096,1,0,0:0:0:0:
64,192,31462,1,0,0:0:0:0:
320,192,31828,1,0,0:0:0:0:
320,192,32194,1,0,0:0:0:0:
64,192,32560,1,0,0:0:0:0:
192,192,32925,1,0,0:0:0:0:
448,192,33291,1,0,0:0:0:0:
320,192,33657,1,0,0:0:0:0:
448,192,34023,1,0,0:0:0:0:
64,192,34023,1,0,0:0:0:0:
192,192,34389,1,0,0:0:0:0:
320,192,34755,1,0,0:0:0:0:
192,192,35121,1,0,0:0:0:0:
64,192,35486,128,0,35852:0:0:0:0:
320,192,35852,128,0,36218:0:0:0:0:
192,192,36218,128,0,36584:0:0:0:0:
448,192,36584,128,0,36950:0:0:0:0:
64,192,36950,1,0,0:0:0:0:
320,192,36950,1,0,0:0:0:0:
192,192,37316,1,0,0:0:0:0:
64,192,37682,1,0,0:0:0:0:
320,192,38047,1,0,0:0:0:0:
448,192,38413,1,0,0:0:0:0:
448,192,38779,1,0,0:0:0:0:
192,192,39145,1,0,0:0:0:0:
64,192,39511,1,0,0:0:0:0:
448,192,39877,1,0,0:0:0:0:
192,192,39877,1,0,0:0:0:0:
320,192,40243,1,0,0:0:0:0:
64,192,40608,1,0,0:0:0:0:
192,192,40974,1,0,0:0:0:0:
448,192,41340,1,0,0:0:0:0:
192,192,41706,1,0,0:0:0:0:
320,192,42072,1,0,0:0:0:0:
64,192,42438,1,0,0:0:0:0:
192,192,42804,1,0,0:0:0:0:
448,192,42804,1,0,0:0:0:0:
320,192,43169,1,0,0:0:0:0:
64,192,43535,1,0,0:0:0:0:
64,192,43901,1,0,0:0:0:0:
320,192,44267,1,0,0:0:0:0:
448,192,44633,1,0,0:0:0:0:
192,192,44999,1,0,0:0:0:0:
320,192,45364,1,0,0:0:0:0:
64,192,45730,1,0,0:0:0:0:
448,192,45730,1,0,0:0:0:0:
192,192,45913,1,0,0:0:0:0:
320,192,46096,1,0,0:0:0:0:
448,192,46279,1,0,0:0:0:0:
192,192,46462,1,0,0:0:0:0:
320,192,46645,1,0,0:0:0:0:
64,192,46828,1,0,0:0:0:0:
448,192,47011,1,0,0:0:0:0:
192,192,47194,1,0,0:0:0:0:
192,192,47377,1,0,0:0:0:0:
320,192,47651,1,0,0:0:0:0:
64,192,47834,1,0,0:0:0:0:
448,192,48108,1,0,0:0:0:0:
192,192,48291,128,0,48657:0:0:0:0:
64,192,48657,1,0,0:0:0:0:
448,192,48657,1,0,0:0:0:0:
320,192,48932,1,0,0:0:0:0:
192,192,49206,1,0,0:0:0:0:
320,192,49480,1,0,0:0:0:0:
448,192,49755,1,0,0:0:0:0:
64,192,49938,1,0,0:0:0:0:
320,192,50121,1,0,0:0:0:0:
192,192,50395,1,0,0:0:0:0:
64,192,50669,1,0,0:0:0:0:
320,192,50944,1,0,0:0:0:0:
448,192,51218,1,0,0:0:0:0:
192,192,51401,1,0,0:0:0:0:
320,192,51584,1,0,0:0:0:0:
64,192,51858,1,0,0:0:0:0:
448,192,52133,1,0,0:0:0:0:
192,192,52407,1,0,0:0:0:0:
320,192,52682,1,0,0:0:0:0:
448,192,52864,1,0,0:0:0:0:
64,192,53047,1,0,0:0:0:0:
320,192,53322,1,0,0:0:0:0:
192,192,53596,1,0,0:0:0:0:
448,192,53871,1,0,0:0:0:0:
64,192,54145,1,0,0:0:0:0:
320,192,54328,1,0,0:0:0:0:
448,192,54511,1,0,0:0:0:0:
192,192,54511,1,0,0:0:0:0:
64,192,54877,1,0,0:0:0:0:
192,192,55243,1,0,0:0:0:0:
320,192,55608,1,0,0:0:0:0:
192,192,55791,1,0,0:0:0:0:
64,192,55974,1,0,0:0:0:0:
448,192,55974,1,0,0:0:0:0:
320,192,56340,1,0,0:0:0:0:
192,192,56706,1,0,0:0:0:0:
64,192,57072,1,0,0:0:0:0:
320,192,57255,1,0,0:0:0:0:
448,192,57438,1,0,0:0:0:0:
64,192,57621,1,0,0:0:0:0:
192,192,57712,1,0,0:0:0:0:
320,192,57804,1,0,0:0:0:0:
448,192,57986,1,0,0:0:0:0:
320,192,58169,1,0,0:0:0:0:
192,192,58261,1,0,0:0:0:0:
64,192,58352,1,0,0:0:0:0:
320,192,58535,1,0,0:0:0:0:
320,192,58718,1,0,0:0:0:0:
192,192,58901,1,0,0:0:0:0:
448,192,58901,1,0,0:0:0:0:
64,192,60364,1,0,0:0:0:0:
448,192,60364,1,0,0:0:0:0:
64,192,60639,1,0,0:0:0:0:
448,192,60913,1,0,0:0:0:0:
448,192,61188,1,0,0:0:0:0:
192,192,61462,1,0,0:0:0:0:
320,192,61645,1,0,0:0:0:0:
64,192,61828,1,0,0:0:0:0:
64,192,62102,1,0,0:0:0:0:
320,192,62377,1,0,0:0:0:0:
320,192,62651,1,0,0:0:0:0:
192,192,62925,1,0,0:0:0:0:
448,192,63108,1,0,0:0:0:0:
64,192,63291,1,0,0:0:0:0:
64,192,63566,1,0,0:0:0:0:
448,192,63840,1,0,0:0:0:0:
448,192,64114,1,0,0:0:0:0:
192,192,64389,1,0,0:0:0:0:
320,192,64572,1,0,0:0:0:0:
64,192,64755,1,0,0:0:0:0:
64,192,65029,1,0,0:0:0:0:
448,192,65304,1,0,0:0:0:0:
448,192,65578,1,0,0:0:0:0:
192,192,65852,1,0,0:0:0:0:
320,192,66035,1,0,0:0:0:0:
64,192,66218,1,0,0:0:0:0:
448,192,66218,1,0,0:0:0:0:
64,192,66493,1,0,0:0:0:0:
448,192,66767,1,0,0:0:0:0:
448,192,67041,1,0,0:0:0:0:
192,192,67316,1,0,0:0:0:0:
320,192,67499,1,0,0:0:0:0:
64,192,67682,1,0,0:0:0:0:
64,192,67956,1,0,0:0:0:0:
320,192,68230,1,0,0:0:0:0:
320,192,68505,1,0,0:0:0:0:
192,192,68779,1,0,0:0:0:0:
448,192,68962,1,0,0:0:0:0:
64,192,69145,1,0,0:0:0:0:
320,192,69145,1,0,0:0:0:0:
64,192,69419,1,0,0:0:0:0:
448,192,69694,1,0,0:0:0:0:
192,192,69877,1,0,0:0:0:0:
320,192,70243,1,0,0:0:0:0:
448,192,70425,1,0,0:0:0:0:
64,192,70608,1,0,0:0:0:0:
320,192,70791,1,0,0:0:0:0:
192,192,70974,1,0,0:0:0:0:
320,192,71157,1,0,0:0:0:0:
64,192,71340,1,0,0:0:0:0:
448,192,71432,1,0,0:0:0:0:
192,192,71523,1,0,0:0:0:0:
320,192,71706,1,0,0:0:0:0:
448,192,72072,1,0,0:0:0:0:
64,192,72072,128,0,72621:0:0:0:0:
192,192,72621,128,0,73169:0:0:0:0:
320,192,73169,128,0,73535:0:0:0:0:
64,192,73535,128,0,74084:0:0:0:0:
448,192,73535,1,0,0:0:0:0:
192,192,74084,128,0,74633:0:0:0:0:
448,192,74633,128,0,74999:0:0:0:0:
64,192,74999,1,0,0:0:0:0:
320,192,74999,128,0,75547:0:0:0:0:
192,192,75547,128,0,76096:0:0:0:0:
64,192,76096,128,0,76462:0:0:0:0:
320,192,76462,1,0,0:0:0:0:
448,192,76462,128,0,76828:0:0:0:0:
64,192,77194,128,0,77377:0:0:0:0:
448,192,77377,128,0,77560:0:0:0:0:
320,192,77560,128,0,77743:0:0:0:0:
192,192,77743,128,0,77925:0:0:0:0:
64,192,77925,128,0,78474:0:0:0:0:
448,192,77925,1,0,0:0:0:0:
192,192,78474,128,0,79023:0:0:0:0:
320,192,79023,128,0,79389:0:0:0:0:
448,192,79389,1,0,0:0:0:0:
64,192,79389,128,0,79938:0:0:0:0:
192,192,79938,128,0,80486:0:0:0:0:
448,192,80486,128,0,80852:0:0:0:0:
64,192,80852,1,0,0:0:0:0:
320,192,80852,1,0,0:0:0:0:
192,192,81584,1,0,0:0:0:0:
448,192,81584,1,0,0:0:0:0:
448,192,82316,1,0,0:0:0:0:
64,192,82316,1,0,0:0:0:0:
192,192,83413,1,0,0:0:0:0:
64,192,83779,1,0,0:0:0:0:
448,192,83779,1,0,0:0:0:0:
192,192,83871,1,0,0:0:0:0:
320,192,84054,1,0,0:0:0:0:
64,192,84145,1,0,0:0:0:0:
192,192,84328,1,0,0:0:0:0:
448,192,84419,1,0,0:0:0:0:
64,192,84602,1,0,0:0:0:0:
320,192,84694,1,0,0:0:0:0:
192,192,84877,1,0,0:0:0:0:
448,192,84968,1,0,0:0:0:0:
64,192,85060,1,0,0:0:0:0:
320,192,85243,1,0,0:0:0:0:
64,192,85334,1,0,0:0:0:0:
448,192,85517,1,0,0:0:0:0:
192,192,85608,1,0,0:0:0:0:
320,192,85791,1,0,0:0:0:0:
448,192,85883,1,0,0:0:0:0:
192,192,86066,1,0,0:0:0:0:
64,192,86157,1,0,0:0:0:0:
320,192,86340,1,0,0:0:0:0:
192,192,86432,1,0,0:0:0:0:
448,192,86523,1,0,0:0:0:0:
64,192,86706,1,0,0:0:0:0:
448,192,86797,1,0,0:0:0:0:
192,192,86980,1,0,0:0:0:0:
320,192,87072,1,0,0:0:0:0:
448,192,87255,1,0,0:0:0:0:
64,192,87346,1,0,0:0:0:0:
320,192,87529,1,0,0:0:0:0:
192,192,87621,1,0,0:0:0:0:
320,192,87804,1,0,0:0:0:0:
64,192,87895,1,0,0:0:0:0:
448,192,87986,1,0,0:0:0:0:
192,192,88169,1,0,0:0:0:0:
320,192,88261,1,0,0:0:0:0:
64,192,88444,1,0,0:0:0:0:
448,192,88535,1,0,0:0:0:0:
320,192,88718,1,0,0:0:0:0:
192,192,88810,1,0,0:0:0:0:
448,192,88993,1,0,0:0:0:0:
64,192,89084,1,0,0:0:0:0:
320,192,89267,1,0,0:0:0:0:
320,192,89450,1,0,0:0:0:0:
64,192,89633,1,0,0:0:0:0:
448,192,89633,1,0,0:0:0:0:
192,192,89724,1,0,0:0:0:0:
320,192,89907,1,0,0:0:0:0:
64,192,89999,1,0,0:0:0:0:
192,192,90182,1,0,0:0:0:0:
448,192,90273,1,0,0:0:0:0:
64,192,90456,1,0,0:0:0:0:
320,192,90547,1,0,0:0:0:0:
192,192,90730,1,0,0:0:0:0:
320,192,90822,1,0,0:0:0:0:
448,192,90913,1,0,0:0:0:0:
64,192,91096,1,0,0:0:0:0:
320,192,91188,1,0,0:0:0:0:
448,192,91371,1,0,0:0:0:0:
192,192,91462,1,0,0:0:0:0:
64,192,91645,1,0,0:0:0:0:
448,192,91736,1,0,0:0:0:0:
320,192,91919,1,0,0:0:0:0:
192,192,92011,1,0,0:0:0:0:
448,192,92194,1,0,0:0:0:0:
64,192,92285,1,0,0:0:0:0:
320,192,92377,1,0,0:0:0:0:
192,192,92560,1,0,0:0:0:0:
448,192,92834,1,0,0:0:0:0:
320,192,93108,1,0,0:0:0:0:
64,192,93383,1,0,0:0:0:0:
448,192,93474,1,0,0:0:0:0:
192,192,93657,1,0,0:0:0:0:
320,192,93749,1,0,0:0:0:0:
64,192,93840,1,0,0:0:0:0:
192,192,94023,1,0,0:0:0:0:
448,192,94114,1,0,0:0:0:0:
192,192,94297,1,0,0:0:0:0:
448,192,94389,1,0,0:0:0:0:
320,192,94572,1,0,0:0:0:0:
64,192,94663,1,0,0:0:0:0:
320,192,94846,1,0,0:0:0:0:
64,192,94938,1,0,0:0:0:0:
320,192,95121,128,0,95486:0:0:0:0:
448,192,95486,1,0,0:0:0:0:
64,192,95486,128,0,96218:0:0:0:0:
320,192,96218,128,0,96950:0:0:0:0:
192,192,96950,128,0,97499:0:0:0:0:
448,192,98047,128,0,98413:0:0:0:0:
320,192,98413,128,0,99145:0:0:0:0:
192,192,99145,128,0,99511:0:0:0:0:
64,192,99511,128,0,99877:0:0:0:0:
448,192,99877,128,0,100243:0:0:0:0:
192,192,100974,128,0,101340:0:0:0:0:
320,192,101340,128,0,103535:0:0:0:0:
192,192,103901,128,0,104267:0:0:0:0:
64,192,104267,128,0,104999:0:0:0:0:
448,192,104999,128,0,105730:0:0:0:0:
320,192,105730,1,0,0:0:0:0:
64,192,105730,128,0,106462:0:0:0:0:
192,192,106462,128,0,107194:0:0:0:0:
320,192,106828,128,0,107194:0:0:0:0:
64,192,107194,1,0,0:0:0:0:
448,192,107194,1,0,0:0:0:0:
320,192,107468,1,0,0:0:0:0:
192,192,107743,1,0,0:0:0:0:
320,192,108017,1,0,0:0:0:0:
448,192,108291,1,0,0:0:0:0:
64,192,108474,1,0,0:0:0:0:
320,192,108657,1,0,0:0:0:0:
192,192,108932,1,0,0:0:0:0:
64,192,109206,1,0,0:0:0:0:
320,192,109480,1,0,0:0:0:0:
448,192,109755,1,0,0:0:0:0:
192,192,109938,1,0,0:0:0:0:
320,192,110121,1,0,0:0:0:0:
64,192,110395,1,0,0:0:0:0:
448,192,110669,1,0,0:0:0:0:
192,192,110944,1,0,0:0:0:0:
320,192,111218,1,0,0:0:0:0:
448,192,111401,1,0,0:0:0:0:
64,192,111584,1,0,0:0:0:0:
320,192,111858,1,0,0:0:0:0:
192,192,112133,1,0,0:0:0:0:
448,192,112407,1,0,0:0:0:0:
64,192,112682,1,0,0:0:0:0:
320,192,112864,1,0,0:0:0:0:
448,192,113047,1,0,0:0:0:0:
192,192,113047,1,0,0:0:0:0:
64,192,113322,1,0,0:0:0:0:
320,192,113596,1,0,0:0:0:0:
192,192,113871,1,0,0:0:0:0:
448,192,114145,1,0,0:0:0:0:
320,192,114328,1,0,0:0:0:0:
64,192,114511,1,0,0:0:0:0:
192,192,114511,1,0,0:0:0:0:
448,192,114785,1,0,0:0:0:0:
64,192,115060,1,0,0:0:0:0:
320,192,115334,1,0,0:0:0:0:
192,192,115608,1,0,0:0:0:0:
320,192,115791,1,0,0:0:0:0:
64,192,115974,1,0,0:0:0:0:
448,192,115974,1,0,0:0:0:0:
192,192,116157,1,0,0:0:0:0:
320,192,116249,1,0,0:0:0:0:
64,192,116340,1,0,0:0:0:0:
448,192,116523,1,0,0:0:0:0:
64,192,116706,1,0,0:0:0:0:
192,192,116797,1,0,0:0:0:0:
320,192,116889,1,0,0:0:0:0:
192,192,117072,1,0,0:0:0:0:
192,192,117255,1,0,0:0:0:0:
64,192,117438,1,0,0:0:0:0:
448,192,117438,1,0,0:0:0:0:
