osu file format v14

[General]
AudioFilename: nyemir sepatu.mp3
AudioLeadIn: 0
PreviewTime: 48185
Countdown: 0
SampleSet: Normal
StackLeniency: 0.7
Mode: 1
LetterboxInBreaks: 0
WidescreenStoryboard: 0

[Editor]
DistanceSpacing: 1.2
BeatDivisor: 4
GridSize: 32
TimelineZoom: 2.2

[Metadata]
Title:Ymir
TitleUnicode:ユミル
Artist:MYTHOLOGIA by MLREC.
ArtistUnicode:MYTHOLOGIA by MLREC.
Creator:Surono
Version:Majstro Oni
Source:beatmania IIDX 19 Lincle
Tags:SYMPHONIC TEK iidx19 S.S.D. SSD NIHILISTICA ERi yumiru D arc Alsty- Rivals_7 Valentrixe Gigantoj Suferoj Hororo Larmeroj Bataloj Fatalo Kaoso Kaj Dio
BeatmapID:1228506
BeatmapSetID:580213

[Difficulty]
HPDrainRate:6
CircleSize:2
OverallDifficulty:6.5
ApproachRate:10
SliderMultiplier:1.4
SliderTickRate:1

[Events]
//Background and Video events
0,0,"nyemir.jpg",0,69
//Break Periods
//Storyboard Layer 0 (Background)
//Storyboard Layer 1 (Fail)
//Storyboard Layer 2 (Pass)
//Storyboard Layer 3 (Foreground)
//Storyboard Sound Samples

[TimingPoints]
1814,365.853658536585,4,1,0,69,1,0
2362,-102.040816326531,4,1,0,69,0,0
2545,-104.166666666667,4,1,0,69,0,0
2728,-106.382978723404,4,1,0,69,0,0
2911,-108.695652173913,4,1,0,69,0,0
3277,-111.111111111111,4,1,0,69,0,0
3643,-114.942528735632,4,1,0,69,0,0
4009,-117.647058823529,4,1,0,69,0,0
4740,-125,4,1,0,69,0,0
8216,-121.951219512195,4,1,0,69,0,0
8399,-119.047619047619,4,1,0,69,0,0
8582,-116.279069767442,4,1,0,69,0,0
8765,-113.636363636364,4,1,0,69,0,0
9131,-111.111111111111,4,1,0,69,0,0
9862,-105.263157894737,4,1,0,69,0,0
10594,-111.111111111111,4,1,0,69,0,0
10960,-125,4,1,0,69,0,0
12881,-121.951219512195,4,1,0,69,0,0
12972,-119.047619047619,4,1,0,69,0,0
13063,-116.279069767442,4,1,0,69,0,0
13155,-113.636363636364,4,1,0,69,0,0
13246,-108.695652173913,4,1,0,69,0,0
13338,-106.382978723404,4,1,0,85,0,0
13521,-100,4,1,0,85,0,0
14161,-83.3333333333333,4,1,0,85,0,0
14344,-100,4,1,0,85,0,0
14893,-83.3333333333333,4,1,0,85,0,0
15076,-100,4,1,0,85,0,0
16356,-90.9090909090909,4,1,0,85,0,0
16905,-86.9565217391304,4,1,0,85,0,0
17820,-83.3333333333333,4,1,0,85,0,0
18917,-90.9090909090909,4,1,0,69,0,0
19283,-100,4,1,0,85,0,0
24131,-111.111111111111,4,1,0,69,0,0
24679,-108.695652173913,4,1,0,69,0,0
24771,-106.382978723404,4,1,0,69,0,0
24862,-104.166666666667,4,1,0,69,0,0
24954,-102.040816326531,4,1,0,69,0,0
25045,-101.010101010101,4,1,0,69,0,0
25228,-100,4,1,0,85,0,0
48643,-90.9090909090909,4,1,0,85,0,1
60350,-105.263157894737,4,1,0,85,0,0
66204,-100,4,1,0,85,0,0
69039,-90.9090909090909,4,1,0,85,0,0
69222,-100,4,1,0,85,0,0
72057,-95.2380952380952,4,1,0,85,0,1
83765,-100,4,1,0,85,0,0
95655,-111.111111111111,4,1,0,69,0,0
102698,-100,4,1,0,69,0,0
102881,-111.111111111111,4,1,0,69,0,0
104161,-100,4,1,0,69,0,0
104344,-111.111111111111,4,1,0,69,0,0
105624,-100,4,1,0,69,0,0
107179,-90.9090909090909,4,1,0,85,0,1
118887,-100,4,1,0,85,0,0

[Colours]
Combo1 : 255,201,174
Combo2 : 129,254,217
Combo3 : 255,206,255
Combo4 : 191,198,255

[HitObjects]
256,192,1448,5,8,0:0:0:0:
256,192,1814,1,0,0:0:0:0:
256,192,2179,1,8,0:0:0:0:
256,192,2362,1,0,0:0:0:0:
256,192,2545,1,8,0:0:0:0:
256,192,2728,1,8,0:0:0:0:
256,192,2911,1,0,0:0:0:0:
256,192,3277,1,0,0:0:0:0:
256,192,3643,1,8,0:0:0:0:
256,192,4374,1,8,0:0:0:0:
256,192,4740,1,0,0:0:0:0:
256,192,5106,1,8,0:0:0:0:
256,192,5289,1,0,0:0:0:0:
256,192,5472,1,8,0:0:0:0:
256,192,5655,1,0,0:0:0:0:
256,192,5838,1,8,0:0:0:0:
256,192,6204,1,8,0:0:0:0:
256,192,7301,1,8,0:0:0:0:
256,192,7667,1,0,0:0:0:0:
256,192,8033,1,8,0:0:0:0:
256,192,8216,1,0,0:0:0:0:
256,192,8399,1,8,0:0:0:0:
256,192,8582,1,8,0:0:0:0:
256,192,8765,1,0,0:0:0:0:
256,192,9131,1,0,0:0:0:0:
256,192,9862,1,8,0:0:0:0:
256,192,10594,1,0,0:0:0:0:
256,192,10960,1,8,0:0:0:0:
256,192,11143,1,0,0:0:0:0:
256,192,11326,1,8,0:0:0:0:
256,192,11509,1,0,0:0:0:0:
256,192,11692,1,8,0:0:0:0:
256,192,12057,1,8,0:0:0:0:
256,192,12789,1,0,0:0:0:0:
256,192,12881,1,0,0:0:0:0:
256,192,12972,1,0,0:0:0:0:
256,192,13063,1,0,0:0:0:0:
256,192,13155,1,8,0:0:0:0:
256,192,13246,1,8,0:0:0:0:
256,192,13338,1,8,0:0:0:0:
256,192,13521,1,4,0:0:0:0:
256,192,13887,1,0,0:0:0:0:
256,192,14070,1,0,0:0:0:0:
256,192,14253,1,12,0:0:0:0:
256,192,14618,1,0,0:0:0:0:
256,192,14801,1,0,0:0:0:0:
256,192,14984,1,12,0:0:0:0:
256,192,15350,1,0,0:0:0:0:
256,192,15533,1,0,0:0:0:0:
256,192,15716,1,8,0:0:0:0:
256,192,15807,1,0,0:0:0:0:
256,192,15899,1,0,0:0:0:0:
256,192,16082,1,8,0:0:0:0:
256,192,16265,1,0,0:0:0:0:
256,192,16448,1,4,0:0:0:0:
256,192,16813,1,0,0:0:0:0:
256,192,16996,1,0,0:0:0:0:
256,192,17088,1,0,0:0:0:0:
256,192,17179,1,0,0:0:0:0:
256,192,17545,1,0,0:0:0:0:
256,192,17728,1,0,0:0:0:0:
256,192,17911,1,12,0:0:0:0:
256,192,18277,1,0,0:0:0:0:
256,192,18460,1,0,0:0:0:0:
256,192,18551,1,0,0:0:0:0:
256,192,18643,1,8,0:0:0:0:
256,192,18826,1,0,0:0:0:0:
256,192,19009,1,0,0:0:0:0:
256,192,19100,1,0,0:0:0:0:
256,192,19374,1,4,0:0:0:0:
256,192,19557,1,8,0:0:0:0:
256,192,19740,1,0,0:0:0:0:
256,192,19923,1,8,0:0:0:0:
256,192,20015,1,8,0:0:0:0:
256,192,20106,1,8,0:0:0:0:
256,192,20289,1,8,0:0:0:0:
256,192,20472,1,0,0:0:0:0:
256,192,20655,1,8,0:0:0:0:
256,192,20746,1,8,0:0:0:0:
256,192,20838,1,8,0:0:0:0:
256,192,21021,1,8,0:0:0:0:
256,192,21204,1,0,0:0:0:0:
256,192,21387,1,8,0:0:0:0:
256,192,21478,1,8,0:0:0:0:
256,192,21570,1,8,0:0:0:0:
256,192,21753,1,8,0:0:0:0:
256,192,21935,1,0,0:0:0:0:
256,192,22118,1,0,0:0:0:0:
256,192,22210,1,8,0:0:0:0:
256,192,22301,1,8,0:0:0:0:
256,192,22484,1,8,0:0:0:0:
256,192,22667,1,0,0:0:0:0:
256,192,22850,1,0,0:0:0:0:
256,192,22942,1,0,0:0:0:0:
256,192,23033,1,8,0:0:0:0:
256,192,23124,1,8,0:0:0:0:
256,192,23216,1,8,0:0:0:0:
256,192,23399,1,0,0:0:0:0:
256,192,23582,1,8,0:0:0:0:
256,192,23765,1,4,0:0:0:0:
256,192,24313,1,0,0:0:0:0:
256,192,24496,1,0,0:0:0:0:
256,192,24588,1,0,0:0:0:0:
256,192,24679,1,8,0:0:0:0:
256,192,24771,1,8,0:0:0:0:
256,192,24862,1,8,0:0:0:0:
256,192,24954,1,8,0:0:0:0:
256,192,25045,1,0,0:0:0:0:
256,192,25228,1,12,0:0:0:0:
256,192,25411,1,0,0:0:0:0:
256,192,25503,1,0,0:0:0:0:
256,192,25594,1,8,0:0:0:0:
256,192,25685,1,0,0:0:0:0:
256,192,25777,1,0,0:0:0:0:
256,192,25868,1,8,0:0:0:0:
256,192,25960,1,0,0:0:0:0:
256,192,26143,1,8,0:0:0:0:
256,192,26326,1,8,0:0:0:0:
256,192,26509,1,0,0:0:0:0:
256,192,26692,1,8,0:0:0:0:
256,192,26874,1,8,0:0:0:0:
256,192,26966,1,8,0:0:0:0:
256,192,27057,1,0,0:0:0:0:
256,192,27149,1,8,0:0:0:0:
256,192,27240,1,8,0:0:0:0:
256,192,27332,1,0,0:0:0:0:
256,192,27423,1,8,0:0:0:0:
256,192,27606,1,8,0:0:0:0:
256,192,27698,1,0,0:0:0:0:
256,192,27789,1,0,0:0:0:0:
256,192,27972,1,8,0:0:0:0:
256,192,28155,1,4,0:0:0:0:
256,192,28338,1,0,0:0:0:0:
256,192,28429,1,0,0:0:0:0:
256,192,28521,1,8,0:0:0:0:
256,192,28612,1,0,0:0:0:0:
256,192,28704,1,0,0:0:0:0:
256,192,28795,1,8,0:0:0:0:
256,192,28887,1,0,0:0:0:0:
256,192,29070,1,8,0:0:0:0:
256,192,29253,1,8,0:0:0:0:
256,192,29435,1,0,0:0:0:0:
256,192,29618,1,8,0:0:0:0:
256,192,29801,1,8,0:0:0:0:
256,192,29893,1,8,0:0:0:0:
256,192,29984,1,0,0:0:0:0:
256,192,30076,1,8,0:0:0:0:
256,192,30167,1,8,0:0:0:0:
256,192,30259,1,0,0:0:0:0:
256,192,30350,1,8,0:0:0:0:
256,192,30533,1,0,0:0:0:0:
256,192,30624,1,8,0:0:0:0:
256,192,30716,1,8,0:0:0:0:
256,192,30807,1,0,0:0:0:0:
256,192,30899,1,0,0:0:0:0:
256,192,31082,1,12,0:0:0:0:
256,192,31265,1,0,0:0:0:0:
256,192,31356,1,0,0:0:0:0:
256,192,31448,1,8,0:0:0:0:
256,192,31539,1,0,0:0:0:0:
256,192,31631,1,8,0:0:0:0:
256,192,31722,1,8,0:0:0:0:
256,192,31813,1,0,0:0:0:0:
256,192,31996,1,8,0:0:0:0:
256,192,32179,1,0,0:0:0:0:
256,192,32362,1,0,0:0:0:0:
256,192,32545,1,8,0:0:0:0:
256,192,32728,1,8,0:0:0:0:
256,192,32820,1,8,0:0:0:0:
256,192,32911,1,0,0:0:0:0:
256,192,33003,1,8,0:0:0:0:
256,192,33094,1,0,0:0:0:0:
256,192,33185,1,0,0:0:0:0:
256,192,33277,1,8,0:0:0:0:
256,192,33460,1,0,0:0:0:0:
256,192,33551,1,8,0:0:0:0:
256,192,33643,1,8,0:0:0:0:
256,192,33826,1,0,0:0:0:0:
256,192,34009,1,12,0:0:0:0:
256,192,34192,1,0,0:0:0:0:
256,192,34283,1,0,0:0:0:0:
256,192,34374,1,8,0:0:0:0:
256,192,34466,1,8,0:0:0:0:
256,192,34557,1,0,0:0:0:0:
256,192,34649,1,8,0:0:0:0:
256,192,34740,1,0,0:0:0:0:
256,192,34923,1,0,0:0:0:0:
256,192,35015,1,8,0:0:0:0:
256,192,35106,1,0,0:0:0:0:
256,192,35289,1,8,0:0:0:0:
256,192,35472,1,0,0:0:0:0:
256,192,35594,1,0,0:0:0:0:
256,192,35716,1,0,0:0:0:0:
256,192,35838,1,8,0:0:0:0:
256,192,35960,1,8,0:0:0:0:
256,192,36082,1,8,0:0:0:0:
256,192,36204,1,0,0:0:0:0:
256,192,36326,1,0,0:0:0:0:
256,192,36448,1,8,0:0:0:0:
256,192,36570,1,0,0:0:0:0:
256,192,36692,1,0,0:0:0:0:
256,192,36813,1,0,0:0:0:0:
256,192,36935,1,12,0:0:0:0:
256,192,37118,1,0,0:0:0:0:
256,192,37210,1,0,0:0:0:0:
256,192,37301,1,8,0:0:0:0:
256,192,37393,1,0,0:0:0:0:
256,192,37484,1,0,0:0:0:0:
256,192,37576,1,8,0:0:0:0:
256,192,37667,1,0,0:0:0:0:
256,192,37850,1,8,0:0:0:0:
256,192,38033,1,8,0:0:0:0:
256,192,38216,1,0,0:0:0:0:
256,192,38399,1,8,0:0:0:0:
256,192,38582,1,8,0:0:0:0:
256,192,38673,1,8,0:0:0:0:
256,192,38765,1,0,0:0:0:0:
256,192,38856,1,8,0:0:0:0:
256,192,38948,1,8,0:0:0:0:
256,192,39039,1,0,0:0:0:0:
256,192,39131,1,8,0:0:0:0:
256,192,39313,1,8,0:0:0:0:
256,192,39405,1,0,0:0:0:0:
256,192,39496,1,0,0:0:0:0:
256,192,39679,1,8,0:0:0:0:
256,192,39862,1,4,0:0:0:0:
256,192,40045,1,0,0:0:0:0:
256,192,40137,1,0,0:0:0:0:
256,192,40228,1,8,0:0:0:0:
256,192,40320,1,0,0:0:0:0:
256,192,40411,1,0,0:0:0:0:
256,192,40503,1,8,0:0:0:0:
256,192,40594,1,0,0:0:0:0:
256,192,40777,1,8,0:0:0:0:
256,192,40960,1,8,0:0:0:0:
256,192,41143,1,0,0:0:0:0:
256,192,41326,1,8,0:0:0:0:
256,192,41509,1,8,0:0:0:0:
256,192,41600,1,8,0:0:0:0:
256,192,41692,1,0,0:0:0:0:
256,192,41783,1,8,0:0:0:0:
256,192,41874,1,8,0:0:0:0:
256,192,41966,1,0,0:0:0:0:
256,192,42057,1,8,0:0:0:0:
256,192,42240,1,0,0:0:0:0:
256,192,42332,1,8,0:0:0:0:
256,192,42423,1,8,0:0:0:0:
256,192,42515,1,0,0:0:0:0:
256,192,42606,1,0,0:0:0:0:
256,192,42789,1,12,0:0:0:0:
256,192,42972,1,0,0:0:0:0:
256,192,43063,1,0,0:0:0:0:
256,192,43155,1,8,0:0:0:0:
256,192,43246,1,0,0:0:0:0:
256,192,43338,1,8,0:0:0:0:
256,192,43429,1,8,0:0:0:0:
256,192,43521,1,0,0:0:0:0:
256,192,43704,1,8,0:0:0:0:
256,192,43887,1,0,0:0:0:0:
256,192,44070,1,0,0:0:0:0:
256,192,44253,1,8,0:0:0:0:
256,192,44435,1,8,0:0:0:0:
256,192,44527,1,8,0:0:0:0:
256,192,44618,1,0,0:0:0:0:
256,192,44710,1,8,0:0:0:0:
256,192,44801,1,0,0:0:0:0:
256,192,44893,1,0,0:0:0:0:
256,192,44984,1,8,0:0:0:0:
256,192,45167,1,0,0:0:0:0:
256,192,45259,1,8,0:0:0:0:
256,192,45350,1,8,0:0:0:0:
256,192,45533,1,0,0:0:0:0:
256,192,45716,1,12,0:0:0:0:
256,192,45899,1,0,0:0:0:0:
256,192,45990,1,0,0:0:0:0:
256,192,46082,1,8,0:0:0:0:
256,192,46173,1,8,0:0:0:0:
256,192,46265,1,0,0:0:0:0:
256,192,46356,1,8,0:0:0:0:
256,192,46448,1,0,0:0:0:0:
256,192,46631,1,0,0:0:0:0:
256,192,46722,1,0,0:0:0:0:
256,192,46813,1,0,0:0:0:0:
256,192,46996,1,0,0:0:0:0:
256,192,47088,1,0,0:0:0:0:
256,192,47179,1,8,0:0:0:0:
256,192,47271,1,0,0:0:0:0:
256,192,47362,1,8,0:0:0:0:
256,192,47423,1,8,0:0:0:0:
256,192,47484,1,0,0:0:0:0:
256,192,47545,1,0,0:0:0:0:
256,192,47637,1,8,0:0:0:0:
256,192,47728,1,0,0:0:0:0:
256,192,47789,1,0,0:0:0:0:
256,192,47850,1,0,0:0:0:0:
256,192,47911,1,8,0:0:0:0:
256,192,48003,1,0,0:0:0:0:
256,192,48094,1,0,0:0:0:0:
256,192,48185,1,0,0:0:0:0:
256,192,48277,1,8,0:0:0:0:
256,192,48338,1,8,0:0:0:0:
256,192,48399,1,8,0:0:0:0:
256,192,48460,1,0,0:0:0:0:
256,192,48643,1,12,0:0:0:0:
256,192,48826,1,0,0:0:0:0:
256,192,48917,1,8,0:0:0:0:
256,192,49009,1,8,0:0:0:0:
256,192,49100,1,0,0:0:0:0:
256,192,49192,1,8,0:0:0:0:
256,192,49374,1,0,0:0:0:0:
256,192,49466,1,8,0:0:0:0:
256,192,49557,1,0,0:0:0:0:
256,192,49740,1,8,0:0:0:0:
256,192,49923,1,8,0:0:0:0:
256,192,50106,1,4,0:0:0:0:
256,192,50289,1,0,0:0:0:0:
256,192,50381,1,8,0:0:0:0:
256,192,50472,1,8,0:0:0:0:
256,192,50563,1,8,0:0:0:0:
256,192,50655,1,0,0:0:0:0:
256,192,50838,1,0,0:0:0:0:
256,192,50929,1,8,0:0:0:0:
256,192,51021,1,0,0:0:0:0:
256,192,51204,1,8,0:0:0:0:
256,192,51387,1,0,0:0:0:0:
256,192,51570,1,12,0:0:0:0:
256,192,51753,1,0,0:0:0:0:
256,192,51844,1,8,0:0:0:0:
256,192,51935,1,8,0:0:0:0:
256,192,52027,1,0,0:0:0:0:
256,192,52118,1,8,0:0:0:0:
256,192,52301,1,8,0:0:0:0:
256,192,52393,1,0,0:0:0:0:
256,192,52484,1,8,0:0:0:0:
256,192,52667,1,0,0:0:0:0:
256,192,52850,1,8,0:0:0:0:
256,192,53033,1,4,0:0:0:0:
256,192,53216,1,0,0:0:0:0:
256,192,53307,1,8,0:0:0:0:
256,192,53399,1,8,0:0:0:0:
256,192,53490,1,8,0:0:0:0:
256,192,53582,1,0,0:0:0:0:
256,192,53765,1,8,0:0:0:0:
256,192,53856,1,0,0:0:0:0:
256,192,53948,1,8,0:0:0:0:
256,192,54131,1,0,0:0:0:0:
256,192,54313,1,0,0:0:0:0:
256,192,54496,1,8,0:0:0:0:
256,192,54679,1,0,0:0:0:0:
256,192,54771,1,8,0:0:0:0:
256,192,54862,1,8,0:0:0:0:
256,192,54954,1,0,0:0:0:0:
256,192,55045,1,8,0:0:0:0:
256,192,55228,1,8,0:0:0:0:
256,192,55320,1,8,0:0:0:0:
256,192,55411,1,0,0:0:0:0:
256,192,55503,1,0,0:0:0:0:
256,192,55594,1,8,0:0:0:0:
256,192,55777,1,0,0:0:0:0:
256,192,55960,1,8,0:0:0:0:
256,192,56143,1,0,0:0:0:0:
256,192,56234,1,8,0:0:0:0:
256,192,56326,1,8,0:0:0:0:
256,192,56417,1,8,0:0:0:0:
256,192,56509,1,0,0:0:0:0:
256,192,56692,1,8,0:0:0:0:
256,192,56783,1,8,0:0:0:0:
256,192,56874,1,0,0:0:0:0:
256,192,56966,1,0,0:0:0:0:
256,192,57057,1,8,0:0:0:0:
256,192,57240,1,0,0:0:0:0:
256,192,57423,1,8,0:0:0:0:
256,192,57515,1,0,0:0:0:0:
256,192,57606,1,0,0:0:0:0:
256,192,57698,1,8,0:0:0:0:
256,192,57789,1,0,0:0:0:0:
256,192,57972,1,8,0:0:0:0:
256,192,58155,1,0,0:0:0:0:
256,192,58246,1,0,0:0:0:0:
256,192,58338,1,0,0:0:0:0:
256,192,58429,1,0,0:0:0:0:
256,192,58521,1,8,0:0:0:0:
256,192,58704,1,8,0:0:0:0:
256,192,58887,1,4,0:0:0:0:
256,192,59070,12,0,60167,0:0:0:0:
256,192,60350,5,12,0:0:0:0:
256,192,60624,1,0,0:0:0:0:
256,192,60716,1,0,0:0:0:0:
256,192,60899,1,8,0:0:0:0:
256,192,61082,1,0,0:0:0:0:
256,192,61173,1,8,0:0:0:0:
256,192,61265,1,0,0:0:0:0:
256,192,61356,1,0,0:0:0:0:
256,192,61448,1,8,0:0:0:0:
256,192,61631,1,8,0:0:0:0:
256,192,61813,1,0,0:0:0:0:
256,192,62088,1,0,0:0:0:0:
256,192,62179,1,0,0:0:0:0:
256,192,62362,1,8,0:0:0:0:
256,192,62545,1,0,0:0:0:0:
256,192,62637,1,8,0:0:0:0:
256,192,62728,1,0,0:0:0:0:
256,192,62820,1,0,0:0:0:0:
256,192,62911,1,8,0:0:0:0:
256,192,63094,1,8,0:0:0:0:
256,192,63277,1,0,0:0:0:0:
256,192,63551,1,0,0:0:0:0:
256,192,63643,1,0,0:0:0:0:
256,192,63826,1,8,0:0:0:0:
256,192,64009,1,0,0:0:0:0:
256,192,64100,1,8,0:0:0:0:
256,192,64192,1,0,0:0:0:0:
256,192,64283,1,0,0:0:0:0:
256,192,64374,1,8,0:0:0:0:
256,192,64557,1,8,0:0:0:0:
256,192,64740,1,0,0:0:0:0:
256,192,65015,1,0,0:0:0:0:
256,192,65106,1,0,0:0:0:0:
256,192,65289,1,8,0:0:0:0:
256,192,65472,1,0,0:0:0:0:
256,192,65563,1,0,0:0:0:0:
256,192,65655,1,8,0:0:0:0:
256,192,65716,1,8,0:0:0:0:
256,192,65777,1,8,0:0:0:0:
256,192,65838,1,0,0:0:0:0:
256,192,65929,1,0,0:0:0:0:
256,192,66021,1,8,0:0:0:0:
256,192,66204,5,12,0:0:0:0:
256,192,66387,1,0,0:0:0:0:
256,192,66478,1,8,0:0:0:0:
256,192,66570,1,0,0:0:0:0:
256,192,66753,1,8,0:0:0:0:
256,192,66844,1,0,0:0:0:0:
256,192,66935,1,0,0:0:0:0:
256,192,67027,1,8,0:0:0:0:
256,192,67118,1,0,0:0:0:0:
256,192,67210,1,0,0:0:0:0:
256,192,67301,1,8,0:0:0:0:
256,192,67484,1,8,0:0:0:0:
256,192,67667,1,0,0:0:0:0:
256,192,67850,1,0,0:0:0:0:
256,192,67942,1,8,0:0:0:0:
256,192,68033,1,0,0:0:0:0:
256,192,68216,1,8,0:0:0:0:
256,192,68307,1,8,0:0:0:0:
256,192,68399,1,0,0:0:0:0:
256,192,68490,1,8,0:0:0:0:
256,192,68582,1,0,0:0:0:0:
256,192,68673,1,0,0:0:0:0:
256,192,68765,1,8,0:0:0:0:
256,192,68948,1,8,0:0:0:0:
256,192,69131,1,4,0:0:0:0:
256,192,69405,1,0,0:0:0:0:
256,192,69496,1,0,0:0:0:0:
256,192,69679,1,8,0:0:0:0:
256,192,69771,1,8,0:0:0:0:
256,192,69862,1,0,0:0:0:0:
256,192,69954,1,8,0:0:0:0:
256,192,70045,1,8,0:0:0:0:
256,192,70137,1,0,0:0:0:0:
256,192,70228,1,8,0:0:0:0:
256,192,70411,1,8,0:0:0:0:
256,192,70594,1,0,0:0:0:0:
256,192,70868,1,0,0:0:0:0:
256,192,70960,1,8,0:0:0:0:
256,192,71143,1,8,0:0:0:0:
256,192,71234,1,0,0:0:0:0:
256,192,71326,1,8,0:0:0:0:
256,192,71387,1,8,0:0:0:0:
256,192,71448,1,8,0:0:0:0:
256,192,71509,1,0,0:0:0:0:
256,192,71600,1,0,0:0:0:0:
256,192,71692,1,8,0:0:0:0:
256,192,71874,1,0,0:0:0:0:
256,192,72057,1,12,0:0:0:0:
256,192,72240,1,0,0:0:0:0:
256,192,72332,1,0,0:0:0:0:
256,192,72423,1,0,0:0:0:0:
256,192,72606,1,8,0:0:0:0:
256,192,72698,1,0,0:0:0:0:
256,192,72789,1,8,0:0:0:0:
256,192,72881,1,8,0:0:0:0:
256,192,72972,1,0,0:0:0:0:
256,192,73063,1,0,0:0:0:0:
256,192,73155,1,8,0:0:0:0:
256,192,73338,1,0,0:0:0:0:
256,192,73521,1,12,0:0:0:0:
256,192,73704,1,0,0:0:0:0:
256,192,73795,1,0,0:0:0:0:
256,192,73887,1,8,0:0:0:0:
256,192,74070,1,0,0:0:0:0:
256,192,74161,1,0,0:0:0:0:
256,192,74253,1,8,0:0:0:0:
256,192,74344,1,0,0:0:0:0:
256,192,74435,1,0,0:0:0:0:
256,192,74527,1,8,0:0:0:0:
256,192,74618,1,8,0:0:0:0:
256,192,74801,1,0,0:0:0:0:
256,192,74984,1,12,0:0:0:0:
256,192,75167,1,0,0:0:0:0:
256,192,75259,1,0,0:0:0:0:
256,192,75350,1,0,0:0:0:0:
256,192,75533,1,0,0:0:0:0:
256,192,75624,1,0,0:0:0:0:
256,192,75716,1,8,0:0:0:0:
256,192,75807,1,8,0:0:0:0:
256,192,75899,1,0,0:0:0:0:
256,192,75990,1,0,0:0:0:0:
256,192,76082,1,8,0:0:0:0:
256,192,76265,1,8,0:0:0:0:
256,192,76448,1,4,0:0:0:0:
256,192,76631,1,8,0:0:0:0:
256,192,76813,1,8,0:0:0:0:
256,192,76905,1,8,0:0:0:0:
256,192,76996,1,0,0:0:0:0:
256,192,77179,1,8,0:0:0:0:
256,192,77271,1,8,0:0:0:0:
256,192,77362,1,0,0:0:0:0:
256,192,77454,1,0,0:0:0:0:
256,192,77545,1,8,0:0:0:0:
256,192,77637,1,0,0:0:0:0:
256,192,77728,1,8,0:0:0:0:
256,192,77911,1,12,0:0:0:0:
256,192,78094,1,0,0:0:0:0:
256,192,78185,1,0,0:0:0:0:
256,192,78277,1,0,0:0:0:0:
256,192,78460,1,8,0:0:0:0:
256,192,78551,1,0,0:0:0:0:
256,192,78643,1,8,0:0:0:0:
256,192,78734,1,8,0:0:0:0:
256,192,78826,1,0,0:0:0:0:
256,192,78917,1,0,0:0:0:0:
256,192,79009,1,8,0:0:0:0:
256,192,79192,1,8,0:0:0:0:
256,192,79374,1,12,0:0:0:0:
256,192,79557,1,0,0:0:0:0:
256,192,79649,1,0,0:0:0:0:
256,192,79740,1,0,0:0:0:0:
256,192,79923,1,8,0:0:0:0:
256,192,80015,1,8,0:0:0:0:
256,192,80106,1,0,0:0:0:0:
256,192,80198,1,0,0:0:0:0:
256,192,80289,1,0,0:0:0:0:
256,192,80381,1,0,0:0:0:0:
256,192,80472,1,8,0:0:0:0:
256,192,80655,1,0,0:0:0:0:
256,192,80838,1,4,0:0:0:0:
256,192,81021,1,8,0:0:0:0:
256,192,81204,1,8,0:0:0:0:
256,192,81295,1,0,0:0:0:0:
256,192,81387,1,0,0:0:0:0:
256,192,81570,1,4,0:0:0:0:
256,192,81753,1,8,0:0:0:0:
256,192,81844,1,0,0:0:0:0:
256,192,81935,1,0,0:0:0:0:
256,192,82118,1,8,0:0:0:0:
256,192,82301,1,4,0:0:0:0:
256,192,82484,1,0,0:0:0:0:
256,192,82576,1,0,0:0:0:0:
256,192,82667,1,8,0:0:0:0:
256,192,82850,1,0,0:0:0:0:
256,192,82942,1,8,0:0:0:0:
256,192,83033,1,8,0:0:0:0:
256,192,83124,1,0,0:0:0:0:
256,192,83216,1,0,0:0:0:0:
256,192,83277,1,0,0:0:0:0:
256,192,83338,1,0,0:0:0:0:
256,192,83399,1,8,0:0:0:0:
256,192,83765,1,12,0:0:0:0:
256,192,84039,1,0,0:0:0:0:
256,192,84131,1,0,0:0:0:0:
256,192,84313,1,0,0:0:0:0:
256,192,84405,1,8,0:0:0:0:
256,192,84496,1,0,0:0:0:0:
256,192,84588,1,0,0:0:0:0:
256,192,84679,1,8,0:0:0:0:
256,192,84862,1,0,0:0:0:0:
256,192,84954,1,8,0:0:0:0:
256,192,85045,1,0,0:0:0:0:
256,192,85137,1,0,0:0:0:0:
256,192,85228,1,8,0:0:0:0:
256,192,85320,1,8,0:0:0:0:
256,192,85411,1,0,0:0:0:0:
256,192,85503,1,8,0:0:0:0:
256,192,85594,1,8,0:0:0:0:
256,192,85777,1,8,0:0:0:0:
256,192,85868,1,0,0:0:0:0:
256,192,85960,1,0,0:0:0:0:
256,192,86051,1,8,0:0:0:0:
256,192,86143,1,8,0:0:0:0:
256,192,86326,1,8,0:0:0:0:
256,192,86417,1,0,0:0:0:0:
256,192,86509,1,8,0:0:0:0:
256,192,86692,1,0,0:0:0:0:
256,192,86783,1,0,0:0:0:0:
256,192,86874,1,8,0:0:0:0:
256,192,86966,1,0,0:0:0:0:
256,192,87057,1,0,0:0:0:0:
256,192,87240,1,8,0:0:0:0:
256,192,87332,1,0,0:0:0:0:
256,192,87423,1,0,0:0:0:0:
256,192,87515,1,0,0:0:0:0:
256,192,87606,1,8,0:0:0:0:
256,192,87789,1,0,0:0:0:0:
256,192,87881,1,8,0:0:0:0:
256,192,87972,1,0,0:0:0:0:
256,192,88063,1,0,0:0:0:0:
256,192,88155,1,8,0:0:0:0:
256,192,88246,1,8,0:0:0:0:
256,192,88338,1,0,0:0:0:0:
256,192,88429,1,8,0:0:0:0:
256,192,88521,1,0,0:0:0:0:
256,192,88704,1,8,0:0:0:0:
256,192,88795,1,0,0:0:0:0:
256,192,88887,1,8,0:0:0:0:
256,192,88978,1,8,0:0:0:0:
256,192,89070,1,0,0:0:0:0:
256,192,89161,1,0,0:0:0:0:
256,192,89253,1,8,0:0:0:0:
256,192,89344,1,0,0:0:0:0:
256,192,89435,1,8,0:0:0:0:
256,192,89618,1,4,0:0:0:0:
256,192,89893,1,0,0:0:0:0:
256,192,89984,1,8,0:0:0:0:
256,192,90167,1,0,0:0:0:0:
256,192,90259,1,8,0:0:0:0:
256,192,90350,1,0,0:0:0:0:
256,192,90442,1,0,0:0:0:0:
256,192,90533,1,8,0:0:0:0:
256,192,90716,1,0,0:0:0:0:
256,192,90807,1,8,0:0:0:0:
256,192,90899,1,0,0:0:0:0:
256,192,90990,1,0,0:0:0:0:
256,192,91082,1,8,0:0:0:0:
256,192,91173,1,8,0:0:0:0:
256,192,91265,1,0,0:0:0:0:
256,192,91356,1,8,0:0:0:0:
256,192,91448,1,8,0:0:0:0:
256,192,91631,1,8,0:0:0:0:
256,192,91722,1,0,0:0:0:0:
256,192,91813,1,0,0:0:0:0:
256,192,91905,1,8,0:0:0:0:
256,192,91996,1,8,0:0:0:0:
256,192,92179,5,8,0:0:0:0:
256,192,92271,1,0,0:0:0:0:
256,192,92362,1,8,0:0:0:0:
256,192,92545,1,8,0:0:0:0:
256,192,92637,1,0,0:0:0:0:
256,192,92728,1,0,0:0:0:0:
256,192,92820,1,8,0:0:0:0:
256,192,92911,1,0,0:0:0:0:
256,192,93094,1,0,0:0:0:0:
256,192,93185,1,0,0:0:0:0:
256,192,93277,1,8,0:0:0:0:
256,192,93368,1,0,0:0:0:0:
256,192,93460,1,0,0:0:0:0:
256,192,93551,1,0,0:0:0:0:
256,192,93643,1,8,0:0:0:0:
256,192,93734,1,8,0:0:0:0:
256,192,93826,1,0,0:0:0:0:
256,192,94009,1,8,0:0:0:0:
256,192,94100,1,8,0:0:0:0:
256,192,94192,1,0,0:0:0:0:
256,192,94253,1,0,0:0:0:0:
256,192,94313,1,8,0:0:0:0:
256,192,94374,1,8,0:0:0:0:
256,192,94466,1,0,0:0:0:0:
256,192,94557,1,8,0:0:0:0:
256,192,94618,1,8,0:0:0:0:
256,192,94679,1,8,0:0:0:0:
256,192,94740,1,0,0:0:0:0:
256,192,94832,1,0,0:0:0:0:
256,192,94923,1,8,0:0:0:0:
256,192,94984,1,0,0:0:0:0:
256,192,95045,1,0,0:0:0:0:
256,192,95106,1,8,0:0:0:0:
256,192,95198,1,0,0:0:0:0:
256,192,95289,1,0,0:0:0:0:
256,192,95472,1,12,0:0:0:0:
256,192,95746,1,0,0:0:0:0:
256,192,95838,1,0,0:0:0:0:
256,192,96021,1,0,0:0:0:0:
256,192,96112,1,8,0:0:0:0:
256,192,96295,1,8,0:0:0:0:
256,192,96387,1,8,0:0:0:0:
256,192,96570,1,0,0:0:0:0:
256,192,96661,1,0,0:0:0:0:
256,192,96753,1,8,0:0:0:0:
256,192,96844,1,0,0:0:0:0:
256,192,96935,1,8,0:0:0:0:
256,192,97027,1,8,0:0:0:0:
256,192,97210,1,8,0:0:0:0:
256,192,97301,1,8,0:0:0:0:
256,192,97484,1,0,0:0:0:0:
256,192,97576,1,8,0:0:0:0:
256,192,97759,1,8,0:0:0:0:
256,192,97850,1,8,0:0:0:0:
256,192,98033,1,8,0:0:0:0:
256,192,98124,1,0,0:0:0:0:
256,192,98216,1,8,0:0:0:0:
256,192,98399,1,8,0:0:0:0:
256,192,98490,1,0,0:0:0:0:
256,192,98673,1,8,0:0:0:0:
256,192,98765,1,8,0:0:0:0:
256,192,98948,1,8,0:0:0:0:
256,192,99039,1,0,0:0:0:0:
256,192,99222,1,0,0:0:0:0:
256,192,99313,1,8,0:0:0:0:
256,192,99496,1,0,0:0:0:0:
256,192,99588,1,8,0:0:0:0:
256,192,99679,1,0,0:0:0:0:
256,192,99862,1,0,0:0:0:0:
256,192,99954,1,0,0:0:0:0:
256,192,100137,1,0,0:0:0:0:
256,192,100228,1,0,0:0:0:0:
256,192,100411,1,8,0:0:0:0:
256,192,100503,1,8,0:0:0:0:
256,192,100685,1,8,0:0:0:0:
256,192,100777,1,8,0:0:0:0:
256,192,100960,1,0,0:0:0:0:
256,192,101051,1,0,0:0:0:0:
256,192,101143,1,8,0:0:0:0:
256,192,101234,1,8,0:0:0:0:
256,192,101326,1,0,0:0:0:0:
256,192,101417,1,8,0:0:0:0:
256,192,101600,1,8,0:0:0:0:
256,192,101692,1,8,0:0:0:0:
256,192,101874,1,0,0:0:0:0:
256,192,101966,1,8,0:0:0:0:
256,192,102149,1,8,0:0:0:0:
256,192,102240,1,8,0:0:0:0:
256,192,102423,1,0,0:0:0:0:
256,192,102515,1,0,0:0:0:0:
256,192,102606,1,8,0:0:0:0:
256,192,102789,1,4,0:0:0:0:
256,192,103063,1,8,0:0:0:0:
256,192,103155,1,8,0:0:0:0:
256,192,103338,1,0,0:0:0:0:
256,192,103429,1,8,0:0:0:0:
256,192,103612,1,0,0:0:0:0:
256,192,103704,1,0,0:0:0:0:
256,192,103887,1,0,0:0:0:0:
256,192,103978,1,0,0:0:0:0:
256,192,104070,1,8,0:0:0:0:
256,192,104253,1,12,0:0:0:0:
256,192,104527,1,0,0:0:0:0:
256,192,104618,1,8,0:0:0:0:
256,192,104801,1,8,0:0:0:0:
256,192,104893,1,0,0:0:0:0:
256,192,105076,1,8,0:0:0:0:
256,192,105167,1,8,0:0:0:0:
256,192,105350,1,0,0:0:0:0:
256,192,105442,1,0,0:0:0:0:
256,192,105533,1,8,0:0:0:0:
256,192,105716,1,4,0:0:0:0:
256,192,106813,5,8,0:0:0:0:
256,192,106905,1,0,0:0:0:0:
256,192,106996,1,0,0:0:0:0:
256,192,107179,1,12,0:0:0:0:
256,192,107362,1,0,0:0:0:0:
256,192,107454,1,8,0:0:0:0:
256,192,107545,1,8,0:0:0:0:
256,192,107637,1,0,0:0:0:0:
256,192,107728,1,8,0:0:0:0:
256,192,107911,1,0,0:0:0:0:
256,192,108003,1,8,0:0:0:0:
256,192,108094,1,0,0:0:0:0:
256,192,108277,1,8,0:0:0:0:
256,192,108460,1,8,0:0:0:0:
256,192,108643,1,4,0:0:0:0:
256,192,108826,1,0,0:0:0:0:
256,192,108917,1,8,0:0:0:0:
256,192,109009,1,8,0:0:0:0:
256,192,109100,1,8,0:0:0:0:
256,192,109192,1,0,0:0:0:0:
256,192,109374,1,0,0:0:0:0:
256,192,109466,1,8,0:0:0:0:
256,192,109557,1,0,0:0:0:0:
256,192,109740,1,8,0:0:0:0:
256,192,109923,1,0,0:0:0:0:
256,192,110106,1,12,0:0:0:0:
256,192,110289,1,0,0:0:0:0:
256,192,110381,1,8,0:0:0:0:
256,192,110472,1,8,0:0:0:0:
256,192,110563,1,0,0:0:0:0:
256,192,110655,1,8,0:0:0:0:
256,192,110838,1,8,0:0:0:0:
256,192,110929,1,0,0:0:0:0:
256,192,111021,1,8,0:0:0:0:
256,192,111204,1,0,0:0:0:0:
256,192,111387,1,8,0:0:0:0:
256,192,111570,1,4,0:0:0:0:
256,192,111753,1,0,0:0:0:0:
256,192,111844,1,8,0:0:0:0:
256,192,111935,1,8,0:0:0:0:
256,192,112027,1,8,0:0:0:0:
256,192,112118,1,0,0:0:0:0:
256,192,112301,1,8,0:0:0:0:
256,192,112393,1,0,0:0:0:0:
256,192,112484,1,8,0:0:0:0:
256,192,112667,1,0,0:0:0:0:
256,192,112850,1,0,0:0:0:0:
256,192,113033,1,8,0:0:0:0:
256,192,113216,1,0,0:0:0:0:
256,192,113307,1,8,0:0:0:0:
256,192,113399,1,8,0:0:0:0:
256,192,113490,1,0,0:0:0:0:
256,192,113582,1,8,0:0:0:0:
256,192,113765,1,8,0:0:0:0:
256,192,113856,1,8,0:0:0:0:
256,192,113948,1,0,0:0:0:0:
256,192,114039,1,0,0:0:0:0:
256,192,114131,1,8,0:0:0:0:
256,192,114313,1,0,0:0:0:0:
256,192,114496,1,8,0:0:0:0:
256,192,114679,1,0,0:0:0:0:
256,192,114771,1,8,0:0:0:0:
256,192,114862,1,8,0:0:0:0:
256,192,114954,1,8,0:0:0:0:
256,192,115045,1,0,0:0:0:0:
256,192,115228,1,8,0:0:0:0:
256,192,115320,1,8,0:0:0:0:
256,192,115411,1,0,0:0:0:0:
256,192,115503,1,0,0:0:0:0:
256,192,115594,1,8,0:0:0:0:
256,192,115777,1,0,0:0:0:0:
256,192,115960,1,8,0:0:0:0:
256,192,116051,1,0,0:0:0:0:
256,192,116143,1,0,0:0:0:0:
256,192,116234,1,8,0:0:0:0:
256,192,116326,1,0,0:0:0:0:
256,192,116509,1,8,0:0:0:0:
256,192,116692,1,0,0:0:0:0:
256,192,116783,1,0,0:0:0:0:
256,192,116874,1,0,0:0:0:0:
256,192,116966,1,0,0:0:0:0:
256,192,117057,1,8,0:0:0:0:
256,192,117240,1,8,0:0:0:0:
256,192,117423,1,4,0:0:0:0:
256,192,117606,12,0,118887,0:0:0:0:
