osu file format v14

[General]
AudioFilename: audio.mp3
AudioLeadIn: 0
PreviewTime: 48291
Countdown: 0
SampleSet: None
StackLeniency: 0.7
Mode: 3
LetterboxInBreaks: 0
SpecialStyle: 0
WidescreenStoryboard: 0

[Editor]
DistanceSpacing: 1
BeatDivisor: 4
GridSize: 32
TimelineZoom: 1.5

[Metadata]
Title:Ymir
TitleUnicode:ユミル
Artist:MYTHOLOGIA by MLREC.
ArtistUnicode:MYTHOLOGIA by MLREC.
Creator:Kuo Kyoka
Version:Primeval
Source:beatmania IIDX 19 Lincle
Tags:
BeatmapID:2003253
BeatmapSetID:956898

[Difficulty]
HPDrainRate:8
CircleSize:4
OverallDifficulty:8
ApproachRate:5
SliderMultiplier:1.4
SliderTickRate:1

[Events]
//Background and Video events
0,0,"bg.png",0,0
//Break Periods
//Storyboard Layer 0 (Background)
//Storyboard Layer 1 (Fail)
//Storyboard Layer 2 (Pass)
//Storyboard Layer 3 (Foreground)
//Storyboard Sound Samples

[TimingPoints]
365,365.853658536585,4,2,0,30,1,0
48657,-100,4,2,0,30,0,1
58901,-100,4,2,0,30,0,0
107194,-100,4,2,0,30,0,1
117438,-100,4,2,0,30,0,0

[HitObjects]
64,192,365,128,0,1828:0:0:0:0:
448,192,1462,128,0,1554:0:0:0:0:
192,192,1828,1,0,0:0:0:0:
448,192,1828,128,0,1919:0:0:0:0:
320,192,2194,1,0,0:0:0:0:
64,192,2377,1,0,0:0:0:0:
448,192,2560,1,0,0:0:0:0:
192,192,2560,1,0,0:0:0:0:
320,192,2743,1,0,0:0:0:0:
64,192,2925,1,0,0:0:0:0:
320,192,3108,1,0,0:0:0:0:
192,192,3291,128,0,4023:0:0:0:0:
448,192,3657,128,0,4023:0:0:0:0:
192,192,4389,128,0,4480:0:0:0:0:
320,192,4755,1,0,0:0:0:0:
64,192,4755,1,0,0:0:0:0:
192,192,4938,1,0,0:0:0:0:
448,192,5121,1,0,0:0:0:0:
64,192,5121,1,0,0:0:0:0:
320,192,5304,1,0,0:0:0:0:
64,192,5486,1,0,0:0:0:0:
192,192,5486,1,0,0:0:0:0:
448,192,5669,1,0,0:0:0:0:
64,192,5852,1,0,0:0:0:0:
320,192,5852,1,0,0:0:0:0:
192,192,6035,1,0,0:0:0:0:
320,192,6218,128,0,7682:0:0:0:0:
448,192,6218,128,0,7682:0:0:0:0:
64,192,7316,128,0,7407:0:0:0:0:
64,192,7682,1,0,0:0:0:0:
192,192,7682,1,0,0:0:0:0:
320,192,7864,1,0,0:0:0:0:
64,192,8047,1,0,0:0:0:0:
448,192,8047,1,0,0:0:0:0:
192,192,8230,1,0,0:0:0:0:
448,192,8413,1,0,0:0:0:0:
320,192,8413,1,0,0:0:0:0:
64,192,8596,1,0,0:0:0:0:
192,192,8779,1,0,0:0:0:0:
448,192,8779,1,0,0:0:0:0:
320,192,8962,1,0,0:0:0:0:
64,192,9145,1,0,0:0:0:0:
448,192,9145,1,0,0:0:0:0:
192,192,9328,1,0,0:0:0:0:
320,192,9511,1,0,0:0:0:0:
192,192,9694,1,0,0:0:0:0:
448,192,9877,1,0,0:0:0:0:
64,192,9877,128,0,9968:0:0:0:0:
448,192,10608,1,0,0:0:0:0:
64,192,10608,128,0,10700:0:0:0:0:
320,192,10791,1,0,0:0:0:0:
192,192,10974,128,0,11066:0:0:0:0:
64,192,10974,1,0,0:0:0:0:
448,192,11157,1,0,0:0:0:0:
320,192,11340,128,0,11432:0:0:0:0:
64,192,11340,1,0,0:0:0:0:
192,192,11523,1,0,0:0:0:0:
448,192,11706,128,0,11797:0:0:0:0:
320,192,11706,1,0,0:0:0:0:
192,192,11889,1,0,0:0:0:0:
448,192,12072,128,0,12438:0:0:0:0:
64,192,12072,128,0,12163:0:0:0:0:
64,192,12804,1,0,0:0:0:0:
192,192,12804,1,0,0:0:0:0:
320,192,12895,1,0,0:0:0:0:
448,192,12895,1,0,0:0:0:0:
64,192,12986,1,0,0:0:0:0:
192,192,13078,1,0,0:0:0:0:
448,192,13169,1,0,0:0:0:0:
320,192,13169,1,0,0:0:0:0:
192,192,13261,1,0,0:0:0:0:
64,192,13261,1,0,0:0:0:0:
320,192,13352,1,0,0:0:0:0:
448,192,13352,1,0,0:0:0:0:
192,192,13444,1,0,0:0:0:0:
64,192,13444,1,0,0:0:0:0:
320,192,13535,1,0,0:0:0:0:
448,192,13535,1,0,0:0:0:0:
64,192,13535,128,0,13901:0:0:0:0:
192,192,13718,1,0,0:0:0:0:
320,192,13901,1,0,0:0:0:0:
448,192,13901,1,0,0:0:0:0:
192,192,14084,1,0,0:0:0:0:
320,192,14267,1,0,0:0:0:0:
448,192,14267,1,0,0:0:0:0:
64,192,14267,128,0,14633:0:0:0:0:
192,192,14450,1,0,0:0:0:0:
448,192,14633,1,0,0:0:0:0:
320,192,14633,1,0,0:0:0:0:
192,192,14816,1,0,0:0:0:0:
192,192,14999,1,0,0:0:0:0:
64,192,14999,1,0,0:0:0:0:
448,192,14999,1,0,0:0:0:0:
320,192,14999,128,0,16096:0:0:0:0:
448,192,15182,1,0,0:0:0:0:
192,192,15364,1,0,0:0:0:0:
64,192,15364,1,0,0:0:0:0:
448,192,15547,1,0,0:0:0:0:
192,192,15730,1,0,0:0:0:0:
64,192,15730,1,0,0:0:0:0:
448,192,15913,1,0,0:0:0:0:
192,192,16096,1,0,0:0:0:0:
64,192,16096,1,0,0:0:0:0:
448,192,16279,1,0,0:0:0:0:
448,192,16462,1,0,0:0:0:0:
320,192,16462,1,0,0:0:0:0:
192,192,16462,1,0,0:0:0:0:
64,192,16462,128,0,16828:0:0:0:0:
192,192,16645,1,0,0:0:0:0:
320,192,16828,1,0,0:0:0:0:
448,192,16828,1,0,0:0:0:0:
448,192,17011,1,0,0:0:0:0:
320,192,17102,1,0,0:0:0:0:
192,192,17194,128,0,17560:0:0:0:0:
64,192,17194,1,0,0:0:0:0:
64,192,17377,1,0,0:0:0:0:
320,192,17560,1,0,0:0:0:0:
448,192,17560,1,0,0:0:0:0:
64,192,17743,1,0,0:0:0:0:
192,192,17834,1,0,0:0:0:0:
320,192,17925,128,0,18291:0:0:0:0:
448,192,17925,1,0,0:0:0:0:
448,192,18108,1,0,0:0:0:0:
192,192,18291,1,0,0:0:0:0:
64,192,18291,1,0,0:0:0:0:
64,192,18474,1,0,0:0:0:0:
192,192,18566,1,0,0:0:0:0:
448,192,18657,128,0,19023:0:0:0:0:
320,192,18657,1,0,0:0:0:0:
320,192,18840,1,0,0:0:0:0:
192,192,19023,1,0,0:0:0:0:
64,192,19023,1,0,0:0:0:0:
192,192,19206,1,0,0:0:0:0:
320,192,19297,1,0,0:0:0:0:
64,192,19389,1,0,0:0:0:0:
448,192,19389,1,0,0:0:0:0:
192,192,19572,1,0,0:0:0:0:
64,192,19755,1,0,0:0:0:0:
448,192,19755,1,0,0:0:0:0:
192,192,19938,1,0,0:0:0:0:
320,192,20029,1,0,0:0:0:0:
64,192,20121,1,0,0:0:0:0:
448,192,20121,1,0,0:0:0:0:
192,192,20304,1,0,0:0:0:0:
64,192,20486,1,0,0:0:0:0:
448,192,20486,1,0,0:0:0:0:
192,192,20669,1,0,0:0:0:0:
320,192,20761,1,0,0:0:0:0:
64,192,20852,1,0,0:0:0:0:
448,192,20852,1,0,0:0:0:0:
192,192,21035,1,0,0:0:0:0:
64,192,21218,1,0,0:0:0:0:
448,192,21218,1,0,0:0:0:0:
192,192,21401,1,0,0:0:0:0:
320,192,21493,1,0,0:0:0:0:
64,192,21584,1,0,0:0:0:0:
448,192,21584,1,0,0:0:0:0:
192,192,21767,1,0,0:0:0:0:
64,192,21950,1,0,0:0:0:0:
448,192,21950,1,0,0:0:0:0:
192,192,22133,1,0,0:0:0:0:
320,192,22224,1,0,0:0:0:0:
448,192,22316,1,0,0:0:0:0:
64,192,22316,128,0,23779:0:0:0:0:
320,192,22499,1,0,0:0:0:0:
448,192,22682,1,0,0:0:0:0:
320,192,22864,1,0,0:0:0:0:
192,192,23047,128,0,23779:0:0:0:0:
448,192,23047,1,0,0:0:0:0:
320,192,23230,1,0,0:0:0:0:
448,192,23413,1,0,0:0:0:0:
320,192,23596,1,0,0:0:0:0:
448,192,23779,1,0,0:0:0:0:
320,192,24511,128,0,25243:0:0:0:0:
448,192,25243,1,0,0:0:0:0:
64,192,25243,1,0,0:0:0:0:
192,192,25243,1,0,0:0:0:0:
192,192,25425,1,0,0:0:0:0:
448,192,25425,1,0,0:0:0:0:
320,192,25517,1,0,0:0:0:0:
64,192,25608,1,0,0:0:0:0:
192,192,25700,1,0,0:0:0:0:
448,192,25700,1,0,0:0:0:0:
320,192,25791,1,0,0:0:0:0:
192,192,25883,1,0,0:0:0:0:
64,192,25883,1,0,0:0:0:0:
448,192,25974,1,0,0:0:0:0:
320,192,26066,1,0,0:0:0:0:
64,192,26157,1,0,0:0:0:0:
448,192,26157,1,0,0:0:0:0:
192,192,26249,1,0,0:0:0:0:
320,192,26340,1,0,0:0:0:0:
448,192,26340,1,0,0:0:0:0:
192,192,26523,1,0,0:0:0:0:
320,192,26523,1,0,0:0:0:0:
448,192,26614,1,0,0:0:0:0:
192,192,26706,1,0,0:0:0:0:
64,192,26706,1,0,0:0:0:0:
320,192,26797,1,0,0:0:0:0:
64,192,26889,1,0,0:0:0:0:
448,192,26889,1,0,0:0:0:0:
192,192,26980,1,0,0:0:0:0:
320,192,27072,1,0,0:0:0:0:
192,192,27163,1,0,0:0:0:0:
448,192,27163,1,0,0:0:0:0:
64,192,27255,1,0,0:0:0:0:
320,192,27346,1,0,0:0:0:0:
448,192,27346,1,0,0:0:0:0:
192,192,27438,1,0,0:0:0:0:
448,192,27529,1,0,0:0:0:0:
320,192,27621,1,0,0:0:0:0:
64,192,27621,1,0,0:0:0:0:
192,192,27712,1,0,0:0:0:0:
320,192,27804,1,0,0:0:0:0:
448,192,27804,1,0,0:0:0:0:
64,192,27895,1,0,0:0:0:0:
192,192,27986,1,0,0:0:0:0:
448,192,27986,1,0,0:0:0:0:
320,192,28078,1,0,0:0:0:0:
448,192,28169,1,0,0:0:0:0:
64,192,28169,1,0,0:0:0:0:
192,192,28169,1,0,0:0:0:0:
320,192,28352,1,0,0:0:0:0:
64,192,28352,1,0,0:0:0:0:
192,192,28444,1,0,0:0:0:0:
320,192,28535,1,0,0:0:0:0:
192,192,28627,1,0,0:0:0:0:
448,192,28627,1,0,0:0:0:0:
64,192,28718,1,0,0:0:0:0:
320,192,28810,1,0,0:0:0:0:
448,192,28810,1,0,0:0:0:0:
192,192,28901,1,0,0:0:0:0:
448,192,28993,1,0,0:0:0:0:
320,192,29084,1,0,0:0:0:0:
64,192,29084,1,0,0:0:0:0:
192,192,29175,1,0,0:0:0:0:
320,192,29267,1,0,0:0:0:0:
448,192,29267,1,0,0:0:0:0:
64,192,29358,1,0,0:0:0:0:
192,192,29450,1,0,0:0:0:0:
448,192,29450,1,0,0:0:0:0:
320,192,29541,1,0,0:0:0:0:
448,192,29633,1,0,0:0:0:0:
64,192,29633,1,0,0:0:0:0:
192,192,29724,1,0,0:0:0:0:
320,192,29816,1,0,0:0:0:0:
448,192,29816,1,0,0:0:0:0:
192,192,29907,1,0,0:0:0:0:
64,192,29999,1,0,0:0:0:0:
448,192,30090,1,0,0:0:0:0:
320,192,30090,1,0,0:0:0:0:
64,192,30182,1,0,0:0:0:0:
192,192,30273,1,0,0:0:0:0:
448,192,30273,1,0,0:0:0:0:
320,192,30364,1,0,0:0:0:0:
192,192,30456,1,0,0:0:0:0:
64,192,30547,1,0,0:0:0:0:
320,192,30547,1,0,0:0:0:0:
448,192,30639,1,0,0:0:0:0:
192,192,30730,1,0,0:0:0:0:
64,192,30730,1,0,0:0:0:0:
320,192,30822,1,0,0:0:0:0:
448,192,30913,1,0,0:0:0:0:
64,192,30913,1,0,0:0:0:0:
192,192,31005,1,0,0:0:0:0:
320,192,31096,1,0,0:0:0:0:
64,192,31096,1,0,0:0:0:0:
448,192,31096,1,0,0:0:0:0:
320,192,31279,1,0,0:0:0:0:
64,192,31279,1,0,0:0:0:0:
192,192,31371,1,0,0:0:0:0:
448,192,31462,1,0,0:0:0:0:
320,192,31554,1,0,0:0:0:0:
64,192,31554,1,0,0:0:0:0:
192,192,31645,1,0,0:0:0:0:
320,192,31736,1,0,0:0:0:0:
448,192,31736,1,0,0:0:0:0:
64,192,31828,1,0,0:0:0:0:
192,192,31919,1,0,0:0:0:0:
448,192,31919,1,0,0:0:0:0:
320,192,32011,1,0,0:0:0:0:
64,192,32011,1,0,0:0:0:0:
448,192,32102,1,0,0:0:0:0:
192,192,32194,1,0,0:0:0:0:
64,192,32194,1,0,0:0:0:0:
320,192,32285,1,0,0:0:0:0:
64,192,32377,1,0,0:0:0:0:
448,192,32377,1,0,0:0:0:0:
192,192,32468,1,0,0:0:0:0:
320,192,32560,1,0,0:0:0:0:
448,192,32560,1,0,0:0:0:0:
64,192,32743,1,0,0:0:0:0:
320,192,32743,1,0,0:0:0:0:
192,192,32834,1,0,0:0:0:0:
320,192,32925,1,0,0:0:0:0:
448,192,33017,1,0,0:0:0:0:
64,192,33017,1,0,0:0:0:0:
192,192,33108,1,0,0:0:0:0:
320,192,33200,1,0,0:0:0:0:
448,192,33200,1,0,0:0:0:0:
192,192,33291,1,0,0:0:0:0:
64,192,33291,1,0,0:0:0:0:
448,192,33383,1,0,0:0:0:0:
320,192,33474,1,0,0:0:0:0:
64,192,33474,1,0,0:0:0:0:
192,192,33566,1,0,0:0:0:0:
448,192,33566,1,0,0:0:0:0:
64,192,33657,1,0,0:0:0:0:
448,192,33749,1,0,0:0:0:0:
320,192,33840,1,0,0:0:0:0:
64,192,33840,1,0,0:0:0:0:
192,192,33932,1,0,0:0:0:0:
320,192,34023,1,0,0:0:0:0:
448,192,34023,1,0,0:0:0:0:
64,192,34023,1,0,0:0:0:0:
320,192,34206,1,0,0:0:0:0:
448,192,34206,1,0,0:0:0:0:
192,192,34297,1,0,0:0:0:0:
448,192,34389,1,0,0:0:0:0:
320,192,34480,1,0,0:0:0:0:
64,192,34480,1,0,0:0:0:0:
192,192,34572,1,0,0:0:0:0:
320,192,34663,1,0,0:0:0:0:
448,192,34663,1,0,0:0:0:0:
64,192,34755,1,0,0:0:0:0:
192,192,34846,1,0,0:0:0:0:
448,192,34938,1,0,0:0:0:0:
320,192,34938,1,0,0:0:0:0:
192,192,35029,1,0,0:0:0:0:
64,192,35121,1,0,0:0:0:0:
448,192,35121,1,0,0:0:0:0:
320,192,35212,1,0,0:0:0:0:
192,192,35304,1,0,0:0:0:0:
64,192,35304,1,0,0:0:0:0:
320,192,35395,1,0,0:0:0:0:
64,192,35486,1,0,0:0:0:0:
448,192,35486,1,0,0:0:0:0:
64,192,35608,1,0,0:0:0:0:
448,192,35730,1,0,0:0:0:0:
448,192,35852,1,0,0:0:0:0:
192,192,35852,1,0,0:0:0:0:
192,192,35974,1,0,0:0:0:0:
320,192,36096,1,0,0:0:0:0:
320,192,36218,1,0,0:0:0:0:
64,192,36218,1,0,0:0:0:0:
64,192,36340,1,0,0:0:0:0:
448,192,36462,1,0,0:0:0:0:
448,192,36584,1,0,0:0:0:0:
192,192,36584,1,0,0:0:0:0:
64,192,36584,1,0,0:0:0:0:
192,192,36706,1,0,0:0:0:0:
320,192,36828,1,0,0:0:0:0:
320,192,36950,1,0,0:0:0:0:
64,192,36950,1,0,0:0:0:0:
448,192,36950,1,0,0:0:0:0:
320,192,37133,1,0,0:0:0:0:
64,192,37133,1,0,0:0:0:0:
192,192,37224,1,0,0:0:0:0:
448,192,37316,1,0,0:0:0:0:
320,192,37407,1,0,0:0:0:0:
64,192,37407,1,0,0:0:0:0:
192,192,37499,1,0,0:0:0:0:
320,192,37590,1,0,0:0:0:0:
448,192,37590,1,0,0:0:0:0:
64,192,37682,1,0,0:0:0:0:
192,192,37773,1,0,0:0:0:0:
448,192,37864,1,0,0:0:0:0:
64,192,37864,1,0,0:0:0:0:
320,192,37956,1,0,0:0:0:0:
192,192,38047,1,0,0:0:0:0:
64,192,38047,1,0,0:0:0:0:
320,192,38230,1,0,0:0:0:0:
192,192,38230,1,0,0:0:0:0:
64,192,38322,1,0,0:0:0:0:
320,192,38413,1,0,0:0:0:0:
448,192,38413,1,0,0:0:0:0:
192,192,38505,1,0,0:0:0:0:
448,192,38596,1,0,0:0:0:0:
64,192,38596,1,0,0:0:0:0:
320,192,38688,1,0,0:0:0:0:
192,192,38779,1,0,0:0:0:0:
320,192,38871,1,0,0:0:0:0:
64,192,38871,1,0,0:0:0:0:
448,192,38962,1,0,0:0:0:0:
192,192,39054,1,0,0:0:0:0:
64,192,39054,1,0,0:0:0:0:
320,192,39145,1,0,0:0:0:0:
64,192,39236,1,0,0:0:0:0:
192,192,39328,1,0,0:0:0:0:
448,192,39328,1,0,0:0:0:0:
320,192,39419,1,0,0:0:0:0:
192,192,39511,1,0,0:0:0:0:
64,192,39511,1,0,0:0:0:0:
448,192,39602,1,0,0:0:0:0:
320,192,39694,1,0,0:0:0:0:
64,192,39694,1,0,0:0:0:0:
192,192,39785,1,0,0:0:0:0:
64,192,39877,1,0,0:0:0:0:
448,192,39877,1,0,0:0:0:0:
320,192,39877,1,0,0:0:0:0:
192,192,40060,1,0,0:0:0:0:
448,192,40060,1,0,0:0:0:0:
320,192,40151,1,0,0:0:0:0:
192,192,40243,1,0,0:0:0:0:
320,192,40334,1,0,0:0:0:0:
64,192,40334,1,0,0:0:0:0:
448,192,40425,1,0,0:0:0:0:
192,192,40517,1,0,0:0:0:0:
64,192,40517,1,0,0:0:0:0:
320,192,40608,1,0,0:0:0:0:
64,192,40700,1,0,0:0:0:0:
192,192,40791,1,0,0:0:0:0:
448,192,40791,1,0,0:0:0:0:
320,192,40883,1,0,0:0:0:0:
192,192,40974,1,0,0:0:0:0:
64,192,40974,1,0,0:0:0:0:
448,192,41066,1,0,0:0:0:0:
320,192,41157,1,0,0:0:0:0:
64,192,41157,1,0,0:0:0:0:
192,192,41249,1,0,0:0:0:0:
64,192,41340,1,0,0:0:0:0:
448,192,41340,1,0,0:0:0:0:
320,192,41432,1,0,0:0:0:0:
192,192,41523,1,0,0:0:0:0:
64,192,41523,1,0,0:0:0:0:
320,192,41614,1,0,0:0:0:0:
448,192,41706,1,0,0:0:0:0:
64,192,41797,1,0,0:0:0:0:
192,192,41797,1,0,0:0:0:0:
448,192,41889,1,0,0:0:0:0:
320,192,41980,1,0,0:0:0:0:
64,192,41980,1,0,0:0:0:0:
192,192,42072,1,0,0:0:0:0:
320,192,42163,1,0,0:0:0:0:
448,192,42255,1,0,0:0:0:0:
192,192,42255,1,0,0:0:0:0:
64,192,42346,1,0,0:0:0:0:
320,192,42438,1,0,0:0:0:0:
448,192,42438,1,0,0:0:0:0:
192,192,42529,1,0,0:0:0:0:
64,192,42621,1,0,0:0:0:0:
448,192,42621,1,0,0:0:0:0:
320,192,42712,1,0,0:0:0:0:
192,192,42804,1,0,0:0:0:0:
448,192,42804,1,0,0:0:0:0:
64,192,42804,1,0,0:0:0:0:
192,192,42986,1,0,0:0:0:0:
448,192,42986,1,0,0:0:0:0:
320,192,43078,1,0,0:0:0:0:
64,192,43169,1,0,0:0:0:0:
192,192,43261,1,0,0:0:0:0:
448,192,43261,1,0,0:0:0:0:
320,192,43352,1,0,0:0:0:0:
192,192,43444,1,0,0:0:0:0:
64,192,43444,1,0,0:0:0:0:
448,192,43535,1,0,0:0:0:0:
320,192,43627,1,0,0:0:0:0:
64,192,43627,1,0,0:0:0:0:
192,192,43718,1,0,0:0:0:0:
448,192,43718,1,0,0:0:0:0:
64,192,43810,1,0,0:0:0:0:
320,192,43901,1,0,0:0:0:0:
448,192,43901,1,0,0:0:0:0:
192,192,43993,1,0,0:0:0:0:
448,192,44084,1,0,0:0:0:0:
64,192,44084,1,0,0:0:0:0:
320,192,44175,1,0,0:0:0:0:
192,192,44267,1,0,0:0:0:0:
64,192,44267,1,0,0:0:0:0:
448,192,44450,1,0,0:0:0:0:
192,192,44450,1,0,0:0:0:0:
320,192,44541,1,0,0:0:0:0:
192,192,44633,1,0,0:0:0:0:
64,192,44724,1,0,0:0:0:0:
448,192,44724,1,0,0:0:0:0:
320,192,44816,1,0,0:0:0:0:
192,192,44907,1,0,0:0:0:0:
64,192,44907,1,0,0:0:0:0:
320,192,44999,1,0,0:0:0:0:
448,192,44999,1,0,0:0:0:0:
64,192,45090,1,0,0:0:0:0:
192,192,45182,1,0,0:0:0:0:
448,192,45182,1,0,0:0:0:0:
320,192,45273,1,0,0:0:0:0:
64,192,45273,1,0,0:0:0:0:
448,192,45364,1,0,0:0:0:0:
64,192,45456,1,0,0:0:0:0:
192,192,45547,1,0,0:0:0:0:
448,192,45547,1,0,0:0:0:0:
320,192,45639,1,0,0:0:0:0:
192,192,45730,1,0,0:0:0:0:
64,192,45730,1,0,0:0:0:0:
448,192,45730,1,0,0:0:0:0:
64,192,45913,1,0,0:0:0:0:
320,192,45913,1,0,0:0:0:0:
192,192,46005,1,0,0:0:0:0:
64,192,46096,1,0,0:0:0:0:
448,192,46096,1,0,0:0:0:0:
320,192,46188,1,0,0:0:0:0:
192,192,46279,1,0,0:0:0:0:
64,192,46279,1,0,0:0:0:0:
448,192,46371,1,0,0:0:0:0:
320,192,46462,1,0,0:0:0:0:
64,192,46462,1,0,0:0:0:0:
192,192,46554,1,0,0:0:0:0:
320,192,46645,1,0,0:0:0:0:
448,192,46645,1,0,0:0:0:0:
64,192,46736,1,0,0:0:0:0:
192,192,46828,1,0,0:0:0:0:
448,192,46828,1,0,0:0:0:0:
320,192,46919,1,0,0:0:0:0:
448,192,47011,1,0,0:0:0:0:
64,192,47011,1,0,0:0:0:0:
192,192,47102,1,0,0:0:0:0:
320,192,47194,1,0,0:0:0:0:
448,192,47194,1,0,0:0:0:0:
192,192,47285,1,0,0:0:0:0:
64,192,47377,1,0,0:0:0:0:
448,192,47377,1,0,0:0:0:0:
320,192,47468,1,0,0:0:0:0:
192,192,47560,1,0,0:0:0:0:
64,192,47560,1,0,0:0:0:0:
448,192,47651,1,0,0:0:0:0:
320,192,47743,1,0,0:0:0:0:
64,192,47743,1,0,0:0:0:0:
192,192,47834,1,0,0:0:0:0:
64,192,47925,1,0,0:0:0:0:
448,192,47925,1,0,0:0:0:0:
320,192,48017,1,0,0:0:0:0:
192,192,48108,1,0,0:0:0:0:
64,192,48108,1,0,0:0:0:0:
320,192,48200,1,0,0:0:0:0:
64,192,48291,128,0,48566:0:0:0:0:
448,192,48291,128,0,48566:0:0:0:0:
448,192,48657,1,0,0:0:0:0:
64,192,48657,1,0,0:0:0:0:
192,192,48749,1,0,0:0:0:0:
320,192,48840,1,0,0:0:0:0:
192,192,48932,1,0,0:0:0:0:
448,192,48932,1,0,0:0:0:0:
64,192,49023,1,0,0:0:0:0:
192,192,49114,1,0,0:0:0:0:
320,192,49206,1,0,0:0:0:0:
448,192,49206,1,0,0:0:0:0:
192,192,49297,1,0,0:0:0:0:
64,192,49389,1,0,0:0:0:0:
192,192,49480,1,0,0:0:0:0:
448,192,49480,1,0,0:0:0:0:
320,192,49572,1,0,0:0:0:0:
192,192,49663,1,0,0:0:0:0:
64,192,49755,1,0,0:0:0:0:
448,192,49755,1,0,0:0:0:0:
192,192,49846,1,0,0:0:0:0:
320,192,49938,1,0,0:0:0:0:
448,192,49938,1,0,0:0:0:0:
192,192,50029,1,0,0:0:0:0:
64,192,50121,1,0,0:0:0:0:
448,192,50121,1,0,0:0:0:0:
320,192,50212,1,0,0:0:0:0:
192,192,50304,1,0,0:0:0:0:
320,192,50395,1,0,0:0:0:0:
64,192,50395,1,0,0:0:0:0:
448,192,50486,1,0,0:0:0:0:
320,192,50578,1,0,0:0:0:0:
192,192,50669,1,0,0:0:0:0:
64,192,50669,1,0,0:0:0:0:
320,192,50761,1,0,0:0:0:0:
448,192,50852,1,0,0:0:0:0:
64,192,50944,1,0,0:0:0:0:
320,192,50944,1,0,0:0:0:0:
192,192,51035,1,0,0:0:0:0:
320,192,51127,1,0,0:0:0:0:
64,192,51218,1,0,0:0:0:0:
448,192,51218,1,0,0:0:0:0:
320,192,51310,1,0,0:0:0:0:
64,192,51401,1,0,0:0:0:0:
192,192,51401,1,0,0:0:0:0:
320,192,51493,1,0,0:0:0:0:
448,192,51584,1,0,0:0:0:0:
64,192,51584,1,0,0:0:0:0:
192,192,51675,1,0,0:0:0:0:
320,192,51767,1,0,0:0:0:0:
192,192,51858,1,0,0:0:0:0:
448,192,51858,1,0,0:0:0:0:
64,192,51950,1,0,0:0:0:0:
192,192,52041,1,0,0:0:0:0:
320,192,52133,1,0,0:0:0:0:
448,192,52133,1,0,0:0:0:0:
192,192,52224,1,0,0:0:0:0:
64,192,52316,1,0,0:0:0:0:
192,192,52407,1,0,0:0:0:0:
448,192,52407,1,0,0:0:0:0:
320,192,52499,1,0,0:0:0:0:
192,192,52590,1,0,0:0:0:0:
64,192,52682,1,0,0:0:0:0:
448,192,52682,1,0,0:0:0:0:
192,192,52773,1,0,0:0:0:0:
320,192,52864,1,0,0:0:0:0:
448,192,52864,1,0,0:0:0:0:
192,192,52956,1,0,0:0:0:0:
64,192,53047,1,0,0:0:0:0:
448,192,53047,1,0,0:0:0:0:
320,192,53139,1,0,0:0:0:0:
192,192,53230,1,0,0:0:0:0:
320,192,53322,1,0,0:0:0:0:
64,192,53322,1,0,0:0:0:0:
448,192,53413,1,0,0:0:0:0:
320,192,53505,1,0,0:0:0:0:
192,192,53596,1,0,0:0:0:0:
64,192,53596,1,0,0:0:0:0:
320,192,53688,1,0,0:0:0:0:
448,192,53779,1,0,0:0:0:0:
64,192,53871,1,0,0:0:0:0:
320,192,53871,1,0,0:0:0:0:
192,192,53962,1,0,0:0:0:0:
320,192,54054,1,0,0:0:0:0:
64,192,54145,1,0,0:0:0:0:
448,192,54145,1,0,0:0:0:0:
320,192,54236,1,0,0:0:0:0:
64,192,54328,1,0,0:0:0:0:
192,192,54328,1,0,0:0:0:0:
320,192,54419,1,0,0:0:0:0:
64,192,54511,1,0,0:0:0:0:
448,192,54511,1,0,0:0:0:0:
192,192,54511,1,0,0:0:0:0:
320,192,54602,1,0,0:0:0:0:
64,192,54694,1,0,0:0:0:0:
192,192,54785,1,0,0:0:0:0:
320,192,54785,1,0,0:0:0:0:
448,192,54785,1,0,0:0:0:0:
64,192,54877,1,0,0:0:0:0:
448,192,54968,1,0,0:0:0:0:
320,192,55060,1,0,0:0:0:0:
192,192,55060,1,0,0:0:0:0:
64,192,55060,1,0,0:0:0:0:
448,192,55151,1,0,0:0:0:0:
192,192,55243,1,0,0:0:0:0:
320,192,55334,1,0,0:0:0:0:
448,192,55334,1,0,0:0:0:0:
64,192,55334,1,0,0:0:0:0:
192,192,55425,1,0,0:0:0:0:
448,192,55517,1,0,0:0:0:0:
320,192,55608,1,0,0:0:0:0:
64,192,55608,1,0,0:0:0:0:
192,192,55608,1,0,0:0:0:0:
448,192,55700,1,0,0:0:0:0:
320,192,55791,1,0,0:0:0:0:
64,192,55791,1,0,0:0:0:0:
192,192,55883,1,0,0:0:0:0:
64,192,55974,1,0,0:0:0:0:
448,192,55974,1,0,0:0:0:0:
320,192,55974,1,0,0:0:0:0:
192,192,56066,1,0,0:0:0:0:
448,192,56157,1,0,0:0:0:0:
64,192,56249,1,0,0:0:0:0:
192,192,56249,1,0,0:0:0:0:
320,192,56249,1,0,0:0:0:0:
448,192,56340,1,0,0:0:0:0:
64,192,56432,1,0,0:0:0:0:
192,192,56523,1,0,0:0:0:0:
320,192,56523,1,0,0:0:0:0:
448,192,56523,1,0,0:0:0:0:
64,192,56614,1,0,0:0:0:0:
320,192,56706,1,0,0:0:0:0:
448,192,56797,1,0,0:0:0:0:
192,192,56797,1,0,0:0:0:0:
64,192,56797,1,0,0:0:0:0:
320,192,56889,1,0,0:0:0:0:
64,192,56980,1,0,0:0:0:0:
192,192,57072,1,0,0:0:0:0:
320,192,57072,1,0,0:0:0:0:
448,192,57072,1,0,0:0:0:0:
64,192,57163,1,0,0:0:0:0:
448,192,57255,1,0,0:0:0:0:
320,192,57255,1,0,0:0:0:0:
192,192,57346,1,0,0:0:0:0:
64,192,57438,1,0,0:0:0:0:
448,192,57438,1,0,0:0:0:0:
320,192,57529,1,0,0:0:0:0:
192,192,57621,1,0,0:0:0:0:
448,192,57621,1,0,0:0:0:0:
64,192,57712,1,0,0:0:0:0:
320,192,57804,1,0,0:0:0:0:
448,192,57804,1,0,0:0:0:0:
320,192,57986,1,0,0:0:0:0:
192,192,57986,1,0,0:0:0:0:
192,192,58169,1,0,0:0:0:0:
64,192,58169,1,0,0:0:0:0:
320,192,58261,1,0,0:0:0:0:
448,192,58352,1,0,0:0:0:0:
64,192,58352,1,0,0:0:0:0:
192,192,58444,1,0,0:0:0:0:
320,192,58535,1,0,0:0:0:0:
448,192,58535,1,0,0:0:0:0:
448,192,58718,1,0,0:0:0:0:
320,192,58718,1,0,0:0:0:0:
448,192,58901,128,0,60273:0:0:0:0:
192,192,58901,1,0,0:0:0:0:
64,192,58901,128,0,60273:0:0:0:0:
448,192,60364,1,0,0:0:0:0:
192,192,60364,1,0,0:0:0:0:
64,192,60364,128,0,60547:0:0:0:0:
320,192,60364,1,0,0:0:0:0:
192,192,60547,1,0,0:0:0:0:
64,192,60639,128,0,60822:0:0:0:0:
448,192,60730,1,0,0:0:0:0:
320,192,60730,1,0,0:0:0:0:
192,192,60913,128,0,61096:0:0:0:0:
64,192,61096,1,0,0:0:0:0:
448,192,61096,1,0,0:0:0:0:
320,192,61188,128,0,61279:0:0:0:0:
192,192,61279,1,0,0:0:0:0:
320,192,61371,1,0,0:0:0:0:
448,192,61462,128,0,61828:0:0:0:0:
64,192,61462,1,0,0:0:0:0:
320,192,61645,128,0,61828:0:0:0:0:
64,192,61645,1,0,0:0:0:0:
192,192,61828,1,0,0:0:0:0:
64,192,61828,128,0,62011:0:0:0:0:
192,192,62011,1,0,0:0:0:0:
64,192,62102,128,0,62285:0:0:0:0:
448,192,62194,1,0,0:0:0:0:
320,192,62194,1,0,0:0:0:0:
192,192,62377,128,0,62560:0:0:0:0:
64,192,62560,1,0,0:0:0:0:
448,192,62560,1,0,0:0:0:0:
320,192,62651,128,0,62743:0:0:0:0:
192,192,62743,1,0,0:0:0:0:
320,192,62834,1,0,0:0:0:0:
448,192,62925,128,0,63291:0:0:0:0:
64,192,62925,1,0,0:0:0:0:
64,192,63108,1,0,0:0:0:0:
320,192,63108,128,0,63291:0:0:0:0:
64,192,63291,128,0,63474:0:0:0:0:
192,192,63291,1,0,0:0:0:0:
192,192,63474,1,0,0:0:0:0:
64,192,63566,128,0,63749:0:0:0:0:
320,192,63657,1,0,0:0:0:0:
448,192,63657,1,0,0:0:0:0:
192,192,63840,128,0,64023:0:0:0:0:
448,192,64023,1,0,0:0:0:0:
64,192,64023,1,0,0:0:0:0:
320,192,64114,128,0,64206:0:0:0:0:
192,192,64206,1,0,0:0:0:0:
320,192,64297,1,0,0:0:0:0:
448,192,64389,128,0,64755:0:0:0:0:
64,192,64389,1,0,0:0:0:0:
320,192,64572,128,0,64755:0:0:0:0:
64,192,64572,1,0,0:0:0:0:
192,192,64755,1,0,0:0:0:0:
64,192,64755,128,0,64938:0:0:0:0:
192,192,64938,1,0,0:0:0:0:
64,192,65029,128,0,65212:0:0:0:0:
448,192,65121,1,0,0:0:0:0:
320,192,65121,1,0,0:0:0:0:
192,192,65304,128,0,65486:0:0:0:0:
64,192,65486,1,0,0:0:0:0:
448,192,65486,1,0,0:0:0:0:
320,192,65578,128,0,65669:0:0:0:0:
192,192,65669,1,0,0:0:0:0:
320,192,65761,1,0,0:0:0:0:
448,192,65852,128,0,66218:0:0:0:0:
64,192,65852,1,0,0:0:0:0:
64,192,66035,1,0,0:0:0:0:
320,192,66035,128,0,66218:0:0:0:0:
192,192,66218,1,0,0:0:0:0:
64,192,66218,128,0,66401:0:0:0:0:
192,192,66401,1,0,0:0:0:0:
64,192,66493,128,0,66675:0:0:0:0:
448,192,66584,1,0,0:0:0:0:
320,192,66584,1,0,0:0:0:0:
192,192,66767,128,0,66950:0:0:0:0:
64,192,66950,1,0,0:0:0:0:
448,192,66950,1,0,0:0:0:0:
320,192,67041,128,0,67133:0:0:0:0:
192,192,67133,1,0,0:0:0:0:
320,192,67224,1,0,0:0:0:0:
448,192,67316,128,0,67682:0:0:0:0:
64,192,67316,1,0,0:0:0:0:
320,192,67499,128,0,67682:0:0:0:0:
64,192,67499,1,0,0:0:0:0:
192,192,67682,1,0,0:0:0:0:
64,192,67682,128,0,67864:0:0:0:0:
192,192,67864,1,0,0:0:0:0:
64,192,67956,128,0,68139:0:0:0:0:
320,192,68047,1,0,0:0:0:0:
448,192,68047,1,0,0:0:0:0:
320,192,68230,128,0,68413:0:0:0:0:
64,192,68413,1,0,0:0:0:0:
448,192,68413,1,0,0:0:0:0:
192,192,68505,128,0,68596:0:0:0:0:
320,192,68596,128,0,68688:0:0:0:0:
448,192,68779,128,0,69145:0:0:0:0:
64,192,68779,1,0,0:0:0:0:
320,192,68962,128,0,69145:0:0:0:0:
64,192,68962,1,0,0:0:0:0:
192,192,69145,1,0,0:0:0:0:
64,192,69145,128,0,69328:0:0:0:0:
448,192,69328,1,0,0:0:0:0:
64,192,69419,128,0,69602:0:0:0:0:
192,192,69511,1,0,0:0:0:0:
448,192,69694,128,0,69877:0:0:0:0:
64,192,69877,1,0,0:0:0:0:
320,192,69877,1,0,0:0:0:0:
192,192,69968,128,0,70060:0:0:0:0:
320,192,70060,128,0,70151:0:0:0:0:
448,192,70243,128,0,70608:0:0:0:0:
64,192,70243,1,0,0:0:0:0:
320,192,70425,128,0,70608:0:0:0:0:
64,192,70608,128,0,70791:0:0:0:0:
192,192,70608,1,0,0:0:0:0:
448,192,70791,1,0,0:0:0:0:
64,192,70883,128,0,71066:0:0:0:0:
192,192,70974,1,0,0:0:0:0:
448,192,71157,128,0,71340:0:0:0:0:
192,192,71340,1,0,0:0:0:0:
64,192,71401,1,0,0:0:0:0:
448,192,71462,1,0,0:0:0:0:
320,192,71523,1,0,0:0:0:0:
448,192,71706,1,0,0:0:0:0:
64,192,71706,128,0,72072:0:0:0:0:
448,192,72072,1,0,0:0:0:0:
320,192,72072,128,0,72438:0:0:0:0:
448,192,72255,1,0,0:0:0:0:
64,192,72438,1,0,0:0:0:0:
192,192,72438,1,0,0:0:0:0:
192,192,72621,128,0,73169:0:0:0:0:
448,192,72804,1,0,0:0:0:0:
64,192,72804,1,0,0:0:0:0:
320,192,72986,1,0,0:0:0:0:
448,192,73169,128,0,73535:0:0:0:0:
64,192,73169,1,0,0:0:0:0:
192,192,73352,1,0,0:0:0:0:
192,192,73535,128,0,73901:0:0:0:0:
64,192,73535,1,0,0:0:0:0:
64,192,73718,1,0,0:0:0:0:
320,192,73901,1,0,0:0:0:0:
448,192,73901,1,0,0:0:0:0:
320,192,74084,128,0,74633:0:0:0:0:
64,192,74267,1,0,0:0:0:0:
448,192,74267,1,0,0:0:0:0:
192,192,74450,1,0,0:0:0:0:
64,192,74633,128,0,74999:0:0:0:0:
448,192,74633,1,0,0:0:0:0:
320,192,74816,1,0,0:0:0:0:
320,192,74999,128,0,75364:0:0:0:0:
448,192,74999,1,0,0:0:0:0:
448,192,75182,1,0,0:0:0:0:
192,192,75364,1,0,0:0:0:0:
64,192,75364,1,0,0:0:0:0:
192,192,75547,128,0,76096:0:0:0:0:
64,192,75730,1,0,0:0:0:0:
448,192,75730,1,0,0:0:0:0:
320,192,75913,1,0,0:0:0:0:
64,192,76096,1,0,0:0:0:0:
448,192,76096,128,0,76371:0:0:0:0:
64,192,76279,1,0,0:0:0:0:
192,192,76371,1,0,0:0:0:0:
320,192,76462,1,0,0:0:0:0:
448,192,76462,1,0,0:0:0:0:
64,192,76462,1,0,0:0:0:0:
448,192,76645,128,0,76828:0:0:0:0:
192,192,76828,1,0,0:0:0:0:
64,192,76828,1,0,0:0:0:0:
320,192,76919,1,0,0:0:0:0:
448,192,77011,1,0,0:0:0:0:
64,192,77194,1,0,0:0:0:0:
448,192,77194,1,0,0:0:0:0:
192,192,77285,1,0,0:0:0:0:
320,192,77377,1,0,0:0:0:0:
192,192,77468,1,0,0:0:0:0:
64,192,77560,1,0,0:0:0:0:
448,192,77560,1,0,0:0:0:0:
320,192,77651,1,0,0:0:0:0:
192,192,77743,128,0,77925:0:0:0:0:
320,192,77925,1,0,0:0:0:0:
64,192,77925,1,0,0:0:0:0:
448,192,77925,128,0,78291:0:0:0:0:
192,192,78108,1,0,0:0:0:0:
64,192,78291,1,0,0:0:0:0:
320,192,78291,1,0,0:0:0:0:
192,192,78474,128,0,79023:0:0:0:0:
64,192,78657,1,0,0:0:0:0:
320,192,78657,1,0,0:0:0:0:
448,192,78840,1,0,0:0:0:0:
320,192,79023,128,0,79389:0:0:0:0:
64,192,79023,1,0,0:0:0:0:
448,192,79206,1,0,0:0:0:0:
64,192,79389,128,0,79755:0:0:0:0:
192,192,79389,1,0,0:0:0:0:
448,192,79389,1,0,0:0:0:0:
320,192,79572,1,0,0:0:0:0:
192,192,79755,1,0,0:0:0:0:
448,192,79755,1,0,0:0:0:0:
320,192,79938,128,0,80486:0:0:0:0:
448,192,80121,1,0,0:0:0:0:
192,192,80121,1,0,0:0:0:0:
64,192,80304,1,0,0:0:0:0:
192,192,80486,128,0,80852:0:0:0:0:
448,192,80486,1,0,0:0:0:0:
64,192,80669,1,0,0:0:0:0:
320,192,80852,1,0,0:0:0:0:
448,192,80852,128,0,81218:0:0:0:0:
192,192,81035,1,0,0:0:0:0:
64,192,81218,1,0,0:0:0:0:
448,192,81401,128,0,81767:0:0:0:0:
320,192,81401,1,0,0:0:0:0:
192,192,81584,1,0,0:0:0:0:
64,192,81584,1,0,0:0:0:0:
320,192,81767,1,0,0:0:0:0:
448,192,81950,128,0,82316:0:0:0:0:
64,192,81950,1,0,0:0:0:0:
192,192,82133,1,0,0:0:0:0:
320,192,82316,1,0,0:0:0:0:
64,192,82316,1,0,0:0:0:0:
448,192,82499,1,0,0:0:0:0:
320,192,82590,1,0,0:0:0:0:
192,192,82682,1,0,0:0:0:0:
320,192,82864,1,0,0:0:0:0:
192,192,82956,1,0,0:0:0:0:
64,192,83047,1,0,0:0:0:0:
448,192,83139,1,0,0:0:0:0:
192,192,83230,1,0,0:0:0:0:
320,192,83322,1,0,0:0:0:0:
192,192,83368,1,0,0:0:0:0:
64,192,83413,1,0,0:0:0:0:
448,192,83413,1,0,0:0:0:0:
192,192,83505,1,0,0:0:0:0:
320,192,83596,1,0,0:0:0:0:
448,192,83688,1,0,0:0:0:0:
192,192,83779,1,0,0:0:0:0:
64,192,83779,1,0,0:0:0:0:
448,192,83779,1,0,0:0:0:0:
192,192,83962,1,0,0:0:0:0:
320,192,84054,1,0,0:0:0:0:
448,192,84145,1,0,0:0:0:0:
64,192,84145,1,0,0:0:0:0:
192,192,84328,1,0,0:0:0:0:
320,192,84419,1,0,0:0:0:0:
192,192,84511,1,0,0:0:0:0:
448,192,84511,1,0,0:0:0:0:
64,192,84602,1,0,0:0:0:0:
320,192,84694,1,0,0:0:0:0:
192,192,84785,1,0,0:0:0:0:
64,192,84877,1,0,0:0:0:0:
448,192,84877,1,0,0:0:0:0:
192,192,84968,1,0,0:0:0:0:
320,192,85060,1,0,0:0:0:0:
192,192,85243,1,0,0:0:0:0:
448,192,85243,1,0,0:0:0:0:
192,192,85334,1,0,0:0:0:0:
320,192,85425,1,0,0:0:0:0:
192,192,85517,1,0,0:0:0:0:
64,192,85608,1,0,0:0:0:0:
448,192,85608,1,0,0:0:0:0:
192,192,85791,1,0,0:0:0:0:
320,192,85883,1,0,0:0:0:0:
192,192,85974,1,0,0:0:0:0:
448,192,85974,1,0,0:0:0:0:
64,192,86066,1,0,0:0:0:0:
320,192,86157,1,0,0:0:0:0:
192,192,86249,1,0,0:0:0:0:
448,192,86340,1,0,0:0:0:0:
64,192,86340,1,0,0:0:0:0:
320,192,86432,1,0,0:0:0:0:
192,192,86523,1,0,0:0:0:0:
320,192,86706,1,0,0:0:0:0:
64,192,86706,1,0,0:0:0:0:
320,192,86797,1,0,0:0:0:0:
448,192,86889,1,0,0:0:0:0:
192,192,86980,1,0,0:0:0:0:
320,192,87072,1,0,0:0:0:0:
64,192,87072,1,0,0:0:0:0:
448,192,87255,1,0,0:0:0:0:
320,192,87346,1,0,0:0:0:0:
192,192,87438,1,0,0:0:0:0:
64,192,87438,1,0,0:0:0:0:
448,192,87529,1,0,0:0:0:0:
320,192,87621,1,0,0:0:0:0:
192,192,87712,1,0,0:0:0:0:
64,192,87804,1,0,0:0:0:0:
448,192,87804,1,0,0:0:0:0:
320,192,87895,1,0,0:0:0:0:
192,192,87986,1,0,0:0:0:0:
320,192,88078,1,0,0:0:0:0:
448,192,88169,1,0,0:0:0:0:
64,192,88169,1,0,0:0:0:0:
64,192,88261,1,0,0:0:0:0:
320,192,88352,1,0,0:0:0:0:
448,192,88444,1,0,0:0:0:0:
192,192,88535,1,0,0:0:0:0:
64,192,88535,1,0,0:0:0:0:
320,192,88718,1,0,0:0:0:0:
192,192,88810,1,0,0:0:0:0:
64,192,88901,1,0,0:0:0:0:
320,192,88901,1,0,0:0:0:0:
448,192,88993,1,0,0:0:0:0:
448,192,89084,1,0,0:0:0:0:
64,192,89175,1,0,0:0:0:0:
448,192,89267,1,0,0:0:0:0:
192,192,89267,1,0,0:0:0:0:
320,192,89358,1,0,0:0:0:0:
192,192,89450,1,0,0:0:0:0:
64,192,89541,1,0,0:0:0:0:
320,192,89633,1,0,0:0:0:0:
448,192,89633,1,0,0:0:0:0:
320,192,89816,1,0,0:0:0:0:
192,192,89907,1,0,0:0:0:0:
64,192,89999,1,0,0:0:0:0:
448,192,89999,1,0,0:0:0:0:
320,192,90182,1,0,0:0:0:0:
192,192,90273,1,0,0:0:0:0:
320,192,90364,1,0,0:0:0:0:
64,192,90364,1,0,0:0:0:0:
448,192,90456,1,0,0:0:0:0:
192,192,90547,1,0,0:0:0:0:
320,192,90639,1,0,0:0:0:0:
448,192,90730,1,0,0:0:0:0:
64,192,90730,1,0,0:0:0:0:
320,192,90822,1,0,0:0:0:0:
192,192,90913,1,0,0:0:0:0:
320,192,91096,1,0,0:0:0:0:
64,192,91096,1,0,0:0:0:0:
320,192,91188,1,0,0:0:0:0:
192,192,91279,1,0,0:0:0:0:
320,192,91371,1,0,0:0:0:0:
448,192,91462,1,0,0:0:0:0:
64,192,91462,1,0,0:0:0:0:
320,192,91645,1,0,0:0:0:0:
192,192,91736,1,0,0:0:0:0:
320,192,91828,1,0,0:0:0:0:
64,192,91828,1,0,0:0:0:0:
448,192,91919,1,0,0:0:0:0:
192,192,92011,1,0,0:0:0:0:
320,192,92102,1,0,0:0:0:0:
64,192,92194,1,0,0:0:0:0:
448,192,92194,1,0,0:0:0:0:
192,192,92285,1,0,0:0:0:0:
320,192,92377,1,0,0:0:0:0:
64,192,92560,1,0,0:0:0:0:
448,192,92560,1,0,0:0:0:0:
192,192,92651,1,0,0:0:0:0:
320,192,92743,1,0,0:0:0:0:
448,192,92743,1,0,0:0:0:0:
64,192,92834,1,0,0:0:0:0:
192,192,92925,1,0,0:0:0:0:
448,192,92925,1,0,0:0:0:0:
320,192,93017,1,0,0:0:0:0:
192,192,93108,1,0,0:0:0:0:
64,192,93108,1,0,0:0:0:0:
448,192,93200,1,0,0:0:0:0:
320,192,93291,1,0,0:0:0:0:
64,192,93291,1,0,0:0:0:0:
192,192,93383,1,0,0:0:0:0:
320,192,93474,1,0,0:0:0:0:
448,192,93474,1,0,0:0:0:0:
64,192,93566,1,0,0:0:0:0:
192,192,93657,1,0,0:0:0:0:
448,192,93657,1,0,0:0:0:0:
320,192,93749,1,0,0:0:0:0:
448,192,93840,1,0,0:0:0:0:
64,192,93840,1,0,0:0:0:0:
192,192,93932,1,0,0:0:0:0:
320,192,94023,1,0,0:0:0:0:
448,192,94023,1,0,0:0:0:0:
64,192,94023,1,0,0:0:0:0:
320,192,94114,1,0,0:0:0:0:
448,192,94114,1,0,0:0:0:0:
448,192,94297,1,0,0:0:0:0:
320,192,94297,1,0,0:0:0:0:
192,192,94389,1,0,0:0:0:0:
64,192,94389,1,0,0:0:0:0:
192,192,94572,128,0,94755:0:0:0:0:
64,192,94572,128,0,94755:0:0:0:0:
320,192,94755,1,0,0:0:0:0:
448,192,94755,1,0,0:0:0:0:
192,192,94846,1,0,0:0:0:0:
64,192,94938,1,0,0:0:0:0:
448,192,95029,1,0,0:0:0:0:
320,192,95121,1,0,0:0:0:0:
64,192,95121,1,0,0:0:0:0:
192,192,95212,1,0,0:0:0:0:
320,192,95304,1,0,0:0:0:0:
448,192,95395,1,0,0:0:0:0:
192,192,95486,1,0,0:0:0:0:
64,192,95486,1,0,0:0:0:0:
448,192,95486,1,0,0:0:0:0:
64,192,95578,1,0,0:0:0:0:
64,192,95761,1,0,0:0:0:0:
192,192,95852,1,0,0:0:0:0:
192,192,96035,1,0,0:0:0:0:
320,192,96127,1,0,0:0:0:0:
320,192,96310,1,0,0:0:0:0:
448,192,96401,1,0,0:0:0:0:
320,192,96584,1,0,0:0:0:0:
448,192,96675,1,0,0:0:0:0:
320,192,96767,1,0,0:0:0:0:
192,192,96858,1,0,0:0:0:0:
448,192,96950,1,0,0:0:0:0:
64,192,96950,1,0,0:0:0:0:
448,192,97041,1,0,0:0:0:0:
448,192,97224,1,0,0:0:0:0:
320,192,97316,1,0,0:0:0:0:
320,192,97499,1,0,0:0:0:0:
192,192,97590,1,0,0:0:0:0:
192,192,97773,1,0,0:0:0:0:
64,192,97864,1,0,0:0:0:0:
192,192,98047,1,0,0:0:0:0:
64,192,98139,1,0,0:0:0:0:
192,192,98230,1,0,0:0:0:0:
320,192,98322,1,0,0:0:0:0:
64,192,98413,1,0,0:0:0:0:
448,192,98413,1,0,0:0:0:0:
64,192,98505,1,0,0:0:0:0:
64,192,98688,1,0,0:0:0:0:
192,192,98779,1,0,0:0:0:0:
192,192,98962,1,0,0:0:0:0:
320,192,99054,1,0,0:0:0:0:
320,192,99236,1,0,0:0:0:0:
448,192,99328,1,0,0:0:0:0:
320,192,99511,1,0,0:0:0:0:
448,192,99602,1,0,0:0:0:0:
320,192,99694,1,0,0:0:0:0:
192,192,99785,1,0,0:0:0:0:
64,192,99877,1,0,0:0:0:0:
448,192,99877,1,0,0:0:0:0:
448,192,99968,1,0,0:0:0:0:
448,192,100151,1,0,0:0:0:0:
320,192,100243,1,0,0:0:0:0:
320,192,100425,1,0,0:0:0:0:
320,192,100517,1,0,0:0:0:0:
320,192,100700,1,0,0:0:0:0:
320,192,100791,1,0,0:0:0:0:
320,192,100974,1,0,0:0:0:0:
192,192,101066,1,0,0:0:0:0:
64,192,101157,1,0,0:0:0:0:
64,192,101340,1,0,0:0:0:0:
64,192,101432,1,0,0:0:0:0:
64,192,101614,1,0,0:0:0:0:
64,192,101889,1,0,0:0:0:0:
192,192,101980,1,0,0:0:0:0:
192,192,102163,1,0,0:0:0:0:
192,192,102255,1,0,0:0:0:0:
192,192,102438,1,0,0:0:0:0:
320,192,102529,1,0,0:0:0:0:
448,192,102621,1,0,0:0:0:0:
64,192,102712,1,0,0:0:0:0:
192,192,102804,1,0,0:0:0:0:
448,192,102804,1,0,0:0:0:0:
320,192,102895,1,0,0:0:0:0:
192,192,102986,1,0,0:0:0:0:
64,192,103078,1,0,0:0:0:0:
448,192,103169,1,0,0:0:0:0:
320,192,103261,1,0,0:0:0:0:
192,192,103352,1,0,0:0:0:0:
64,192,103444,1,0,0:0:0:0:
448,192,103535,1,0,0:0:0:0:
320,192,103627,1,0,0:0:0:0:
192,192,103718,1,0,0:0:0:0:
64,192,103810,1,0,0:0:0:0:
448,192,103901,1,0,0:0:0:0:
320,192,103993,1,0,0:0:0:0:
192,192,104084,1,0,0:0:0:0:
64,192,104175,1,0,0:0:0:0:
320,192,104267,1,0,0:0:0:0:
448,192,104267,1,0,0:0:0:0:
448,192,104358,1,0,0:0:0:0:
448,192,104541,1,0,0:0:0:0:
320,192,104633,1,0,0:0:0:0:
320,192,104816,1,0,0:0:0:0:
192,192,104907,1,0,0:0:0:0:
192,192,105090,1,0,0:0:0:0:
64,192,105182,1,0,0:0:0:0:
192,192,105364,1,0,0:0:0:0:
64,192,105456,1,0,0:0:0:0:
192,192,105547,1,0,0:0:0:0:
320,192,105639,1,0,0:0:0:0:
448,192,105730,1,0,0:0:0:0:
64,192,105730,1,0,0:0:0:0:
64,192,106828,128,0,107102:0:0:0:0:
448,192,106828,128,0,107102:0:0:0:0:
448,192,107194,5,0,0:0:0:0:
64,192,107194,1,0,0:0:0:0:
192,192,107285,1,0,0:0:0:0:
320,192,107377,1,0,0:0:0:0:
192,192,107468,1,0,0:0:0:0:
448,192,107468,1,0,0:0:0:0:
64,192,107560,1,0,0:0:0:0:
192,192,107651,1,0,0:0:0:0:
320,192,107743,1,0,0:0:0:0:
448,192,107743,1,0,0:0:0:0:
192,192,107834,1,0,0:0:0:0:
64,192,107925,1,0,0:0:0:0:
192,192,108017,1,0,0:0:0:0:
448,192,108017,1,0,0:0:0:0:
320,192,108108,1,0,0:0:0:0:
192,192,108200,1,0,0:0:0:0:
64,192,108291,1,0,0:0:0:0:
448,192,108291,1,0,0:0:0:0:
192,192,108383,1,0,0:0:0:0:
320,192,108474,1,0,0:0:0:0:
448,192,108474,1,0,0:0:0:0:
192,192,108566,1,0,0:0:0:0:
64,192,108657,1,0,0:0:0:0:
448,192,108657,1,0,0:0:0:0:
320,192,108749,1,0,0:0:0:0:
192,192,108840,1,0,0:0:0:0:
320,192,108932,1,0,0:0:0:0:
64,192,108932,1,0,0:0:0:0:
448,192,109023,1,0,0:0:0:0:
320,192,109114,1,0,0:0:0:0:
192,192,109206,1,0,0:0:0:0:
64,192,109206,1,0,0:0:0:0:
320,192,109297,1,0,0:0:0:0:
448,192,109389,1,0,0:0:0:0:
64,192,109480,1,0,0:0:0:0:
320,192,109480,1,0,0:0:0:0:
192,192,109572,1,0,0:0:0:0:
320,192,109663,1,0,0:0:0:0:
64,192,109755,1,0,0:0:0:0:
448,192,109755,1,0,0:0:0:0:
320,192,109846,1,0,0:0:0:0:
64,192,109938,1,0,0:0:0:0:
192,192,109938,1,0,0:0:0:0:
320,192,110029,1,0,0:0:0:0:
448,192,110121,1,0,0:0:0:0:
64,192,110121,1,0,0:0:0:0:
192,192,110212,1,0,0:0:0:0:
320,192,110304,1,0,0:0:0:0:
192,192,110395,1,0,0:0:0:0:
448,192,110395,1,0,0:0:0:0:
64,192,110486,1,0,0:0:0:0:
192,192,110578,1,0,0:0:0:0:
320,192,110669,1,0,0:0:0:0:
448,192,110669,1,0,0:0:0:0:
192,192,110761,1,0,0:0:0:0:
64,192,110852,1,0,0:0:0:0:
192,192,110944,1,0,0:0:0:0:
448,192,110944,1,0,0:0:0:0:
320,192,111035,1,0,0:0:0:0:
192,192,111127,1,0,0:0:0:0:
64,192,111218,1,0,0:0:0:0:
448,192,111218,1,0,0:0:0:0:
192,192,111310,1,0,0:0:0:0:
320,192,111401,1,0,0:0:0:0:
448,192,111401,1,0,0:0:0:0:
192,192,111493,1,0,0:0:0:0:
64,192,111584,1,0,0:0:0:0:
448,192,111584,1,0,0:0:0:0:
320,192,111675,1,0,0:0:0:0:
192,192,111767,1,0,0:0:0:0:
320,192,111858,1,0,0:0:0:0:
64,192,111858,1,0,0:0:0:0:
448,192,111950,1,0,0:0:0:0:
320,192,112041,1,0,0:0:0:0:
192,192,112133,1,0,0:0:0:0:
64,192,112133,1,0,0:0:0:0:
320,192,112224,1,0,0:0:0:0:
448,192,112316,1,0,0:0:0:0:
64,192,112407,1,0,0:0:0:0:
320,192,112407,1,0,0:0:0:0:
192,192,112499,1,0,0:0:0:0:
320,192,112590,1,0,0:0:0:0:
64,192,112682,1,0,0:0:0:0:
448,192,112682,1,0,0:0:0:0:
320,192,112773,1,0,0:0:0:0:
64,192,112864,1,0,0:0:0:0:
192,192,112864,1,0,0:0:0:0:
320,192,112956,1,0,0:0:0:0:
64,192,113047,1,0,0:0:0:0:
448,192,113047,1,0,0:0:0:0:
192,192,113047,1,0,0:0:0:0:
320,192,113139,1,0,0:0:0:0:
64,192,113230,1,0,0:0:0:0:
192,192,113322,1,0,0:0:0:0:
320,192,113322,1,0,0:0:0:0:
448,192,113322,1,0,0:0:0:0:
64,192,113413,1,0,0:0:0:0:
448,192,113505,1,0,0:0:0:0:
320,192,113596,1,0,0:0:0:0:
192,192,113596,1,0,0:0:0:0:
64,192,113596,1,0,0:0:0:0:
448,192,113688,1,0,0:0:0:0:
192,192,113779,1,0,0:0:0:0:
320,192,113871,1,0,0:0:0:0:
448,192,113871,1,0,0:0:0:0:
64,192,113871,1,0,0:0:0:0:
192,192,113962,1,0,0:0:0:0:
448,192,114054,1,0,0:0:0:0:
320,192,114145,1,0,0:0:0:0:
64,192,114145,1,0,0:0:0:0:
192,192,114145,1,0,0:0:0:0:
448,192,114236,1,0,0:0:0:0:
320,192,114328,1,0,0:0:0:0:
64,192,114328,1,0,0:0:0:0:
192,192,114419,1,0,0:0:0:0:
64,192,114511,1,0,0:0:0:0:
448,192,114511,1,0,0:0:0:0:
320,192,114511,1,0,0:0:0:0:
192,192,114602,1,0,0:0:0:0:
448,192,114694,1,0,0:0:0:0:
64,192,114785,1,0,0:0:0:0:
192,192,114785,1,0,0:0:0:0:
320,192,114785,1,0,0:0:0:0:
448,192,114877,1,0,0:0:0:0:
64,192,114968,1,0,0:0:0:0:
192,192,115060,1,0,0:0:0:0:
320,192,115060,1,0,0:0:0:0:
448,192,115060,1,0,0:0:0:0:
64,192,115151,1,0,0:0:0:0:
320,192,115243,1,0,0:0:0:0:
448,192,115334,1,0,0:0:0:0:
192,192,115334,1,0,0:0:0:0:
64,192,115334,1,0,0:0:0:0:
320,192,115425,1,0,0:0:0:0:
64,192,115517,1,0,0:0:0:0:
192,192,115608,1,0,0:0:0:0:
320,192,115608,1,0,0:0:0:0:
448,192,115608,1,0,0:0:0:0:
64,192,115700,1,0,0:0:0:0:
448,192,115791,1,0,0:0:0:0:
320,192,115791,1,0,0:0:0:0:
192,192,115883,1,0,0:0:0:0:
64,192,115974,1,0,0:0:0:0:
448,192,115974,1,0,0:0:0:0:
320,192,116066,1,0,0:0:0:0:
192,192,116157,1,0,0:0:0:0:
448,192,116157,1,0,0:0:0:0:
64,192,116249,1,0,0:0:0:0:
320,192,116340,1,0,0:0:0:0:
448,192,116340,1,0,0:0:0:0:
320,192,116523,1,0,0:0:0:0:
192,192,116523,1,0,0:0:0:0:
192,192,116706,1,0,0:0:0:0:
64,192,116706,1,0,0:0:0:0:
320,192,116797,1,0,0:0:0:0:
448,192,116889,1,0,0:0:0:0:
64,192,116889,1,0,0:0:0:0:
192,192,116980,1,0,0:0:0:0:
320,192,117072,1,0,0:0:0:0:
448,192,117072,1,0,0:0:0:0:
448,192,117255,1,0,0:0:0:0:
320,192,117255,1,0,0:0:0:0:
448,192,117438,128,0,118901:0:0:0:0:
64,192,117438,128,0,118901:0:0:0:0:
320,192,117438,128,0,118901:0:0:0:0:
192,192,117438,128,0,118901:0:0:0:0:
