osu file format v14

[General]
AudioFilename: audio.mp3
AudioLeadIn: 0
PreviewTime: 55637
Countdown: 0
SampleSet: Soft
StackLeniency: 0.7
Mode: 0
LetterboxInBreaks: 0
WidescreenStoryboard: 0

[Editor]
DistanceSpacing: 1
BeatDivisor: 3
GridSize: 32
TimelineZoom: 1.5

[Metadata]
Title:VORACITY
TitleUnicode:VORACITY
Artist:MYTH&ROID
ArtistUnicode:MYTH&ROID
Creator:Gcode
Version:Insane
Source:Overlord
Tags:Very Hungry Tasty Ainz Ooal Gown
BeatmapID:2013028
BeatmapSetID:961607

[Difficulty]
HPDrainRate:6
CircleSize:4
OverallDifficulty:7
ApproachRate:9
SliderMultiplier:1.7
SliderTickRate:1

[Events]
//Background and Video events
0,0,"69825352_p0.png",0,0
//Break Periods
//Storyboard Layer 0 (Background)
//Storyboard Layer 1 (Fail)
//Storyboard Layer 2 (Pass)
//Storyboard Layer 3 (Foreground)
//Storyboard Sound Samples

[TimingPoints]
437,300,4,2,0,100,1,0
19637,-66.6666666666667,4,2,0,100,0,0
20837,-200,4,2,0,100,0,0
21437,-100,4,2,0,100,0,0
46337,-200,4,2,0,100,0,0
55637,-66.6666666666667,4,2,0,100,0,0
56837,-50,4,2,0,100,0,0
57437,-66.6666666666667,4,2,0,100,0,0
58037,-66.6666666666667,4,2,0,100,0,1
65237,-66.6666666666667,4,2,0,100,0,0
67637,-66.6666666666667,4,2,0,100,0,1
72437,-66.6666666666667,4,2,0,100,0,0
77237,-66.6666666666667,4,2,0,100,0,1
88037,-66.6666666666667,4,2,0,100,0,0

[HitObjects]
398,104,2237,5,4,0:0:0:0:
151,57,2437,1,0,0:0:0:0:
398,104,2737,2,0,P|392:187|324:234,1,170,2|0,0:0|0:0,0:0:0:0:
151,57,3137,2,0,L|323:148,1,170,2|0,0:0|0:0,0:0:0:0:
459,320,3737,6,0,P|401:323|346:283,1,113.333333333333,2|0,0:0|0:0,0:0:0:0:
176,224,4037,2,0,P|269:240|352:187,1,170,2|0,0:0|0:0,0:0:0:0:
415,89,4537,5,2,0:0:0:0:
137,49,4837,1,2,0:0:0:0:
235,307,5137,2,0,P|234:171|254:128,1,170,2|0,0:0|0:0,0:0:0:0:
350,45,5537,1,2,0:0:0:0:
79,212,5837,1,2,0:0:0:0:
201,23,6137,1,2,0:0:0:0:
259,267,6437,5,0,0:0:0:0:
211,178,6637,1,2,0:0:0:0:
459,265,6937,1,0,0:0:0:0:
118,313,7237,1,2,0:0:0:0:
398,110,7637,5,4,0:0:0:0:
71,261,8837,5,2,0:0:0:0:
368,237,10037,5,4,0:0:0:0:
185,108,11237,5,4,0:0:0:0:
128,290,11537,1,0,1:0:0:0:
310,306,11837,2,0,B|374:288|431:293|431:293|426:263|433:228|433:228,1,170,0|0,0:0|1:0,0:0:0:0:
357,43,12437,2,0,P|346:125|384:181,1,113.333333333333,4|0,0:0|0:0,0:0:0:0:
426,229,12737,2,0,L|270:254,1,113.333333333333,0|0,1:0|0:0,0:0:0:0:
208,258,13037,2,0,P|221:197|179:115,1,113.333333333333,2|0,0:0|0:0,0:0:0:0:
232,37,13337,2,0,L|95:58,1,113.333333333333,0|0,1:0|0:0,0:0:0:0:
44,139,13637,5,2,0:0:0:0:
35,177,13737,1,0,0:0:0:0:
42,215,13837,1,0,0:0:0:0:
73,235,13937,2,0,L|284:216,2,170,0|2|0,1:0|0:0|1:0,0:0:0:0:
155,43,14837,6,0,P|166:125|128:181,1,113.333333333333,2|0,0:0|0:0,0:0:0:0:
86,229,15137,2,0,L|242:254,1,113.333333333333,0|0,1:0|0:0,0:0:0:0:
304,258,15437,2,0,P|291:197|333:115,1,113.333333333333,2|0,0:0|0:0,0:0:0:0:
280,37,15737,2,0,L|417:58,1,113.333333333333,0|0,1:0|0:0,0:0:0:0:
468,139,16037,5,2,0:0:0:0:
477,177,16137,1,0,0:0:0:0:
470,215,16237,1,0,0:0:0:0:
439,235,16337,2,0,L|228:216,2,170,0|2|0,1:0|0:0|1:0,0:0:0:0:
186,127,17237,6,0,L|136:241,1,113.333333333333,2|0,0:0|0:0,0:0:0:0:
177,329,17537,2,0,P|237:290|257:218,1,113.333333333333,0|0,1:0|0:0,0:0:0:0:
415,190,17837,2,0,L|280:179,1,113.333333333333,2|0,0:0|0:0,0:0:0:0:
271,87,18137,2,0,P|226:120|197:185,1,113.333333333333,0|0,1:0|0:0,0:0:0:0:
180,283,18437,1,2,0:0:0:0:
191,306,18537,1,0,0:0:0:0:
222,320,18637,1,0,0:0:0:0:
251,308,18737,2,0,P|316:302|404:316,1,113.333333333333,0|0,1:0|0:0,0:0:0:0:
396,324,19037,2,0,L|422:140,1,170,2|0,0:0|1:0,0:0:0:0:
96,140,19637,6,0,P|94:173|106:216,1,63.7500024318696,2|0,0:0|0:0,0:0:0:0:
209,286,19937,2,0,P|221:258|225:208,1,63.7500024318696,2|0,0:0|0:0,0:0:0:0:
204,57,20237,2,0,P|206:90|220:123,1,63.7500024318696,2|0,0:0|0:0,0:0:0:0:
336,282,20537,2,0,P|336:247|326:219,1,63.7500024318696,2|0,0:0|0:0,0:0:0:0:
103,100,20837,6,0,B|153:126|215:77|274:105,1,170,2|2,0:0|0:0,0:0:0:0:
338,93,22037,6,0,P|347:182|271:242,1,170,2|0,0:0|1:0,0:0:0:0:
81,280,22537,1,0,0:0:0:0:
81,280,22637,1,2,0:0:0:0:
139,54,22837,1,0,0:0:0:0:
139,54,22937,1,0,1:0:0:0:
301,140,23137,5,0,0:0:0:0:
301,140,23237,2,0,P|366:101|384:43,1,113.333333333333,2|0,0:0|0:0,0:0:0:0:
462,35,23537,2,0,L|485:207,2,170,0|2|0,1:0|0:0|1:0,0:0:0:0:
326,170,24437,6,0,P|283:239|192:256,1,170,0|0,1:0|1:0,0:0:0:0:
65,201,24937,1,0,0:0:0:0:
65,201,25037,2,0,L|189:128,1,113.333333333333,2|0,0:0|0:0,0:0:0:0:
212,40,25337,2,0,P|263:98|271:150,1,113.333333333333,0|0,1:0|0:0,0:0:0:0:
263,241,25637,6,0,P|212:323|120:333,1,170,2|0,0:0|1:0,0:0:0:0:
37,176,26237,2,0,P|88:94|180:84,1,170,0|0,1:0|1:0,0:0:0:0:
466,120,26837,1,4,1:0:0:0:
54,340,27337,1,4,1:0:0:0:
425,302,27737,1,4,1:0:0:0:
69,71,28237,1,4,1:0:0:0:
456,144,28637,1,4,1:0:0:0:
456,144,28937,1,4,1:0:0:0:
131,225,29237,1,4,1:0:0:0:
457,42,29737,1,4,1:0:0:0:
274,339,30137,1,4,1:0:0:0:
64,66,30637,1,4,1:0:0:0:
463,253,31037,1,4,1:0:0:0:
463,253,31337,1,0,1:0:0:0:
463,253,31637,6,0,P|482:199|466:147,1,113.333333333333
383,93,31937,2,0,P|313:137|231:120,1,170,2|0,0:0|0:0,0:0:0:0:
100,49,32437,1,0,0:0:0:0:
100,49,32537,2,0,P|133:117|112:206,1,170,2|2,0:0|0:0,0:0:0:0:
21,332,33037,1,0,0:0:0:0:
21,332,33137,1,0,0:0:0:0:
147,218,33337,6,0,P|250:180|337:209,1,170,2|2,0:0|0:0,0:0:0:0:
405,267,33737,2,0,P|396:200|417:137,1,113.333333333333,0|2,0:0|0:0,0:0:0:0:
445,54,34037,2,0,P|366:78|270:61,1,170,2|2,0:0|0:0,0:0:0:0:
53,73,34537,5,0,0:0:0:0:
53,73,34637,2,0,P|31:143|61:199,1,113.333333333333
133,266,34937,2,0,P|157:207|149:149,1,113.333333333333
146,56,35237,2,0,L|270:78,1,113.333333333333,2|2,0:0|0:0,0:0:0:0:
290,82,35537,1,0,0:0:0:0:
427,110,35737,6,0,L|487:83,3,56.6666666666667,2|0|0|0,0:0|0:0|0:0|0:0,0:0:0:0:
355,181,36137,2,0,L|196:195,1,113.333333333333,2|0,0:0|0:0,0:0:0:0:
150,269,36437,6,0,P|114:187|125:140,1,113.333333333333,2|0,0:0|0:0,0:0:0:0:
142,79,36737,1,0,1:0:0:0:
29,301,36937,1,0,0:0:0:0:
29,301,37037,1,2,0:0:0:0:
293,263,37237,1,0,0:0:0:0:
293,263,37337,2,0,P|265:211|276:135,1,113.333333333333,0|0,1:0|0:0,0:0:0:0:
393,25,37637,2,0,P|348:58|293:63,1,113.333333333333
52,61,37937,2,0,P|92:123|183:136,1,170,0|0,1:0|0:0,0:0:0:0:
428,169,38537,1,0,1:0:0:0:
128,268,38837,6,0,P|106:220|122:160,1,113.333333333333,2|0,0:0|0:0,0:0:0:0:
101,64,39137,2,0,P|158:69|210:116,1,113.333333333333,0|0,1:0|0:0,0:0:0:0:
205,209,39437,2,0,P|284:179|304:120,1,113.333333333333
389,40,39737,2,0,L|406:244,1,170,0|0,1:0|0:0,0:0:0:0:
121,322,40337,1,0,1:0:0:0:
64,56,40637,2,0,P|98:148|199:187,1,170,0|0,0:0|1:0,0:0:0:0:
466,264,41237,5,4,1:0:0:0:
54,44,41737,1,4,1:0:0:0:
425,82,42137,1,4,1:0:0:0:
69,313,42637,1,4,1:0:0:0:
456,240,43037,1,4,1:0:0:0:
456,240,43337,1,4,1:0:0:0:
131,159,43637,1,4,1:0:0:0:
457,342,44137,1,4,1:0:0:0:
274,45,44537,1,4,1:0:0:0:
64,318,45037,1,4,1:0:0:0:
463,131,45437,1,4,1:0:0:0:
463,131,45737,1,0,1:0:0:0:
254,194,46037,1,4,0:0:0:0:
102,94,46637,6,0,P|96:179|165:229,1,170,2|0,0:0|0:0,0:0:0:0:
426,242,47837,1,2,0:0:0:0:
426,242,48137,2,0,P|340:265|271:225,1,170
224,74,49037,1,2,0:0:0:0:
387,57,49337,1,2,0:0:0:0:
270,198,49637,5,0,0:0:0:0:
141,302,49937,1,0,0:0:0:0:
42,209,50237,2,0,P|16:138|59:52,1,170,2|2,0:0|0:0,0:0:0:0:
399,264,51437,6,0,B|416:219|416:219|385:209|385:209|414:171|394:109,1,170,2|2,0:0|0:0,0:0:0:0:
365,105,52937,1,0,0:0:0:0:
153,264,53237,6,0,P|119:201|135:119,1,141.666666666667,2|0,0:0|0:0,0:0:0:0:
165,123,53837,2,0,P|203:60|265:42,1,141.666666666667,2|0,0:0|0:0,0:0:0:0:
288,71,54437,2,0,P|371:76|437:138,1,170,2|2,0:0|0:0,0:0:0:0:
445,276,55237,1,0,0:0:0:0:
445,276,55337,1,2,0:0:0:0:
140,318,55537,5,0,0:0:0:0:
140,318,55637,2,0,L|90:154,1,170.000006484986,4|0,1:0|0:0,0:0:0:0:
149,30,55937,2,0,L|201:212,1,170.000006484986,4|0,1:0|0:0,0:0:0:0:
317,287,56237,2,0,L|262:110,1,170.000006484986,4|0,1:0|0:0,0:0:0:0:
327,25,56537,2,0,L|380:202,1,170.000006484986,4|0,1:0|0:0,0:0:0:0:
422,336,56837,5,4,0:0:0:0:
53,201,57437,6,0,P|137:172|214:202,1,170.000006484986,2|2,0:0|0:0,0:0:0:0:
386,340,57937,1,0,1:0:0:0:
371,62,58237,1,0,0:0:0:0:
371,62,58337,2,0,P|320:134|328:216,1,170.000006484986,0|0,1:0|0:0,0:0:0:0:
386,340,58637,2,0,L|204:319,1,170.000006484986,2|0,0:0|0:0,0:0:0:0:
102,306,58937,1,0,1:0:0:0:
84,66,59137,5,0,0:0:0:0:
84,66,59237,2,0,P|117:150|268:157,1,255.000009727478,0|0,0:0|1:0,0:0:0:0:
390,49,59737,1,0,1:0:0:0:
327,328,60037,1,0,1:0:0:0:
128,148,60337,1,0,1:0:0:0:
449,212,60637,5,0,0:0:0:0:
449,212,60737,2,0,P|360:185|320:88,1,170.000006484986,0|0,1:0|0:0,0:0:0:0:
206,34,61037,2,0,L|244:224,1,170.000006484986
261,322,61337,1,0,1:0:0:0:
85,74,61637,5,0,1:0:0:0:
58,203,61837,1,0,1:0:0:0:
406,258,62137,1,0,1:0:0:0:
313,39,62437,1,0,1:0:0:0:
217,327,62737,5,0,0:0:0:0:
217,327,62837,2,0,L|30:293,1,170.000006484986
32,156,63137,2,0,P|97:209|246:196,1,170.000006484986,0|0,1:0|0:0,0:0:0:0:
276,256,63437,2,0,P|287:172|344:101,1,170.000006484986
418,26,63737,2,0,P|341:65|253:54,1,170.000006484986,0|0,1:0|0:0,0:0:0:0:
126,55,64037,2,0,P|186:121|173:199,1,170.000006484986
333,307,64337,2,0,P|271:224|279:159,1,170.000006484986,0|0,1:0|0:0,0:0:0:0:
477,32,64637,2,0,P|478:166|404:278,1,255.000009727478,0|0,1:0|1:0,1:0:0:0:
143,312,65237,6,0,P|129:267|139:218,1,85.0000032424928,0|0,1:0|0:0,0:0:0:0:
285,69,65537,2,0,P|272:111|248:142,1,85.0000032424928,2|0,0:0|0:0,0:0:0:0:
34,270,65837,1,0,1:0:0:0:
423,197,66137,1,0,0:0:0:0:
33,184,66437,5,0,1:0:0:0:
389,318,66637,1,0,0:0:0:0:
389,318,66737,1,0,1:0:0:0:
254,99,66937,1,0,1:0:0:0:
73,332,67237,1,0,1:0:0:0:
73,332,67337,2,0,L|49:141,1,170.000006484986,0|4,1:0|0:0,0:0:0:0:
325,106,67837,5,0,0:0:0:0:
325,106,67937,2,0,P|276:170|180:166,1,170.000006484986,0|0,1:0|0:0,0:0:0:0:
94,108,68237,1,0,0:0:0:0:
201,324,68437,1,0,0:0:0:0:
201,324,68537,2,0,L|395:298,1,170.000006484986,0|0,1:0|0:0,0:0:0:0:
434,212,68837,2,0,P|358:192|279:233,1,170.000006484986,0|0,1:0|1:0,0:0:0:0:
401,42,69337,5,0,1:0:0:0:
91,230,69637,1,0,1:0:0:0:
455,308,69937,2,0,P|390:246|188:236,1,255.000009727478,0|0,1:0|0:0,0:0:0:0:
118,257,70337,2,0,L|78:83,1,170.000006484986,0|0,1:0|0:0,0:0:0:0:
240,32,70637,2,0,L|221:220,1,170.000006484986
322,270,70937,2,0,L|367:106,1,170.000006484986,0|0,1:0|0:0,0:0:0:0:
397,1,71237,5,0,1:0:0:0:
469,209,71437,1,0,1:0:0:0:
226,228,71637,1,0,1:0:0:0:
314,58,71837,1,0,1:0:0:0:
379,331,72037,1,0,1:0:0:0:
379,331,72137,1,0,0:0:0:0:
87,284,72337,1,0,1:0:0:0:
87,284,72437,6,0,P|50:207|79:102,1,170.000006484986
122,43,72737,1,0,1:0:0:0:
406,277,73037,5,0,0:0:0:0:
161,340,73237,1,0,0:0:0:0:
161,340,73337,1,0,1:0:0:0:
281,49,73637,5,0,0:0:0:0:
406,277,73837,1,0,0:0:0:0:
406,277,73937,1,0,1:0:0:0:
81,196,74237,5,0,0:0:0:0:
281,49,74437,1,0,0:0:0:0:
281,49,74537,1,0,1:0:0:0:
297,331,74837,5,0,0:0:0:0:
77,201,75037,1,0,0:0:0:0:
77,201,75137,1,0,1:0:0:0:
413,83,75437,5,0,0:0:0:0:
297,331,75637,1,0,0:0:0:0:
298,332,75737,1,0,1:0:0:0:
45,290,76037,6,0,P|132:257|219:276,1,170.000006484986
302,304,76337,2,0,P|330:224|309:123,1,170.000006484986,0|0,1:0|0:0,0:0:0:0:
238,32,76637,2,0,P|210:117|231:223,1,170.000006484986,0|0,1:0|0:0,0:0:0:0:
302,304,76937,2,0,L|75:313,1,170.000006484986,0|0,1:0|1:0,0:0:0:0:
12,314,77237,1,0,1:0:0:0:
173,86,77437,5,0,0:0:0:0:
173,86,77537,2,0,P|251:120|332:108,1,170.000006484986,0|0,1:0|0:0,0:0:0:0:
425,48,77837,2,0,P|442:127|389:205,1,170.000006484986
311,249,78137,2,0,L|283:79,1,170.000006484986,0|0,1:0|0:0,0:0:0:0:
276,45,78437,1,0,0:0:0:0:
246,57,78537,1,0,0:0:0:0:
216,68,78637,1,0,0:0:0:0:
190,77,78737,1,0,1:0:0:0:
434,292,79037,1,0,1:0:0:0:
154,271,79337,1,0,1:0:0:0:
464,216,79637,5,0,1:0:0:0:
339,86,79837,1,0,0:0:0:0:
339,86,79937,2,0,P|261:120|180:108,1,170.000006484986,0|0,1:0|0:0,0:0:0:0:
87,48,80237,2,0,P|70:127|123:205,1,170.000006484986
201,249,80537,2,0,L|229:79,1,170.000006484986,0|0,1:0|0:0,0:0:0:0:
236,45,80837,1,0,0:0:0:0:
266,57,80937,1,0,0:0:0:0:
296,68,81037,1,0,0:0:0:0:
322,77,81137,1,0,1:0:0:0:
78,292,81437,1,0,1:0:0:0:
358,271,81737,1,0,1:0:0:0:
49,49,82037,5,0,1:0:0:0:
464,340,82537,1,0,1:0:0:0:
111,307,82937,1,0,1:0:0:0:
273,18,83437,1,0,1:0:0:0:
464,218,83837,1,0,1:0:0:0:
45,338,84437,5,0,1:0:0:0:
175,48,84937,1,0,1:0:0:0:
238,301,85337,1,0,1:0:0:0:
464,28,85837,1,0,1:0:0:0:
207,177,86237,1,0,1:0:0:0:
79,114,86837,6,0,P|73:230|177:305,1,255.000009727478,2|2,0:3|0:0,0:0:0:0:
334,305,87337,2,0,P|435:236|433:114,1,255.000009727478,2|2,0:3|0:0,0:0:0:0:
366,49,87737,2,0,P|254:101|143:49,1,255.000009727478,4|0,0:0|0:0,0:0:0:0:
