osu file format v14

[General]
AudioFilename: audio.mp3
AudioLeadIn: 0
PreviewTime: 56930
Countdown: 0
SampleSet: Normal
StackLeniency: 0.3
Mode: 0
LetterboxInBreaks: 0
WidescreenStoryboard: 1

[Editor]
DistanceSpacing: 1.5
BeatDivisor: 6
GridSize: 8
TimelineZoom: 2.499999

[Metadata]
Title:VORACITY
TitleUnicode:VORACITY
Artist:MYTH&ROID
ArtistUnicode:MYTH & ROID
Creator:P4ndemonium
Version:INSANITY
Source:オーバーロードⅢ
Tags:overlord 3 iii opening op
BeatmapID:1786209
BeatmapSetID:854808

[Difficulty]
HPDrainRate:5
CircleSize:3.8
OverallDifficulty:8
ApproachRate:9.1
SliderMultiplier:2
SliderTickRate:1

[Events]
//Background and Video events
0,0,"dasdawdsd.jpg",0,0
//Break Periods
2,45880,50196
//Storyboard Layer 0 (Background)
//Storyboard Layer 1 (Fail)
//Storyboard Layer 2 (Pass)
//Storyboard Layer 3 (Foreground)
//Storyboard Sound Samples

[TimingPoints]
280,300,4,1,0,50,1,0
280,-200,4,1,0,50,0,0
680,-133.333333333333,4,1,0,50,0,0
1030,-100,4,1,0,50,0,0
1330,-66.6666666666667,4,1,0,50,0,0
1580,-50,4,1,0,50,0,0
2030,-133.333333333333,4,1,0,50,0,0
2380,300,4,1,0,50,1,0
2380,-133.333333333333,4,1,0,50,0,0
3680,-117.647058823529,4,1,0,50,0,0
4780,-100,4,1,0,50,0,0
6080,-105.263157894737,4,1,0,50,0,0
7280,300,4,1,0,50,1,0
8380,-33.3333333333333,4,1,0,50,0,0
10880,-133.333333333333,4,1,0,50,0,0
11180,-66.6666666666667,4,1,0,50,0,0
11480,-133.333333333333,4,1,0,50,0,0
11780,-66.6666666666667,4,1,0,50,0,0
12080,-100,4,1,0,50,0,0
12980,-66.6666666666667,4,1,0,50,0,0
14480,-100,4,1,0,50,0,0
15380,-66.6666666666667,4,1,0,50,0,0
16880,-100,4,1,0,50,0,0
17780,-66.6666666666667,4,1,0,50,0,0
20480,-400,4,1,0,50,0,0
21680,-100,4,1,0,50,0,0
34880,-400,4,1,0,50,0,0
36080,-100,4,1,0,50,0,0
50780,-666.666666666667,4,1,0,50,0,0
51380,-333.333333333333,4,1,0,50,0,0
51980,-222.222222222222,4,1,0,50,0,0
52580,-166.666666666667,4,1,0,50,0,0
53330,-125,4,1,0,50,0,0
53630,-100,4,1,0,50,0,0
53930,-83.3333333333333,4,1,0,50,0,0
57230,-133.333333333333,4,1,0,50,0,0
57580,300,4,1,0,50,1,0
57580,-66.6666666666667,4,1,0,50,0,1
64780,-100,4,1,0,50,0,0
67180,-66.6666666666667,4,1,0,50,0,1
70780,-43.4782608695652,4,1,0,50,0,1
71380,-66.6666666666667,4,1,0,50,0,1
71980,-133.333333333333,4,1,0,50,0,0
72030,300,4,1,0,50,1,0
73530,-153.846153846154,4,1,0,50,0,0
73830,-181.818181818182,4,1,0,50,0,0
74130,-222.222222222222,4,1,0,50,0,0
74430,-133.333333333333,4,1,0,50,0,0
75630,-133.333333333333,4,1,0,50,0,0
75930,-66.6666666666667,4,1,0,50,0,0
76230,-133.333333333333,4,1,0,50,0,0
76530,-66.6666666666667,4,1,0,50,0,0
76830,-100,4,1,0,50,0,0
77730,-66.6666666666667,4,1,0,50,0,0
79230,-100,4,1,0,50,0,0
80130,-66.6666666666667,4,1,0,50,0,0
81680,300,4,1,0,50,1,0
81680,-100,4,1,0,50,0,0

[Colours]
Combo1 : 255,0,0
Combo2 : 255,0,66
Combo3 : 128,0,0
Combo4 : 128,0,64

[HitObjects]
0,311,280,6,0,P|43:334|92:330,1,100
112,340,680,6,0,P|119:279|162:234,1,125.000004768372
164,203,1030,6,0,P|222:233|288:232,1,133.333333333333
336,254,1330,6,0,P|310:184|321:110,1,150.000005722046
298,35,1580,6,0,P|384:130|512:121,1,266.666666666667
504,148,1880,5,0,0:0:0:0:
432,307,2030,2,0,P|385:267|325:276,1,125.000004768372
10,57,2380,6,0,B|49:64|80:50|80:50|60:67|39:75|39:75|116:125|145:214|124:323|124:323|135:265|174:208|222:177|222:177|229:187|236:193,1,600.000022888185
460,91,3680,6,0,P|287:204|492:223,1,538.333343601227
209,65,4780,6,0,B|161:125|90:142|6:117|6:117|66:162|83:236|83:236|132:236|172:219|172:219|132:236|83:235|83:235|82:292|49:343|49:343|98:331|142:338|177:362,1,800
510,69,6080,6,0,B|432:103|340:79|279:12|279:12|326:74|433:97|433:97|365:158|335:244|363:354,1,696.66664806366
256,192,7280,5,0,0:0:0:0:
165,75,8480,6,0,B|172:118|172:118|186:135|186:135|185:144,30,75.0000028610231
256,192,9680,5,0,0:0:0:0:
256,191,10880,6,0,P|268:239|308:268,1,100.000003814697
474,265,11180,6,0,P|383:235|312:299,1,200.000007629395
359,105,11480,6,0,P|310:109|269:82,1,100.000003814697
158,193,11780,6,0,P|160:101|252:94,1,200.000007629395
80,360,12080,6,0,B|128:360|128:360|128:274,1,133.333333333333
8,312,12380,1,0,0:0:0:0:
200,216,12580,2,0,B|112:216|112:216|112:261,1,133.333333333333
56,152,12880,1,0,0:0:0:0:
287,253,12980,6,0,B|216:240|216:240|238:114,1,200.000007629395
413,88,13280,6,0,B|394:190|394:190|316:176|316:176|318:160,1,200.000007629395
391,303,13580,6,0,B|413:176|413:176|484:189,1,200.000007629395
321,380,13880,6,0,B|330:324|330:324|456:347|456:347|454:362,1,200.000007629395
307,183,14180,6,0,B|284:309|284:309|213:296,1,200.000007629395
147,87,14480,6,0,B|227:116|227:116|210:161,1,133.333333333333
105,11,14780,1,0,0:0:0:0:
304,118,14980,2,0,B|258:101|258:101|288:21,1,133.333333333333
205,177,15280,1,0,0:0:0:0:
441,185,15380,6,0,B|399:160|399:160|407:147|407:147|393:139|393:139|333:243,1,200.000007629395
347,379,15680,6,0,B|395:295|395:295|311:247|311:247|307:254,1,200.000007629395
116,284,15980,6,0,B|104:304|104:304|180:348|180:348|224:272,1,200.000007629395
231,100,16280,6,0,B|194:162|194:162|305:226,1,200.000007629395
89,238,16580,6,0,B|112:196|112:196|85:180|85:180|145:76,1,200.000007629395
382,61,16880,6,0,B|314:117|314:117|343:152,1,133.333333333333
282,29,17180,1,0,0:0:0:0:
332,238,17380,6,0,B|366:208|366:208|310:141,1,133.333333333333
453,220,17680,1,0,0:0:0:0:
115,302,17780,6,0,B|156:278|156:278|136:243|136:243|233:187,1,200.000007629395
277,331,18080,6,0,B|180:387|180:387|136:310,1,200.000007629395
439,251,18380,6,0,B|471:306|471:306|457:314|457:314|449:300|449:300|359:352,1,200.000007629395
240,247,18680,6,0,B|226:255|226:255|186:185|186:185|276:133,1,200.000007629395
332,38,18980,6,0,B|352:72|352:72|213:152,1,200.000007629395
256,0,19280,5,0,0:0:0:0:
93,87,20480,6,0,P|111:103|126:123,1,50
212,109,21080,6,0,P|213:84|222:60,1,50
49,250,21580,5,0,0:0:0:0:
49,250,21680,2,0,P|112:235|166:270,1,133.333333333333
291,182,21980,2,0,P|262:200|229:202,1,66.6666666666667
242,355,22180,1,0,0:0:0:0:
242,355,22280,2,0,P|241:321|255:292,1,66.6666666666667
350,305,22480,1,0,0:0:0:0:
350,305,22580,2,0,P|378:287|411:285,1,66.6666666666667
491,331,22780,5,0,0:0:0:0:
490,330,22880,2,0,P|455:276|470:213,1,133.333333333333
512,48,23180,2,0,P|482:105|420:124,1,133.333333333333
255,171,23480,2,0,P|320:167|368:211,1,133.333333333333
214,75,23780,2,0,P|166:119|101:115,1,133.333333333333
17,82,24080,6,0,P|61:129|57:194,1,133.333333333333
124,328,24380,2,0,P|107:299|105:267,1,66.6666666666667
200,384,24580,1,0,0:0:0:0:
200,384,24680,2,0,P|216:355|243:336,1,66.6666666666667
257,189,24880,1,0,0:0:0:0:
257,189,24980,2,0,P|274:218|277:251,1,66.6666666666667
447,364,25180,5,0,0:0:0:0:
447,364,25280,2,0,P|382:367|334:323,1,133.333333333333
369,238,25580,2,0,P|433:234|481:278,1,133.333333333333
309,160,25880,2,0,P|261:204|196:200,1,133.333333333333
162,115,26180,2,0,P|209:70|274:74,1,133.333333333333
0,170,26480,6,0,L|5:202,1,33.3333333333333
175,275,26930,6,0,L|143:286,1,33.3333333333333
107,191,27380,6,0,L|90:219,1,33.3333333333333
174,384,27830,6,0,L|142:372,1,33.3333333333333
0,170,28280,6,0,L|5:202,1,33.3333333333333
174,384,28580,6,0,L|142:372,1,33.3333333333333
512,170,28880,6,0,L|506:202,1,33.3333333333333
337,275,29330,6,0,L|368:286,1,33.3333333333333
405,191,29780,6,0,L|421:219,1,33.3333333333333
338,384,30230,6,0,L|369:372,1,33.3333333333333
512,170,30680,6,0,L|506:202,1,33.3333333333333
338,384,30980,6,0,L|369:372,1,33.3333333333333
256,192,31280,5,0,0:0:0:0:
203,117,31480,1,0,0:0:0:0:
203,117,31580,1,0,0:0:0:0:
257,43,31780,1,0,0:0:0:0:
343,72,32080,1,0,0:0:0:0:
343,72,32180,1,0,0:0:0:0:
459,43,32380,5,0,0:0:0:0:
459,43,32480,1,0,0:0:0:0:
443,131,32680,1,0,0:0:0:0:
427,220,32980,1,0,0:0:0:0:
416,312,33280,1,0,0:0:0:0:
416,312,33380,1,0,0:0:0:0:
153,359,33580,5,0,0:0:0:0:
153,359,33680,1,0,0:0:0:0:
182,274,33880,1,0,0:0:0:0:
240,343,34180,1,0,0:0:0:0:
153,359,34580,1,0,0:0:0:0:
71,172,34780,5,0,0:0:0:0:
71,172,34880,2,0,P|87:190|107:205,1,50
43,300,35380,5,0,0:0:0:0:
43,300,35480,2,0,P|67:291|92:290,1,50
184,72,36080,6,0,B|184:160|184:160|229:160,1,133.333333333333
416,68,36380,6,0,P|398:96|396:129,1,66.6666666666667
496,248,36580,1,0,0:0:0:0:
496,248,36680,2,0,P|479:219|452:200,1,66.6666666666667
299,227,36880,1,0,0:0:0:0:
299,227,36980,2,0,P|332:227|361:213,1,66.6666666666667
264,315,37180,5,0,0:0:0:0:
264,315,37280,2,0,P|280:343|307:362,1,66.6666666666667
241,153,37480,1,0,0:0:0:0:
241,153,37580,2,0,P|258:124|260:91,1,66.6666666666667
113,254,37780,1,0,0:0:0:0:
113,254,37880,2,0,P|79:253|50:267,1,66.6666666666667
225,12,38080,1,0,0:0:0:0:
225,12,38180,2,0,P|272:56|337:52,1,133.333333333333
421,173,38480,6,0,P|407:144|408:111,1,66.6666666666667
389,260,38680,2,0,P|436:215|501:219,1,133.333333333333
291,334,38980,1,0,0:0:0:0:
291,334,39080,2,0,P|324:333|353:347,1,66.6666666666667
242,250,39280,2,0,P|245:314|201:362,1,133.333333333333
157,122,39580,5,0,0:0:0:0:
157,122,39680,2,0,P|221:118|269:162,1,133.333333333333
107,200,39980,2,0,P|77:257|15:276,1,133.333333333333
44,0,40280,2,0,P|29:62|65:117,1,133.333333333333
381,203,40580,2,0,P|333:158|268:162,1,133.333333333333
0,214,40880,6,0,L|5:181,1,33.3333333333333
175,109,41330,6,0,L|143:97,1,33.3333333333333
107,193,41780,6,0,L|90:164,1,33.3333333333333
174,0,42230,6,0,L|142:11,1,33.3333333333333
0,214,42680,6,0,L|5:181,1,33.3333333333333
174,0,42980,6,0,L|142:11,1,33.3333333333333
512,214,43280,6,0,L|506:181,1,33.3333333333333
337,109,43730,6,0,L|368:97,1,33.3333333333333
405,193,44180,6,0,L|421:164,1,33.3333333333333
338,0,44630,6,0,L|369:11,1,33.3333333333333
512,214,45080,6,0,L|506:181,1,33.3333333333333
338,0,45380,6,0,L|369:11,1,33.3333333333333
256,192,45680,5,0,0:0:0:0:
88,211,50780,6,0,L|93:240,1,29.9999990844727
106,177,51380,6,0,L|116:236,1,59.9999981689454
124,143,51980,6,0,L|140:232,1,89.9999972534181
143,110,52580,6,0,L|164:228,1,119.999996337891
218,69,53030,6,0,P|235:78|254:84,2,39.9999987792969
335,48,53330,6,0,P|335:74|341:100,2,53.3333333333333
461,121,53630,6,0,P|432:138|408:160,2,66.6666666666667
488,288,53930,6,0,P|452:269|414:257,1,79.9999975585938
256,192,54080,12,0,55080,0:0:0:0:
64,192,55280,6,0,L|97:192,1,33.3333333333333
352,25,55580,6,0,L|335:54,1,33.3333333333333
160,25,55930,6,0,L|176:54,1,33.3333333333333
448,192,56180,6,0,L|414:191,1,33.3333333333333
256,192,56480,5,0,0:0:0:0:
256,192,57080,5,0,0:0:0:0:
433,344,57230,2,0,P|386:304|326:313,1,125.000004768372
301,292,57580,6,0,P|233:361|136:363,1,200.000007629395
83,249,57880,1,0,0:0:0:0:
147,188,57980,2,0,L|112:384,1,200.000007629395
74,132,58280,6,0,P|162:96|235:158,1,200.000007629395
409,67,58580,2,0,P|343:138|246:136,1,200.000007629395
355,170,58880,6,0,P|426:235|424:332,1,200.000007629395
343,367,59180,2,0,P|301:341|252:342,1,100.000003814697
177,182,59380,6,0,L|373:147,1,200.000007629395
78,96,59630,1,0,0:0:0:0:
64,112,59680,2,0,L|260:77,1,200.000007629395
168,358,59980,6,0,P|229:284|192:196,1,200.000007629395
394,139,60280,1,0,0:0:0:0:
354,60,60380,2,0,L|319:256,1,200.000007629395
450,312,60680,6,0,P|385:256|358:337,1,200.000007629395
172,15,60980,2,0,P|237:86|334:84,1,200.000007629395
89,193,61280,6,0,P|115:151|114:102,1,100.000003814697
0,209,61480,2,0,L|196:243,1,200.000007629395
312,314,61780,6,0,L|115:348,1,200.000007629395
380,197,62030,1,0,0:0:0:0:
394,209,62080,2,0,L|197:243,1,200.000007629395
216,3,62380,6,0,P|146:71|145:169,1,200.000007629395
117,374,62680,1,0,0:0:0:0:
196,334,62780,2,0,L|0:299,1,200.000007629395
121,155,63080,6,0,L|317:120,1,200.000007629395
403,357,63380,2,0,P|342:284|379:196,1,200.000007629395
512,54,63680,6,0,P|462:55|420:29,1,100.000003814697
156,149,63880,1,0,0:0:0:0:
226,96,63980,2,0,P|275:94|317:120,1,100.000003814697
117,228,64180,6,0,L|82:31,1,200.000007629395
252,180,64430,1,0,0:0:0:0:
237,267,64480,2,0,L|219:365,1,100.000003814697
2,274,64830,6,0,P|56:238|121:248,1,133.333333333333
117,228,65130,1,0,0:0:0:0:
471,177,65430,6,0,P|416:141|351:151,1,133.333333333333
356,131,65730,1,0,0:0:0:0:
267,384,66030,6,0,L|250:286,2,100
346,306,66580,6,0,L|357:240,1,66.6666666666667
504,324,66780,1,0,0:0:0:0:
480,346,66880,2,0,P|425:310|360:320,1,133.333333333333
215,147,67180,6,0,P|283:216|380:218,1,200.000007629395
70,138,67480,1,0,0:0:0:0:
109,217,67580,2,0,L|143:20,1,200.000007629395
201,276,67880,6,0,P|112:239|39:300,1,200.000007629395
309,384,68180,2,0,P|310:286|380:218,1,200.000007629395
512,141,68480,6,0,P|470:115|421:117,1,100.000003814697
214,174,68680,2,0,L|410:208,1,200.000007629395
122,368,68980,6,0,L|318:333,1,200.000007629395
18,281,69230,1,0,0:0:0:0:
9,297,69280,2,0,L|205:262,1,200.000007629395
30,82,69580,6,0,P|99:150|101:247,1,200.000007629395
196,16,69880,1,0,0:0:0:0:
274,56,69980,2,0,L|77:90,1,200.000007629395
371,226,70280,6,0,P|385:134|477:131,1,200.000007629395
397,310,70580,2,0,P|347:311|305:285,1,100.000003814697
126,306,70780,5,0,0:0:0:0:
195,360,70880,2,0,B|270:319|298:222|253:146|253:146|263:171|263:204,2,306.666672515869
8,313,71380,6,0,P|105:314|173:384,1,200.000007629395
49,122,71680,1,0,0:0:0:0:
112,184,71780,2,0,P|113:233|87:275,1,100.000003814697
193,13,71980,5,0,0:0:0:0:
83,41,72080,1,0,0:0:0:0:
276,145,72330,6,0,P|317:118|367:119,1,100.000003814697
500,243,72630,2,0,P|456:219|432:176,1,100.000003814697
474,0,72930,2,0,P|475:49|450:91,1,100.000003814697
400,343,73230,6,0,P|398:293|423:251,1,100.000003814697
248,138,73530,6,0,P|272:174|276:217,1,86.6666626993817
157,329,73830,6,0,P|165:293|188:265,1,73.3333355712891
62,183,74130,6,0,P|87:198|105:222,1,59.9999981689454
35,373,74430,5,0,0:0:0:0:
145,345,74530,1,0,0:0:0:0:
236,145,74730,6,0,P|194:118|144:119,1,100.000003814697
12,243,75030,2,0,P|55:219|79:176,1,100.000003814697
38,0,75330,2,0,P|36:49|61:91,1,100.000003814697
138,257,75630,6,0,P|180:231|229:233,1,100.000003814697
346,270,75930,6,0,P|255:238|236:145,1,200.000007629395
317,0,76230,6,0,P|315:49|340:91,1,100.000003814697
459,132,76530,6,0,P|375:94|328:172,1,200.000007629395
200,344,76830,6,0,B|248:344|248:344|248:258,1,133.333333333333
328,376,77130,1,0,0:0:0:0:
352,200,77330,2,0,B|264:200|264:200|264:245,1,133.333333333333
208,136,77630,1,0,0:0:0:0:
444,223,77730,6,0,B|380:234|380:234|357:100,1,200.000007629395
292,7,78030,6,0,B|378:-7|378:-7|393:78|393:78|370:82,1,200.000007629395
151,177,78330,6,0,B|148:161|148:161|282:137|282:137|293:200,1,200.000007629395
235,332,78630,6,0,B|85:358|85:358|74:295,1,200.000007629395
309,197,78930,6,0,B|329:315|329:315|314:317|314:317|316:333|316:333|269:342,1,200.000007629395
108,232,79230,6,0,B|94:194|94:194|182:162,1,133.333333333333
77,311,79530,1,0,0:0:0:0:
128,54,79730,2,0,B|163:151|163:151|136:161,1,133.333333333333
49,23,80030,1,0,0:0:0:0:
360,144,80130,6,0,B|317:108|317:108|224:218,1,200.000007629395
177,1,80430,6,0,B|275:83|275:83|321:28,1,200.000007629395
274,281,80730,6,0,B|286:291|286:291|332:236|332:236|246:164,1,200.000007629395
464,254,81030,6,0,B|414:212|414:212|373:261|373:261|435:313,1,200.000007629395
186,224,81330,6,0,B|204:239|204:239|91:374,1,200.000007629395
256,384,81680,6,0,L|256:351,1,33.3333333333333
89,96,82130,6,0,L|118:113,1,33.3333333333333
89,288,82580,6,0,L|118:272,1,33.3333333333333
256,0,83030,6,0,L|255:34,1,33.3333333333333
256,192,83480,5,0,0:0:0:0:
256,0,84030,6,0,L|256:33,1,33.3333333333333
423,288,84480,6,0,L|394:271,1,33.3333333333333
423,96,84930,6,0,L|394:112,1,33.3333333333333
256,384,85380,6,0,L|257:350,1,33.3333333333333
256,192,85830,5,0,0:0:0:0:
0,192,86480,6,0,L|33:192,1,33.3333333333333
512,192,86930,6,0,L|478:192,1,33.3333333333333
256,192,87330,5,0,0:0:0:0:
