osu file format v14

[General]
AudioFilename: audio.mp3
AudioLeadIn: 0
PreviewTime: 49211
Countdown: 0
SampleSet: Soft
StackLeniency: 0.7
Mode: 0
LetterboxInBreaks: 0
WidescreenStoryboard: 1

[Editor]
DistanceSpacing: 0.5
BeatDivisor: 4
GridSize: 8
TimelineZoom: 1

[Metadata]
Title:Jingo Jungle
TitleUnicode:Jingo Jungle
Artist:MYTH&ROID
ArtistUnicode:MYTH&ROID
Creator:supersj1997
Version:Insane
Source:幼女戦記
Tags:Youjo Senki
BeatmapID:1321524
BeatmapSetID:602816

[Difficulty]
HPDrainRate:5
CircleSize:4
OverallDifficulty:7
ApproachRate:9
SliderMultiplier:1.8
SliderTickRate:1

[Events]
//Background and Video events
0,0,"798264.jpg",0,0
//Break Periods
2,33603,40188
//Storyboard Layer 0 (Background)
//Storyboard Layer 1 (Fail)
//Storyboard Layer 2 (Pass)
//Storyboard Layer 3 (Foreground)
//Storyboard Sound Samples

[TimingPoints]
2019,461.538461538462,4,2,0,100,1,0
49211,-66.6666666666667,4,2,0,100,0,0
50019,-66.6666666666667,4,2,0,100,0,1
64615,-100,4,2,0,100,0,0

[HitObjects]
392,168,2019,6,0,P|408:128|368:64,1,90,0|8,1:0|0:0,0:0:0:0:
248,168,2480,2,0,P|234:210|250:251,1,90,0|8,1:0|0:0,0:0:0:0:
384,264,2942,1,0,1:0:0:0:
320,128,3172,2,0,L|264:128,1,45,8|0,0:0|0:0,0:0:0:0:
168,192,3403,2,0,L|224:192,1,45,0|0,1:0|0:0,0:0:0:0:
320,232,3634,1,8,0:0:0:0:
208,64,3865,6,0,L|112:64,1,90,0|8,1:0|0:0,0:0:0:0:
168,160,4326,2,0,L|264:160,1,90,0|8,1:0|0:0,0:0:0:0:
368,96,4788,1,0,1:0:0:0:
368,96,5019,2,0,L|320:96,1,45,8|0,0:0|0:0,0:0:0:0:
168,176,5249,2,0,L|216:176,1,45,0|0,1:0|0:0,0:0:0:0:
368,216,5480,1,8,0:0:0:0:
264,120,5711,6,0,L|224:144,1,45,2|0,1:0|0:0,0:0:0:0:
272,256,5942,2,0,L|232:232,1,45,10|0,0:0|0:0,0:0:0:0:
264,120,6172,2,0,L|216:152,1,45,2|0,1:0|0:0,0:0:0:0:
272,256,6403,2,0,L|232:232,1,45,10|0,0:0|0:0,0:0:0:0:
160,192,6634,2,0,L|352:192,1,180,2|0,1:0|1:0,0:0:0:0:
336,192,7557,6,0,L|336:136,1,45,2|0,1:0|0:0,0:0:0:0:
272,280,7788,2,0,L|272:328,1,45,10|0,0:0|0:0,0:0:0:0:
336,192,8019,2,0,L|336:136,1,45,2|0,1:0|0:0,0:0:0:0:
272,280,8249,2,0,L|272:328,1,45,10|0,0:0|0:0,0:0:0:0:
256,200,8480,2,0,L|120:80,1,180,2|0,1:0|1:0,0:0:0:0:
120,80,9403,6,0,P|88:136|112:192,1,90,0|8,1:0|0:0,0:0:0:0:
232,80,9865,1,0,1:0:0:0:
160,232,10095,1,8,0:0:0:0:
120,88,10326,1,0,1:0:0:0:
120,88,10557,2,0,L|160:120,1,45,8|0,0:0|0:0,0:0:0:0:
272,208,10788,2,0,L|236:179,1,45,0|0,1:0|0:0,0:0:0:0:
120,184,11019,1,8,0:0:0:0:
120,184,11249,6,0,P|128:240|168:256,1,90,0|8,1:0|0:0,0:0:0:0:
264,144,11711,2,0,P|264:100|230:73,1,90,0|8,1:0|0:0,0:0:0:0:
112,184,12172,1,0,1:0:0:0:
208,264,12403,2,0,L|256:256,1,45,8|0,0:0|0:0,0:0:0:0:
336,184,12634,2,0,L|280:176,1,45,0|0,1:0|0:0,0:0:0:0:
208,120,12865,1,8,0:0:0:0:
208,120,13095,2,0,L|192:64,1,45,2|0,1:0|0:0,0:0:0:0:
240,216,13326,2,0,L|256:272,1,45,10|0,0:0|0:0,0:0:0:0:
208,120,13557,2,0,L|192:64,1,45,2|0,1:0|0:0,0:0:0:0:
240,216,13788,2,0,L|256:272,1,45,10|0,0:0|0:0,0:0:0:0:
288,144,14019,2,0,L|464:88,1,180,2|2,1:0|0:0,0:0:0:0:
459,89,14942,6,0,L|419:121,1,45,2|0,1:0|0:0,0:0:0:0:
443,217,15172,2,0,L|411:177,1,45,10|0,0:0|0:0,0:0:0:0:
331,81,15403,2,0,L|363:121,1,45,2|0,1:0|0:0,0:0:0:0:
315,209,15634,2,0,L|355:177,1,45,10|0,0:0|0:0,0:0:0:0:
384,152,15865,2,0,L|384:336,1,180,2|0,1:0|0:0,0:0:0:0:
256,192,16788,12,0,18172,0:0:0:0:
136,288,18634,6,0,L|136:240,1,45,0|0,1:0|0:0,0:0:0:0:
232,144,18865,1,8,0:0:0:0:
259,109,18980,1,0,0:0:0:0:
301,95,19095,1,0,1:0:0:0:
344,109,19211,1,0,0:0:0:0:
371,143,19326,1,8,0:0:0:0:
344,275,19557,1,0,1:0:0:0:
301,289,19672,1,0,0:0:0:0:
259,275,19788,1,8,0:0:0:0:
168,184,20019,1,0,1:0:0:0:
168,184,20249,1,8,0:0:0:0:
344,109,20480,6,0,P|395:110|435:142,1,90,0|8,1:0|0:0,0:0:0:0:
363,278,20826,2,0,L|307:278,1,45,0|0,0:0|1:0,0:0:0:0:
264,192,21057,2,0,L|320:192,1,45,0|8,0:0|0:0,0:0:0:0:
427,134,21403,1,0,1:0:0:0:
427,134,21518,1,0,0:0:0:0:
427,134,21633,1,8,0:0:0:0:
288,224,21865,1,0,1:0:0:0:
344,64,22095,1,8,0:0:0:0:
418,236,22326,5,0,1:0:0:0:
184,104,22557,2,0,L|224:64,1,45,8|0,0:0|0:0,0:0:0:0:
328,280,22788,2,0,L|288:320,1,45,0|0,1:0|0:0,0:0:0:0:
344,160,23019,1,8,0:0:0:0:
344,160,23249,2,0,L|400:160,1,45,0|0,1:0|0:0,0:0:0:0:
296,312,23480,1,8,0:0:0:0:
192,200,23711,2,0,P|152:136|168:88,1,90,0|8,1:0|0:0,0:0:0:0:
232,64,24172,5,0,1:0:0:0:
280,320,24403,2,0,L|280:264,1,45,8|0,0:0|0:0,0:0:0:0:
232,64,24634,2,0,L|232:120,1,45,0|0,1:0|0:0,0:0:0:0:
280,176,24865,1,8,0:0:0:0:
328,112,25095,2,0,L|328:56,2,45,0|0|8,1:0|0:0|0:0,0:0:0:0:
368,264,25557,1,0,1:0:0:0:
368,264,25788,1,8,0:0:0:0:
432,144,26019,6,0,P|392:144|352:112,1,90,0|8,1:0|0:0,0:0:0:0:
336,96,26365,1,0,0:0:0:0:
293,81,26480,1,0,1:0:0:0:
248,81,26595,1,0,0:0:0:0:
206,96,26711,1,8,0:0:0:0:
136,200,26942,2,0,L|128:264,2,45,0|0|8,1:0|0:0|0:0,0:0:0:0:
160,64,27403,1,0,1:0:0:0:
160,64,27634,1,8,0:0:0:0:
272,72,27865,6,0,L|320:80,1,45,0|0,1:0|0:0,0:0:0:0:
392,160,28095,1,8,0:0:0:0:
421,193,28210,1,0,0:0:0:0:
425,237,28325,1,0,1:0:0:0:
401,274,28441,1,0,0:0:0:0:
360,291,28557,1,8,0:0:0:0:
176,216,28788,1,0,1:0:0:0:
168,172,28903,1,0,0:0:0:0:
195,138,29018,1,8,0:0:0:0:
336,216,29249,1,0,1:0:0:0:
336,216,29480,1,8,0:0:0:0:
344,312,29711,5,0,1:0:0:0:
256,136,29942,2,0,L|224:96,1,45,8|0,0:0|0:0,0:0:0:0:
208,288,30172,2,0,L|240:328,1,45,0|0,1:0|0:0,0:0:0:0:
272,224,30403,1,8,0:0:0:0:
320,88,30634,2,0,L|288:48,1,45,0|0,1:0|0:0,0:0:0:0:
272,224,30865,1,8,0:0:0:0:
216,160,31095,2,0,P|168:144|112:160,1,90,0|8,1:0|0:0,0:0:0:0:
136,248,31557,5,8,1:0:0:0:
248,72,31903,1,8,1:0:0:0:
328,256,32249,1,8,1:0:0:0:
392,168,32480,1,8,1:0:0:0:
361,118,32595,1,8,1:0:0:0:
304,103,32710,1,8,1:0:0:0:
248,96,32826,1,8,1:0:0:0:
192,96,32942,2,8,L|136:96,1,45,8|8,1:0|1:0,1:0:0:0:
320,280,33172,2,8,L|376:280,1,45,8|8,1:0|1:0,1:0:0:0:
192,104,33403,1,8,1:0:0:0:
96,160,40788,6,0,P|128:120|168:120,1,90
192,128,41134,1,0,0:0:0:0:
216,144,41249,1,0,0:0:0:0:
272,272,41480,1,0,0:0:0:0:
246,293,41595,1,0,0:0:0:0:
214,303,41710,1,0,0:0:0:0:
181,299,41826,1,0,0:0:0:0:
152,283,41941,1,0,0:0:0:0:
128,120,42172,1,0,0:0:0:0:
280,72,42403,5,0,0:0:0:0:
280,72,42519,1,0,0:0:0:0:
280,72,42634,1,0,0:0:0:0:
384,144,42865,1,0,0:0:0:0:
384,144,42980,1,0,0:0:0:0:
384,144,43095,1,0,0:0:0:0:
336,256,43326,1,0,0:0:0:0:
304,266,43441,1,0,0:0:0:0:
270,271,43556,1,0,0:0:0:0:
237,270,43672,1,0,0:0:0:0:
204,263,43787,1,0,0:0:0:0:
128,96,44019,1,0,0:0:0:0:
256,56,44249,5,0,0:0:0:0:
256,56,44365,1,0,0:0:0:0:
256,56,44480,1,0,0:0:0:0:
360,120,44711,1,0,0:0:0:0:
360,120,44826,1,0,0:0:0:0:
360,120,44942,1,0,0:0:0:0:
336,248,45172,1,0,0:0:0:0:
304,259,45287,1,0,0:0:0:0:
271,264,45402,1,0,0:0:0:0:
237,261,45518,1,0,0:0:0:0:
205,250,45633,1,0,0:0:0:0:
120,120,45865,1,0,0:0:0:0:
256,56,46095,5,0,0:0:0:0:
256,56,46211,1,0,0:0:0:0:
256,56,46326,1,0,0:0:0:0:
368,144,46557,1,0,0:0:0:0:
368,144,46672,1,0,0:0:0:0:
368,144,46788,1,0,0:0:0:0:
336,256,47019,1,0,0:0:0:0:
302,262,47134,1,0,0:0:0:0:
269,264,47249,1,0,0:0:0:0:
235,260,47365,1,0,0:0:0:0:
203,251,47480,1,0,0:0:0:0:
176,144,47711,1,0,0:0:0:0:
176,144,48172,5,8,1:0:0:0:
304,80,48519,1,8,1:0:0:0:
304,240,48865,1,8,1:0:0:0:
176,144,49095,1,8,1:0:0:0:
128,80,49326,6,0,L|208:80,1,67.5000025749208
384,192,49557,2,0,L|312:192,1,67.5000025749208
128,304,49788,2,0,L|200:304,1,67.5000025749208
336,272,50019,2,0,P|384:200|336:136,1,135.000005149842,0|8,1:0|0:0,0:0:0:0:
96,120,50480,2,0,P|143:165|207:153,1,135.000005149842,0|8,1:0|0:0,0:0:0:0:
368,64,50942,2,0,P|328:120|352:248,1,202.500007724762,0|0,1:0|0:0,0:0:0:0:
264,56,51403,1,0,1:0:0:0:
264,56,51634,2,0,P|192:88|48:8,1,202.500007724762,8|0,0:0|0:0,0:0:0:0:
152,256,52095,1,8,0:0:0:0:
152,256,52326,2,0,P|152:320|88:320,1,135.000005149842,0|8,1:0|0:0,0:0:0:0:
80,192,52788,1,0,1:0:0:0:
80,192,53249,5,0,1:0:0:0:
280,72,53480,1,8,0:0:0:0:
208,304,53711,1,0,1:0:0:0:
208,304,54172,5,0,1:0:0:0:
96,80,54403,1,8,0:0:0:0:
304,224,54634,1,0,1:0:0:0:
304,224,55095,5,0,1:0:0:0:
88,120,55326,1,8,0:0:0:0:
248,64,55557,1,0,1:0:0:0:
240,296,55788,1,8,0:0:0:0:
368,112,56019,1,0,1:0:0:0:
144,168,56249,1,8,0:0:0:0:
352,272,56480,1,0,1:0:0:0:
408,192,56711,6,0,L|408:120,1,67.5000025749208
256,232,56942,2,0,L|256:304,1,67.5000025749208
104,192,57172,2,0,L|104:120,1,67.5000025749208
192,80,57403,2,0,P|256:48|320:80,1,135.000005149842,0|8,1:0|0:0,0:0:0:0:
224,272,57865,2,0,P|162:293|104:262,1,135.000005149842,0|8,1:0|0:0,0:0:0:0:
312,72,58326,2,0,P|376:176|344:264,1,202.500007724762,0|0,1:0|0:0,0:0:0:0:
80,136,58788,1,0,1:0:0:0:
80,136,59019,2,0,L|80:344,1,202.500007724762,8|0,0:0|0:0,0:0:0:0:
160,136,59480,1,8,0:0:0:0:
160,136,59711,2,0,L|160:272,1,135.000005149842,0|8,1:0|0:0,0:0:0:0:
160,288,60172,1,0,1:0:0:0:
160,288,60634,5,0,1:0:0:0:
288,136,60865,1,8,0:0:0:0:
88,224,61095,1,0,1:0:0:0:
296,304,61326,1,8,0:0:0:0:
80,80,61557,1,0,1:0:0:0:
168,336,61788,1,8,0:0:0:0:
320,160,62019,2,0,P|288:112|104:64,1,202.500007724762,0|0,1:0|0:0,0:0:0:0:
80,280,62480,5,0,1:0:0:0:
272,200,62711,1,8,0:0:0:0:
136,56,62942,1,0,1:0:0:0:
344,336,63172,1,8,0:0:0:0:
288,40,63403,1,0,1:0:0:0:
224,296,63634,1,8,0:0:0:0:
408,192,63865,2,0,P|376:152|240:176,1,202.500007724762,0|0,1:0|0:0,0:0:0:0:
320,208,64326,2,0,P|352:136|312:64,1,135.000005149842,0|8,1:0|0:0,0:0:0:0:
152,84,64788,5,0,1:0:0:0:
62,173,65019,1,8,0:0:0:0:
151,262,65249,1,0,1:0:0:0:
241,173,65480,1,8,0:0:0:0:
274,52,65711,5,0,1:0:0:0:
384,56,65942,2,0,L|352:128,1,45,8|0,0:0|0:0,0:0:0:0:
160,56,66172,2,0,L|192:128,1,45,0|0,1:0|0:0,0:0:0:0:
272,208,66403,1,8,0:0:0:0:
272,208,66634,5,0,1:0:0:0:
125,146,66865,1,8,0:0:0:0:
230,104,67095,1,0,1:0:0:0:
168,251,67326,1,8,0:0:0:0:
272,208,67557,5,0,1:0:0:0:
376,80,67788,2,0,L|376:128,1,45,8|0,0:0|0:0,0:0:0:0:
136,80,68019,2,0,L|136:128,1,45,0|0,1:0|0:0,0:0:0:0:
256,40,68249,1,8,0:0:0:0:
256,160,68480,5,0,1:0:0:0:
377,206,68711,1,8,0:0:0:0:
276,288,68942,1,0,1:0:0:0:
154,241,69172,1,8,0:0:0:0:
256,160,69403,5,0,1:0:0:0:
320,256,69634,2,0,L|280:288,1,45,8|0,0:0|0:0,0:0:0:0:
192,64,69865,2,0,L|232:32,1,45,0|0,1:0|0:0,0:0:0:0:
320,256,70095,1,8,0:0:0:0:
320,256,70326,5,0,1:0:0:0:
184,192,70557,1,8,0:0:0:0:
312,104,70788,1,0,1:0:0:0:
320,256,71019,1,8,0:0:0:0:
184,192,71249,1,0,1:0:0:0:
184,80,71480,6,0,L|216:120,1,45,10|0,0:0|0:0,0:0:0:0:
288,72,71711,2,0,L|320:112,1,45,2|0,1:0|0:0,0:0:0:0:
400,64,71942,2,0,L|432:104,1,45,10|0,0:0|0:0,0:0:0:0:
448,192,72172,6,0,P|448:216|376:240,1,90,0|8,1:0|0:0,0:0:0:0:
184,296,72634,1,0,1:0:0:0:
247,89,72865,1,8,0:0:0:0:
400,248,73095,2,0,P|424:192|408:112,1,135,0|0,1:0|0:0,0:0:0:0:
320,176,73557,1,0,1:0:0:0:
320,176,73788,2,0,P|264:112|168:128,1,180,8|8,0:0|0:0,0:0:0:0:
272,256,74480,2,0,P|240:296|168:296,1,90,0|8,1:0|0:0,0:0:0:0:
384,240,74942,2,0,P|368:200|312:176,1,90,0|8,1:0|0:0,0:0:0:0:
216,344,75403,2,0,P|248:304|320:312,1,90,0|8,1:0|0:0,0:0:0:0:
296,120,75865,1,0,1:0:0:0:
184,64,76095,6,0,L|112:72,1,45,8|0,0:0|0:0,0:0:0:0:
64,144,76326,2,0,L|128:152,1,45,0|0,1:0|0:0,0:0:0:0:
200,160,76557,1,8,0:0:0:0:
384,208,76788,2,0,L|328:216,1,45,0|0,1:0|0:0,0:0:0:0:
248,248,77019,1,8,0:0:0:0:
128,264,77249,2,0,P|80:232|72:176,1,90,0|8,1:0|0:0,0:0:0:0:
112,96,77711,1,0,1:0:0:0:
248,72,77942,5,8,0:0:0:0:
248,72,78057,2,0,L|248:144,1,45,0|0,0:0|1:0,0:0:0:0:
336,120,78288,2,0,L|336:184,1,45,0|8,0:0|0:0,0:0:0:0:
264,320,78634,2,0,L|264:272,1,45,0|0,1:0|0:0,0:0:0:0:
160,56,78865,6,0,L|160:120,1,45,8|0,0:0|0:0,0:0:0:0:
256,288,79095,2,0,L|256:240,1,45,0|0,1:0|0:0,0:0:0:0:
352,56,79326,2,0,L|352:120,1,45,8|0,0:0|0:0,0:0:0:0:
416,248,79557,2,0,P|422:205|392:173,1,90,0|8,1:0|0:0,0:0:0:0:
256,312,80019,2,0,P|293:288|337:289,1,90,0|8,1:0|0:0,0:0:0:0:
272,208,80480,2,0,P|296:160|256:72,1,135,0|0,1:0|0:0,0:0:0:0:
88,144,80942,1,0,1:0:0:0:
88,144,81172,2,0,P|120:200|96:272,1,135,8|0,0:0|0:0,0:0:0:0:
240,80,81634,5,8,0:0:0:0:
240,80,81865,2,0,P|296:64|336:80,1,90,0|8,1:0|0:0,0:0:0:0:
392,144,82326,2,0,P|408:184|392:232,1,90,0|8,1:0|0:0,0:0:0:0:
296,200,82788,2,0,P|256:176|192:200,1,90,0|8,1:0|0:0,0:0:0:0:
128,256,83249,1,0,1:0:0:0:
88,128,83480,6,0,L|88:72,1,45,8|0,0:0|0:0,0:0:0:0:
176,176,83711,2,0,L|176:232,1,45,0|0,1:0|0:0,0:0:0:0:
168,88,83942,1,8,0:0:0:0:
248,128,84172,2,0,L|304:128,1,45,0|0,1:0|0:0,0:0:0:0:
376,168,84403,1,8,0:0:0:0:
400,256,84634,2,0,P|392:304|328:336,1,90,0|8,1:0|0:0,0:0:0:0:
264,320,85095,1,0,1:0:0:0:
168,272,85326,6,0,L|168:216,1,45,8|0,0:0|0:0,0:0:0:0:
168,104,85557,2,0,L|168:160,1,45,0|0,1:0|0:0,0:0:0:0:
232,184,85788,1,8,0:0:0:0:
312,128,86019,2,0,L|376:88,1,45,0|0,1:0|0:0,0:0:0:0:
232,184,86249,1,8,0:0:0:0:
152,128,86480,2,0,P|128:88|72:80,2,90,0|8|0,1:0|0:0|1:0,0:0:0:0:
