osu file format v14

[General]
AudioFilename: audio.mp3
AudioLeadIn: 0
PreviewTime: 49371
Countdown: 0
SampleSet: Soft
StackLeniency: 1
Mode: 0
LetterboxInBreaks: 0
WidescreenStoryboard: 1

[Editor]
Bookmarks: 17001,32361,49641,65001,80361
DistanceSpacing: 1.3
BeatDivisor: 4
GridSize: 4
TimelineZoom: 1.6

[Metadata]
Title:shadowgraph (TV Size)
TitleUnicode:shadowgraph (TV Size)
Artist:MYTH & ROID
ArtistUnicode:MYTH & ROID
Creator:Ryuusei Aika
Version:VINXIS' Insane
Source:ブギーポップは笑わない
Tags:japanese anime opening op Rin Sa Lunala Yasaija 714 Moecho VINXIS Karen Kalibe Necho Reincarnation Boogiepop Doesn't Laugh ブギーポップシリーズ Boogiepop series 上遠野浩平 電撃文庫 KADOKAWA
BeatmapID:1976689
BeatmapSetID:931734

[Difficulty]
HPDrainRate:6
CircleSize:4
OverallDifficulty:8
ApproachRate:8
SliderMultiplier:2.30000000596046
SliderTickRate:2

[Events]
//Background and Video events
Video,250,"video.avi"
0,0,"girls.jpg",0,0
//Break Periods
//Storyboard Layer 0 (Background)
//Storyboard Layer 1 (Fail)
//Storyboard Layer 2 (Pass)
//Storyboard Layer 3 (Foreground)
//Storyboard Sound Samples

[TimingPoints]
-279,480,4,2,0,50,1,0
1641,-133.333333333333,4,2,0,50,0,0
9321,-133.333333333333,4,2,1,50,0,0
16521,-399.999999999997,4,2,0,50,0,0
17001,-117.647058823529,4,2,1,50,0,0
32361,-222.222222222221,4,2,1,50,0,0
40041,-153.846153846153,4,2,1,50,0,0
49641,-100,4,2,1,70,0,0
53481,-66.6666666666667,4,2,1,70,0,0
57321,-100,4,2,1,70,0,0
68841,-66.6666666666667,4,2,1,70,0,0
72681,-100,4,2,1,70,0,0
80361,-125,4,2,1,70,0,0

[Colours]
Combo1 : 168,168,255
Combo2 : 105,105,105

[HitObjects]
102,87,1401,5,0,0:0:0:0:
102,87,1521,1,0,0:0:0:0:
102,87,1641,2,0,P|109:131|110:187,1,86.2500035136938,2|0,0:0|0:0,0:0:0:0:
0,300,2121,2,0,P|1:256|8:214,1,86.2500035136938,2|0,0:0|0:0,0:0:0:0:
201,175,2601,2,0,P|202:230|212:360,1,172.500007027388,2|2,0:0|0:0,0:0:0:0:
430,64,3561,5,2,0:0:0:0:
320,133,3921,1,2,0:0:0:0:
215,57,4281,1,2,0:0:0:0:
215,57,4521,1,2,0:0:0:0:
402,362,9081,5,0,0:0:0:0:
402,362,9201,1,0,0:0:0:0:
402,362,9321,6,0,P|399:303|406:257,1,86.2500035136938,2|0,0:0|0:0,0:0:0:0:
274,154,9801,2,0,P|277:196|274:239,1,86.2500035136938,2|0,0:0|0:0,0:0:0:0:
182,375,10281,2,0,P|171:322|192:200,1,172.500007027388,2|2,0:0|0:0,0:0:0:0:
20,39,11241,6,0,P|57:46|153:40,1,129.375005270541,2|0,0:0|0:0,0:0:0:0:
211,94,11721,2,0,P|248:87|299:89,2,86.2500035136938,2|0|2,0:0|0:0|0:0,0:0:0:0:
98,176,12681,1,2,0:0:0:0:
176,244,13161,5,2,0:0:0:0:
176,244,13641,1,2,0:0:0:0:
176,244,14121,1,2,0:0:0:0:
176,244,14601,1,2,0:0:0:0:
426,235,15081,6,2,B|443:186|443:186|429:59,2,172.500007027388
111,223,16521,6,0,L|114:271,1,43.1250001117586,2|0,0:0|0:0,0:0:0:0:
76,338,17001,5,6,1:2:0:0:
210,320,17361,1,0,0:0:0:0:
210,320,17481,2,0,L|321:334,1,97.7500021177529,2|2,0:0|0:3,0:0:0:0:
458,318,17961,2,0,B|431:274|431:274|277:248,1,195.500004235506,2|2,0:0|0:0,0:0:0:0:
152,384,18681,1,2,0:3:0:0:
113,266,18921,6,0,P|114:205|144:114,1,146.625003176629,2|0,0:0|0:0,0:0:0:0:
63,97,19401,2,0,L|71:0,1,97.7500021177529,2|2,0:0|0:3,0:0:0:0:
240,66,19881,2,0,L|231:163,1,97.7500021177529,2|2,0:0|0:3,0:0:0:0:
186,233,20361,1,2,0:0:0:0:
348,201,20601,1,2,0:3:0:0:
369,184,20721,1,0,0:0:0:0:
390,167,20841,6,0,L|398:367,1,195.500004235506,2|2,0:0|0:0,0:0:0:0:
314,380,21561,1,2,0:3:0:0:
493,269,21801,1,2,0:0:0:0:
311,175,22041,1,2,0:3:0:0:
152,255,22281,2,0,P|95:253|5:255,1,146.625003176629,2|0,0:0|0:0,0:0:0:0:
5,254,22761,5,2,0:0:0:0:
233,290,23001,1,2,0:3:0:0:
242,307,23121,1,0,0:0:0:0:
251,324,23241,1,2,0:0:0:0:
280,210,23481,1,2,0:3:0:0:
216,116,23721,1,2,0:0:0:0:
245,2,23961,1,2,0:3:0:0:
188,127,24201,6,0,L|194:198,1,65.1666680785019,2|0,3:2|3:2,3:2:0:0:
185,209,24441,2,0,L|191:280,1,65.1666680785019,0|0,3:2|3:2,3:2:0:0:
182,291,24681,5,6,0:0:0:0:
395,303,25041,1,0,0:0:0:0:
395,303,25161,2,0,P|406:228|402:168,1,97.7500021177529,2|2,0:0|0:3,0:0:0:0:
498,221,25641,2,0,P|486:151|407:49,1,195.500004235506,2|2,0:0|0:0,0:0:0:0:
511,9,26361,1,2,0:3:0:0:
353,119,26601,6,0,B|307:138|307:138|206:120,1,146.625003176629,2|0,0:0|0:0,0:0:0:0:
211,121,27081,1,2,0:0:0:0:
189,29,27321,1,2,0:3:0:0:
167,200,27561,2,0,L|181:318,1,97.7500021177529,2|2,0:0|0:3,0:0:0:0:
76,316,28041,2,0,L|64:218,1,97.7500021177529,2|2,0:0|0:3,0:0:0:0:
44,189,28401,1,0,0:0:0:0:
23,159,28521,6,0,P|32:89|146:42,1,195.500004235506,2|2,0:0|0:0,0:0:0:0:
255,13,29241,1,2,0:3:0:0:
346,95,29481,1,2,0:0:0:0:
288,202,29721,1,2,0:3:0:0:
171,170,29961,2,0,P|159:223|152:332,1,146.625003176629,2|0,0:0|0:0,0:0:0:0:
157,338,30441,6,0,P|107:306|63:299,1,97.7500021177529,2|2,0:0|0:3,0:0:0:0:
243,252,30921,2,0,P|293:220|337:213,1,97.7500021177529,2|2,0:0|0:3,0:0:0:0:
456,279,31401,2,0,L|451:167,1,97.7500021177529,2|0,0:0|0:0,0:0:0:0:
351,0,31881,2,0,P|385:62|371:133,1,146.625003176629,2|0,0:0|0:0,0:0:0:0:
348,148,32361,5,6,1:2:0:0:
72,81,32721,1,0,0:0:0:0:
163,346,33081,1,0,0:0:0:0:
248,298,33321,2,0,P|320:289|353:292,1,103.499997109651,8|0,0:0|0:0,0:0:0:0:
412,340,34041,1,0,0:0:0:0:
486,263,34281,5,2,0:0:0:0:
392,366,34521,1,2,0:0:0:0:
370,129,35001,1,0,0:0:0:0:
297,194,35241,2,2,L|183:178,1,103.499997109651,8|2,0:0|0:3,0:0:0:0:
131,230,35961,1,2,0:0:0:0:
135,72,36201,5,2,0:0:0:0:
161,364,36681,1,2,0:0:0:0:
262,94,37161,1,8,0:0:0:0:
398,105,37401,1,0,0:0:0:0:
262,94,37641,2,0,L|319:86,1,51.7499985548257
433,109,38121,5,2,0:0:0:0:
231,81,38361,1,2,0:0:0:0:
177,353,38841,1,0,0:0:0:0:
99,306,39081,2,0,L|34:307,1,51.7499985548257,8|2,0:0|0:0,0:0:0:0:
197,334,39561,2,2,P|201:284|192:212,1,103.499997109651,2|6,0:3|0:0,0:0:0:0:
131,176,40281,5,0,0:0:0:0:
217,144,40521,2,0,L|223:57,1,74.7499967719316
296,195,41001,1,8,0:0:0:0:
382,163,41241,2,0,L|388:76,2,74.7499967719316
297,217,41961,5,2,0:0:0:0:
320,338,42201,1,2,0:0:0:0:
441,319,42441,1,0,0:0:0:0:
418,198,42681,1,0,0:0:0:0:
418,198,42801,1,0,0:0:0:0:
418,198,42921,1,8,0:0:0:0:
297,217,43161,1,0,0:0:0:0:
205,295,43401,1,0,0:0:0:0:
84,314,43641,1,2,0:0:0:0:
74,278,43761,1,0,0:0:0:0:
70,240,43881,6,0,P|75:168|72:100,1,112.124995157897,2|0,0:0|0:0,0:0:0:0:
200,47,44361,2,0,P|199:103|204:158,1,112.124995157897,2|0,0:0|0:0,0:0:0:0:
332,250,44841,2,0,P|336:177|333:109,1,112.124995157897,8|0,0:0|0:0,0:0:0:0:
456,172,45321,1,0,0:0:0:0:
507,80,45561,1,0,0:0:0:0:
497,49,45681,1,0,0:0:0:0:
487,18,45801,5,2,0:0:0:0:
351,5,46041,1,2,0:0:0:0:
246,75,46281,2,0,P|237:139|235:227,1,149.499993543863,0|8,0:0|0:0,0:0:0:0:
300,275,47001,1,2,0:0:0:0:
154,365,47241,2,0,L|151:263,1,74.7499967719316
101,210,47721,6,0,L|106:182,6,18.6874991929829
197,192,48201,2,0,L|187:165,6,18.6874991929829
271,128,48681,2,0,L|249:109,6,18.6874991929829
303,35,49161,1,2,0:3:0:0:
322,362,49401,1,0,0:0:0:0:
325,329,49521,1,0,0:0:0:0:
328,296,49641,5,4,0:0:0:0:
403,118,49881,1,0,0:1:0:0:
495,218,50121,2,0,P|492:273|479:338,1,115.000000298023,8|0,0:1|0:1,0:0:0:0:
285,211,50601,5,0,0:0:0:0:
210,33,50841,1,0,0:1:0:0:
118,133,51081,2,0,P|121:188|134:253,1,115.000000298023,8|0,0:1|0:1,0:0:0:0:
341,125,51561,6,0,P|395:105|466:101,1,115.000000298023,0|0,0:0|0:1,0:0:0:0:
512,46,51921,1,0,0:0:0:0:
512,46,52041,1,8,0:1:0:0:
512,46,52281,1,0,0:1:0:0:
420,364,52521,6,0,P|396:297|395:237,1,115.000000298023,0|0,0:0|0:1,0:0:0:0:
204,333,52881,1,0,0:0:0:0:
204,333,53001,2,0,L|317:351,1,115.000000298023,8|0,0:1|0:1,0:0:0:0:
409,233,53361,1,0,0:0:0:0:
409,233,53481,5,0,0:2:0:0:
296,251,53721,1,8,0:3:0:0:
319,69,53961,5,8,0:1:0:0:
206,51,54201,2,0,L|198:148,1,86.2500035136938,8|0,0:3|0:1,0:1:0:0:
100,326,54441,5,0,0:2:0:0:
213,344,54681,1,8,0:3:0:0:
190,162,54921,5,8,0:1:0:0:
303,144,55161,2,0,L|311:241,1,86.2500035136938,8|0,0:3|0:1,0:1:0:0:
355,343,55401,5,0,0:0:0:0:
305,253,55641,1,8,0:3:0:0:
466,249,55881,2,0,B|487:148|487:148|460:97|460:97|484:-8,1,258.750010541081,0|0,0:0|0:0,0:1:0:0:
506,17,56361,6,0,P|414:34|319:26,1,172.500007027388,0|8,0:0|0:3,0:1:0:0:
165,68,56721,2,0,P|160:187|159:248,1,172.500007027388,0|0,0:0|0:0,0:1:0:0:
245,326,57081,1,0,0:1:0:0:
339,306,57201,1,0,0:0:0:0:
437,290,57321,5,4,0:0:0:0:
245,326,57561,1,0,0:1:0:0:
48,289,57801,2,0,P|38:225|41:152,1,115.000000298023,8|0,0:1|0:1,0:0:0:0:
11,32,58281,5,0,0:0:0:0:
207,0,58521,1,0,0:1:0:0:
400,33,58761,2,0,P|410:97|407:170,1,115.000000298023,8|0,0:1|0:1,0:0:0:0:
66,103,59241,6,0,P|120:83|191:79,1,115.000000298023,0|0,0:0|0:1,0:0:0:0:
237,24,59601,1,0,0:0:0:0:
237,24,59721,1,8,0:1:0:0:
237,24,59961,1,0,0:1:0:0:
259,285,60201,6,0,P|246:199|249:103,1,172.500000447034,0|0,0:0|0:0,0:1:0:0:
450,89,60681,2,0,P|463:175|460:271,1,172.500000447034,0|0,0:0|0:0,0:1:0:0:
507,334,61161,5,0,0:2:0:0:
468,335,61281,1,0,0:0:0:0:
430,330,61401,1,8,0:3:0:0:
401,307,61521,1,0,0:0:0:0:
372,284,61641,5,0,0:0:0:0:
315,275,61761,1,0,0:0:0:0:
259,285,61881,1,8,0:3:0:0:
210,313,62001,1,0,0:0:0:0:
172,357,62121,1,0,0:0:0:0:
206,143,62361,1,0,0:0:0:0:
164,182,62481,1,0,0:0:0:0:
112,206,62601,1,0,0:0:0:0:
55,213,62721,1,0,0:0:0:0:
0,201,62841,1,0,0:0:0:0:
20,118,63081,5,0,0:3:0:0:
111,322,63321,1,8,0:2:0:0:
256,112,63561,1,8,0:2:0:0:
401,322,63801,1,8,0:2:0:0:
492,118,64041,1,8,0:2:0:0:
492,118,64521,1,0,0:0:0:0:
256,288,64761,1,0,0:0:0:0:
256,288,64881,1,0,0:0:0:0:
256,288,65001,5,4,0:0:0:0:
430,334,65241,1,0,0:1:0:0:
226,269,65481,2,0,P|218:327|220:393,1,115.000000298023,8|0,0:1|0:1,0:1:0:0:
336,107,65961,5,0,0:0:0:0:
162,153,66201,1,0,0:1:0:0:
366,88,66441,2,0,P|374:146|372:212,1,115.000000298023,8|0,0:1|0:1,0:1:0:0:
123,231,66921,6,0,B|167:241|167:241|194:232|194:232|248:245,1,115.000000298023,0|0,0:0|0:1,0:0:0:0:
207,324,67281,1,0,0:0:0:0:
207,324,67401,1,8,0:1:0:0:
207,324,67641,1,0,0:1:0:0:
162,153,67881,6,0,L|185:35,1,115.000000298023,0|0,0:0|0:1,0:0:0:0:
124,265,68241,1,0,0:0:0:0:
124,265,68361,2,0,P|196:264|257:238,1,115.000000298023,8|0,0:1|0:1,0:0:0:0:
49,171,68721,1,0,0:0:0:0:
49,171,68841,5,0,0:2:0:0:
162,153,69081,1,8,0:3:0:0:
139,335,69321,5,8,0:1:0:0:
252,353,69561,2,0,L|260:256,1,86.2500035136938,8|0,0:3|0:1,0:1:0:0:
358,78,69801,5,0,0:2:0:0:
245,60,70041,1,8,0:3:0:0:
268,242,70281,5,8,0:1:0:0:
155,260,70521,2,0,L|147:163,1,86.2500035136938,8|0,0:3|0:1,0:1:0:0:
88,101,70761,5,0,0:0:0:0:
88,101,71001,1,8,0:3:0:0:
358,78,71241,2,0,B|309:242|392:153|340:335,1,258.750010541081,0|0,0:0|0:0,0:1:0:0:
431,342,71721,6,0,B|378:372|378:372|244:351,1,172.500007027388,0|8,0:0|0:3,0:1:0:0:
209,281,72081,2,0,P|198:168|203:101,1,172.500007027388,0|0,0:0|0:0,0:1:0:0:
68,7,72441,1,0,0:1:0:0:
88,101,72561,1,0,0:0:0:0:
104,199,72681,5,4,0:0:0:0:
196,24,72921,1,0,0:1:0:0:
356,138,73161,2,0,P|365:195|368:261,1,115.000000298023,8|0,0:1|0:1,0:1:0:0:
231,179,73641,5,0,0:0:0:0:
323,4,73881,1,0,0:1:0:0:
483,118,74121,2,0,P|492:175|495:241,1,115.000000298023,8|0,0:1|0:1,0:1:0:0:
398,351,74601,6,0,P|411:265|408:169,1,172.500000447034,0|0,0:0|0:0,0:1:0:0:
149,123,75081,2,0,P|136:209|139:305,1,172.500000447034,0|0,0:0|0:0,0:1:0:0:
263,303,75561,6,0,P|276:217|273:121,1,172.500000447034,0|0,0:0|0:0,0:1:0:0:
14,75,76041,2,0,P|1:161|4:257,1,172.500000447034,0|0,0:0|0:0,0:1:0:0:
52,309,76521,5,0,0:0:0:0:
277,321,76761,1,0,0:0:0:0:
277,321,77001,2,0,L|272:205,1,115.000000298023,8|0,0:3|0:0,0:0:0:0:
361,23,77481,2,0,P|348:108|355:194,2,172.500000447034,0|0|0,0:0|0:0|0:0,0:0:0:0:
446,12,78441,5,0,0:3:0:0:
196,47,78681,1,8,0:2:0:0:
61,161,78921,1,8,0:2:0:0:
209,259,79161,1,8,0:2:0:0:
459,294,79401,5,8,0:2:0:0:
459,294,79881,2,0,L|464:250,6,28.7500000745057,0|0|0|0|0|0|0,0:0|0:0|0:0|0:0|0:0|0:0|0:0,0:0:0:0:
437,317,80361,6,0,L|331:308,1,92.0000002384184,6|2,0:0|0:3,0:0:0:0:
262,232,80841,2,0,P|255:189|262:123,1,92.0000002384184,2|0,0:0|0:0,0:0:0:0:
164,287,81321,2,0,P|171:330|164:396,1,92.0000002384184,2|2,0:0|0:3,0:0:0:0:
0,212,81801,2,0,L|91:219,1,92.0000002384184,2|0,0:0|0:0,0:0:0:0:
91,219,82161,1,0,0:0:0:0:
91,219,82281,5,2,0:0:0:0:
181,125,82521,1,2,0:3:0:0:
90,27,82761,2,0,P|43:35|2:50,1,92.0000002384184,2|0,0:0|0:0,0:0:0:0:
186,219,83241,5,2,0:0:0:0:
96,124,83481,1,2,0:3:0:0:
187,26,83721,2,0,L|273:29,1,61.3333334922789
265,45,83961,2,0,L|351:48,1,61.3333334922789
343,64,84201,5,6,0:3:0:0:
420,142,84441,2,0,L|426:200,2,46.0000001192092,2|0|2,0:3|0:0|0:0,0:0:0:0:
317,171,84921,2,0,L|323:229,2,46.0000001192092,2|0|2,0:3|0:0|0:0,0:0:0:0:
214,200,85401,2,0,L|220:258,2,46.0000001192092,2|0|2,0:3|0:0|0:0,0:0:0:0:
111,229,85881,1,2,0:3:0:0:
111,229,86001,1,0,0:0:0:0:
111,229,86121,6,0,B|133:161|87:108|-11:120|-19:210|14:253|14:253|26:278|26:278|13:306|13:306|18:362|18:362|86:358|86:358|123:369|123:369|211:362,1,552.00000143051,2|2,0:0|0:0,0:0:0:0:
432,347,87801,1,2,0:0:0:0:
