osu file format v14

[General]
AudioFilename: audio.mp3
AudioLeadIn: 0
PreviewTime: 48511
Countdown: 0
SampleSet: Soft
StackLeniency: 0.8
Mode: 0
LetterboxInBreaks: 0
EpilepsyWarning: 1
WidescreenStoryboard: 1

[Editor]
Bookmarks: 16351,31711,48991,64351,79711
DistanceSpacing: 1.2
BeatDivisor: 4
GridSize: 8
TimelineZoom: 1.1

[Metadata]
Title:shadowgraph (TV Size)
TitleUnicode:shadowgraph (TV Size)
Artist:MYTH & ROID
ArtistUnicode:MYTH & ROID
Creator:Involute
Version:Normal
Source:ブギーポップは笑わない
Tags:boogiepop doesn't laugh wa warawanai anime opening op kadokawa english japanese
BeatmapID:2376290
BeatmapSetID:1130427

[Difficulty]
HPDrainRate:4
CircleSize:3.5
OverallDifficulty:4
ApproachRate:5
SliderMultiplier:1.3
SliderTickRate:1

[Events]
//Background and Video events
0,0,"boogiepop.jpg",0,0
//Break Periods
2,4551,7231
//Storyboard Layer 0 (Background)
//Storyboard Layer 1 (Fail)
//Storyboard Layer 2 (Pass)
//Storyboard Layer 3 (Foreground)
//Storyboard Layer 4 (Overlay)
//Storyboard Sound Samples

[TimingPoints]
-929,480,4,2,1,40,1,0
751,-100,4,2,1,40,0,0
15871,-100,4,2,1,60,0,0
48751,-100,4,2,1,90,0,0
48991,-100,4,2,2,90,0,1
63391,-100,4,2,2,90,0,0
64351,-100,4,2,2,90,0,1
79711,-100,4,2,2,90,0,0
79831,-100,4,2,2,40,0,0
83551,-100,4,2,2,40,0,0

[Colours]
Combo1 : 184,134,29
Combo2 : 75,51,162
Combo3 : 184,165,29
Combo4 : 51,98,162

[HitObjects]
6,350,751,5,2,0:0:0:0:
77,318,991,6,0,P|142:298|209:315,1,130,6|2,0:0|0:0,0:0:0:0:
343,373,1951,2,0,B|338:307|338:307|365:246,1,130,2|2,0:0|0:0,0:0:0:0:
410,99,2911,2,0,L|509:87,2,97.5,2|2|2,0:0|0:0|0:0,0:0:0:0:
330,101,3871,2,0,P|354:42|413:20,1,130,2|0,0:0|0:0,0:0:0:0:
223,16,8431,5,2,0:0:0:0:
245,90,8671,6,0,P|247:157|213:218,1,130,2|2,3:2|3:2,0:0:0:0:
70,256,9631,2,0,B|75:190|75:190|111:134,1,130,2|2,3:2|3:2,0:0:0:0:
184,274,10591,2,0,L|196:373,2,97.5,2|2|2,3:2|0:0|0:0,0:0:0:0:
182,195,11551,2,0,P|240:218|263:277,1,130,2|0,3:2|3:2,0:0:0:0:
112,235,12511,6,0,P|94:160|107:105,2,130,2|2|0,3:3|3:3|3:2,0:0:0:0:
242,321,13951,1,2,3:3:0:0:
346,205,14431,2,0,P|292:171|224:164,2,130,2|2|0,3:3|3:3|3:2,0:0:0:0:
393,56,15871,1,2,0:0:0:0:
245,7,16351,6,0,P|199:4|149:21,1,97.5,6|2,0:0|0:0,0:0:0:0:
49,80,17071,2,0,B|42:127|42:127|62:153|62:153|55:202,1,130,2|2,0:0|0:0,0:0:0:0:
35,354,18031,1,2,0:0:0:0:
111,366,18271,2,0,P|161:360|200:336,1,97.5,2|2,3:2|0:0,0:0:0:0:
235,225,18991,2,0,B|207:207|207:207|144:223|144:223|128:251,1,130,2|2,0:0|0:0,0:0:0:0:
277,298,19951,1,2,0:0:0:0:
343,257,20191,6,0,B|319:155|319:155|272:125|272:125|248:22,1,260,2|0,3:2|3:2,0:0:0:0:
405,33,21631,2,0,P|442:76|463:146,1,130,0|0,3:2|3:2,0:0:0:0:
418,294,22591,2,0,P|398:319|369:335,1,65,2|2,3:2|0:0,0:0:0:0:
292,323,23071,2,0,P|271:299|261:267,1,65,2|2,3:2|0:0,0:0:0:0:
290,195,23551,1,2,3:2:0:0:
418,107,24031,6,0,P|439:65|445:12,1,97.5,2|2,3:2|0:0,0:0:0:0:
330,30,24751,2,0,B|286:49|286:49|274:80|274:80|230:100,1,130,2|2,0:0|0:0,0:0:0:0:
98,16,25711,1,2,0:0:0:0:
73,89,25951,2,0,P|75:137|95:181,1,97.5,2|2,3:2|0:0,0:0:0:0:
165,275,26671,2,0,B|182:303|182:303|165:365|165:365|135:381,1,130,2|2,0:0|0:0,0:0:0:0:
6,296,27631,1,2,0:0:0:0:
29,221,27871,6,0,B|56:152|118:133|118:133|146:69|116:7,1,260,2|0,3:2|3:2,0:0:0:0:
217,125,29311,2,0,P|202:181|214:254,1,130,0|0,3:2|3:2,0:0:0:0:
357,193,30271,2,0,P|383:174|402:148,1,65,2|2,3:2|0:0,0:0:0:0:
406,70,30751,1,2,3:2:0:0:
341,26,30991,1,2,0:0:0:0:
271,61,31231,1,2,3:2:0:0:
253,216,31711,6,0,P|275:257|311:289,1,97.5,6|2,3:2|0:0,0:0:0:0:
359,182,32431,2,0,B|373:121|373:121|355:56,1,130,2|2,0:0|0:0,0:0:0:0:
277,45,33151,1,2,0:0:0:0:
199,35,33391,1,2,0:0:0:0:
121,26,33631,2,0,P|73:34|41:69,1,97.5,2|2,3:2|0:0,0:0:0:0:
82,178,34351,2,0,B|77:209|77:209|57:236|57:236|53:269|53:269|34:295|34:295|29:328|29:328|10:355,1,195,2|0,0:0|0:0,0:0:0:0:
163,310,35551,6,0,P|210:307|256:321,1,97.5,2|2,3:2|0:0,0:0:0:0:
367,363,36271,2,0,B|429:367|429:367|490:339,1,130,2|2,0:0|0:0,0:0:0:0:
495,260,36991,1,2,0:0:0:0:
500,182,37231,1,2,0:0:0:0:
505,104,37471,2,0,P|493:57|455:28,1,97.5,2|2,3:2|0:0,0:0:0:0:
340,7,38191,2,0,B|325:35|325:35|327:68|327:68|313:98|313:98|314:131|314:131|300:161|300:161|302:190,1,195,2|0,0:0|3:2,0:0:0:0:
305,348,39391,6,0,P|346:373|394:383,1,97.5,2|2,3:2|0:0,0:0:0:0:
387,266,40111,2,0,B|384:202|384:202|348:144,1,130,2|2,0:0|0:0,0:0:0:0:
278,112,40831,1,2,0:0:0:0:
205,84,41071,1,2,0:0:0:0:
128,67,41311,2,0,P|83:89|54:126,1,97.5,2|2,3:2|0:0,0:0:0:0:
156,179,42031,2,0,B|158:211|158:211|177:239|177:239|180:271|180:271|199:299|199:299|202:331|202:331|219:355,1,195,2|0,0:0|0:0,0:0:0:0:
298,353,42991,1,2,3:2:0:0:
375,355,43231,6,0,P|363:312|324:282,1,65,2|0,3:2|0:0,0:0:0:0:
304,233,43711,2,0,P|285:206|279:175,1,65,2|0,3:2|0:0,0:0:0:0:
305,101,44191,1,10,0:0:0:0:
82,21,44911,1,2,0:0:0:0:
6,24,45151,2,0,P|17:64|56:94,1,65,2|0,3:2|3:2,0:0:0:0:
80,142,45631,2,0,P|100:167|107:198,1,65,2|0,0:0|0:0,0:0:0:0:
109,276,46111,2,0,B|147:276|190:243|185:190|185:190|198:242|254:259|286:243,1,260,10|0,0:0|0:0,0:0:0:0:
361,13,48751,1,2,0:0:0:0:
380,88,48991,6,0,P|395:127|436:153,1,65,6|0,3:2|0:0,0:0:0:0:
468,197,49471,2,0,P|489:220|499:251,1,65,10|0,3:2|0:0,0:0:0:0:
421,259,49951,2,0,B|372:263|372:263|350:289|350:289|304:292,1,130,2|10,3:2|3:2,0:0:0:0:
147,293,50911,2,0,L|156:195,2,97.5,2|2|2,3:2|0:0|0:0,0:0:0:0:
82,335,51871,2,0,P|142:371|198:351,1,130,2|8,3:2|3:2,0:0:0:0:
228,282,52591,1,2,0:0:0:0:
256,209,52831,5,2,3:2:0:0:
232,54,53311,2,0,B|172:74|172:74|127:123,2,130,10|2|8,3:2|3:2|3:2,0:0:0:0:
308,39,54511,1,2,0:0:0:0:
384,22,54751,1,2,3:2:0:0:
510,113,55231,2,0,B|464:162|464:162|405:182,1,130,10|2,3:2|3:2,0:0:0:0:
175,229,56431,1,2,3:2:0:0:
109,271,56671,6,0,P|96:232|112:184,1,65,2|0,3:2|0:0,0:0:0:0:
120,133,57151,2,0,P|122:100|111:70,1,65,10|0,3:2|0:0,0:0:0:0:
64,7,57631,2,0,B|36:25|36:25|24:88|24:88|43:114,1,130,2|10,3:2|3:2,0:0:0:0:
197,138,58591,2,0,L|188:236,2,97.5,2|2|2,3:2|0:0|0:0,0:0:0:0:
262,96,59551,2,0,P|202:60|146:80,1,130,2|8,3:2|3:2,0:0:0:0:
45,194,60511,6,0,L|58:276,1,65,0|2,3:2|0:0,0:0:0:0:
68,335,60991,1,10,3:2:0:0:
220,368,61471,2,0,L|297:363,1,65,2|2,3:2|0:0,0:0:0:0:
347,317,61951,2,0,L|423:332,1,65,10|2,3:2|0:0,0:0:0:0:
504,205,62671,1,8,3:2:0:0:
484,128,62911,1,8,3:2:0:0:
410,110,63151,1,8,3:2:0:0:
355,164,63391,1,8,3:2:0:0:
387,316,63871,1,2,0:0:0:0:
309,303,64111,1,2,0:0:0:0:
234,279,64351,6,0,P|221:249|223:216,1,65,6|0,3:2|0:0,0:0:0:0:
241,140,64831,2,0,P|242:107|230:77,1,65,10|0,3:2|0:0,0:0:0:0:
172,24,65311,2,0,B|124:33|124:33|96:13|96:13|50:22,1,130,2|10,3:2|3:2,0:0:0:0:
123,159,66271,2,0,L|220:175,2,97.5,2|2|2,3:2|0:0|0:0,0:0:0:0:
74,97,67231,2,0,P|42:151|62:211,1,130,2|8,3:2|3:2,0:0:0:0:
113,270,67951,1,2,0:0:0:0:
175,317,68191,5,2,3:2:0:0:
320,261,68671,2,0,B|286:205|286:205|230:170,2,130,10|2|8,3:2|3:2|3:2,0:0:0:0:
390,294,69871,1,2,0:0:0:0:
462,322,70111,1,2,3:2:0:0:
507,172,70591,2,0,B|475:114|475:114|473:48,1,130,10|2,3:2|3:2,0:0:0:0:
239,37,71791,1,2,3:2:0:0:
163,20,72031,6,0,P|164:61|194:100,1,65,2|0,3:2|0:0,0:0:0:0:
217,147,72511,2,0,P|229:176|228:208,1,65,10|0,3:2|0:0,0:0:0:0:
204,283,72991,2,0,B|213:313|213:313|181:368|181:368|148:376,1,130,2|10,3:2|3:2,0:0:0:0:
97,229,73951,2,0,L|131:136,2,97.5,2|2|2,3:2|0:0|0:0,0:0:0:0:
127,300,74911,2,0,P|64:300|23:253,1,130,2|8,3:2|3:2,0:0:0:0:
5,97,75871,6,0,L|75:88,1,65,0|2,3:2|3:2,0:0:0:0:
147,81,76351,1,10,3:2:0:0:
284,7,76831,2,0,L|353:22,1,65,2|0,3:2|3:2,0:0:0:0:
376,93,77311,2,0,L|442:79,1,65,8|2,3:2|3:2,0:0:0:0:
414,233,78031,1,10,3:2:0:0:
401,309,78271,1,10,3:2:0:0:
330,337,78511,1,10,3:2:0:0:
269,288,78751,2,0,P|257:237|278:191,2,97.5,10|2|2,3:2|0:0|0:0,0:0:0:0:
256,192,79711,12,0,82591,3:2:0:0:
399,230,83551,6,0,P|345:302|297:331,2,130,6|2|0,3:3|3:3|3:2,0:0:0:0:
346,84,84991,1,2,3:3:0:0:
207,12,85471,2,0,B|78:36|78:36|181:113|181:113|54:148|54:148|104:191|104:191|42:214,1,520,0|0,3:2|0:0,0:0:0:0:
