osu file format v14

[General]
AudioFilename: audio.mp3
AudioLeadIn: 0
PreviewTime: 48511
Countdown: 0
SampleSet: Soft
StackLeniency: 0.8
Mode: 0
LetterboxInBreaks: 0
EpilepsyWarning: 1
WidescreenStoryboard: 1

[Editor]
Bookmarks: 16351,31711,48991,64351,79711
DistanceSpacing: 1
BeatDivisor: 4
GridSize: 8
TimelineZoom: 1.899999

[Metadata]
Title:shadowgraph (TV Size)
TitleUnicode:shadowgraph (TV Size)
Artist:MYTH & ROID
ArtistUnicode:MYTH & ROID
Creator:Involute
Version:Myth
Source:ブギーポップは笑わない
Tags:boogiepop doesn't laugh wa warawanai anime opening op kadokawa english japanese
BeatmapID:2361348
BeatmapSetID:1130427

[Difficulty]
HPDrainRate:6
CircleSize:4.7
OverallDifficulty:8
ApproachRate:9
SliderMultiplier:2.4
SliderTickRate:1

[Events]
//Background and Video events
0,0,"boogiepop.jpg",0,0
//Break Periods
//Storyboard Layer 0 (Background)
//Storyboard Layer 1 (Fail)
//Storyboard Layer 2 (Pass)
//Storyboard Layer 3 (Foreground)
//Storyboard Layer 4 (Overlay)
//Storyboard Sound Samples

[TimingPoints]
-929,480,4,2,1,40,1,0
751,-166.666666666667,4,2,1,40,0,0
5551,-250,4,2,1,40,0,0
5791,-166.666666666667,4,2,1,40,0,0
7471,-250,4,2,1,40,0,0
7711,-166.666666666667,4,2,1,40,0,0
8671,-142.857142857143,4,2,1,40,0,0
13231,-212.765957446809,4,2,1,40,0,0
13471,-142.857142857143,4,2,1,40,0,0
15871,-100,4,2,1,60,0,0
16351,-117.647058823529,4,2,1,60,0,0
17071,-100,4,2,1,60,0,0
17551,-117.647058823529,4,2,1,60,0,0
18991,-100,4,2,1,60,0,0
19471,-117.647058823529,4,2,1,60,0,0
24751,-100,4,2,1,60,0,0
25231,-117.647058823529,4,2,1,60,0,0
26671,-100,4,2,1,60,0,0
27151,-117.647058823529,4,2,1,60,0,0
31711,-142.857142857143,4,2,1,60,0,0
32431,-117.647058823529,4,2,1,60,0,0
32911,-142.857142857143,4,2,1,60,0,0
34351,-200,4,2,1,60,0,0
35311,-142.857142857143,4,2,1,60,0,0
35551,-142.857142857143,4,2,1,60,0,0
36271,-117.647058823529,4,2,1,60,0,0
36751,-142.857142857143,4,2,1,60,0,0
38191,-200,4,2,1,60,0,0
38911,-142.857142857143,4,2,1,60,0,0
40111,-117.647058823529,4,2,1,60,0,0
40591,-142.857142857143,4,2,1,60,0,0
45631,-125,4,2,1,60,0,0
46111,-111.111111111111,4,2,1,60,0,0
46591,-100,4,2,1,60,0,0
48751,-100,4,2,1,90,0,0
48991,-100,4,2,2,90,0,1
49951,-66.6666666666667,4,2,2,90,0,1
50431,-100,4,2,2,90,0,1
52831,-100,4,2,2,90,0,1
53791,-76.9230769230769,4,2,2,90,0,1
54271,-100,4,2,2,90,0,1
55711,-66.6666666666667,4,2,2,90,0,1
56071,-80,4,2,2,90,0,1
56431,-100,4,2,2,90,0,1
56671,-100,4,2,2,90,0,1
57631,-66.6666666666667,4,2,2,90,0,1
58111,-100,4,2,2,90,0,1
60511,-100,4,2,2,90,0,1
63391,-100,4,2,2,90,0,0
64351,-100,4,2,2,90,0,1
65311,-66.6666666666667,4,2,2,90,0,1
65791,-100,4,2,2,90,0,1
68191,-100,4,2,2,90,0,1
69151,-76.9230769230769,4,2,2,90,0,1
69631,-100,4,2,2,90,0,1
71071,-66.6666666666667,4,2,2,90,0,1
71431,-80,4,2,2,90,0,1
71791,-100,4,2,2,90,0,1
72031,-100,4,2,2,90,0,1
72991,-66.6666666666667,4,2,2,90,0,1
73471,-100,4,2,2,90,0,1
75871,-100,4,2,2,90,0,1
76831,-76.9230769230769,4,2,2,90,0,1
77191,-100,4,2,2,90,0,1
79111,-80,4,2,2,90,0,1
79711,-100,4,2,2,90,0,0
79831,-142.857142857143,4,2,2,40,0,0
84271,-212.765957446809,4,2,2,40,0,0
84511,-142.857142857143,4,2,2,40,0,0
85471,-100,4,2,2,40,0,0

[Colours]
Combo1 : 184,134,29
Combo2 : 75,51,162
Combo3 : 184,165,29
Combo4 : 51,98,162

[HitObjects]
104,90,751,5,2,0:0:0:0:
117,101,871,1,2,0:0:0:0:
131,110,991,6,0,P|178:98|228:112,1,71.9999978027344,6|0,0:0|0:0,0:0:0:0:
282,128,1471,2,0,P|276:175|295:218,1,71.9999978027344,2|0,0:0|0:0,0:0:0:0:
349,267,1951,2,0,B|281:291|281:291|213:267,1,143.999995605469,2|2,0:0|0:0,0:0:0:0:
64,160,2911,6,0,L|79:266,2,107.999996704102,2|2|2,0:0|0:0|0:0,0:0:0:0:
1,254,3871,2,0,P|23:320|89:343,1,143.999995605469,2|0,0:0|0:0,0:0:0:0:
232,260,4831,6,0,P|222:287|223:316,1,47.9999985351563,2|2,0:3|0:3,0:0:0:0:
257,364,5071,2,0,P|284:373|313:372,1,47.9999985351563,2|2,0:3|0:3,0:0:0:0:
362,338,5311,2,0,P|371:310|370:281,1,47.9999985351563,2|2,0:3|0:3,0:0:0:0:
334,232,5551,2,0,P|306:222|272:226,1,47.9999985351563,2|0,0:3|0:0,0:0:0:0:
188,277,5951,1,2,0:3:0:0:
188,277,6031,2,0,P|164:275|141:266,1,47.9999985351563,2|2,0:3|0:3,0:0:0:0:
105,207,6271,2,0,P|106:183|115:160,1,47.9999985351563,2|2,0:3|0:3,0:0:0:0:
174,125,6511,2,0,P|197:126|220:135,1,47.9999985351563,2|0,0:3|0:0,0:0:0:0:
283,156,6751,6,0,P|310:165|339:164,1,47.9999985351563,2|2,0:3|0:3,0:0:0:0:
388,130,6991,2,0,P|397:102|396:73,1,47.9999985351563,2|2,0:3|0:3,0:0:0:0:
362,25,7231,2,0,P|334:15|305:16,1,47.9999985351563,2|2,0:3|0:3,0:0:0:0:
257,53,7471,2,0,P|247:80|251:114,1,47.9999985351563,2|0,0:3|0:0,0:0:0:0:
317,195,7871,1,2,0:3:0:0:
317,195,7951,2,0,P|315:218|306:241,1,47.9999985351563,2|2,0:3|0:3,0:0:0:0:
247,279,8191,1,2,0:3:0:0:
77,279,8431,5,2,0:0:0:0:
59,275,8551,1,2,0:0:0:0:
39,270,8671,6,0,P|20:233|21:191,1,83.9999974365235,2|0,3:2|0:0,0:0:0:0:
115,122,9151,2,0,P|134:158|133:200,1,83.9999974365235,2|0,3:2|0:0,0:0:0:0:
34,51,9631,2,0,B|112:25|112:25|192:54,1,167.999994873047,2|2,3:2|3:2,0:0:0:0:
305,242,10591,6,0,L|180:260,2,125.999996154785,2|2|2,3:2|0:0|0:0,0:0:0:0:
132,200,11551,2,0,P|106:276|160:334,1,167.999994873047,2|0,3:2|3:2,0:0:0:0:
348,125,12511,6,0,P|353:99|369:73,1,55.9999982910157,2|2,3:3|0:3,0:0:0:0:
428,47,12751,2,0,P|454:52|480:68,1,55.9999982910157,2|2,0:3|0:3,0:0:0:0:
505,127,12991,2,0,P|500:153|483:179,1,55.9999982910157,2|2,3:3|0:3,0:0:0:0:
424,205,13231,2,0,P|398:200|365:182,1,56.3999991394043,2|0,0:3|3:2,0:0:0:0:
293,79,13631,1,2,0:3:0:0:
293,79,13711,2,0,P|269:63|242:58,1,55.9999982910157,2|2,0:3|0:3,0:0:0:0:
182,84,13951,2,0,P|167:107|161:135,1,55.9999982910157,2|2,3:3|0:3,0:0:0:0:
189,195,14191,2,0,P|212:209|240:215,1,55.9999982910157,2|0,0:3|0:0,0:0:0:0:
307,222,14431,6,0,P|335:228|359:243,1,55.9999982910157,2|2,3:3|0:3,0:0:0:0:
386,302,14671,2,0,P|380:330|366:354,1,55.9999982910157,2|2,0:3|0:3,0:0:0:0:
305,379,14911,2,0,P|275:372|254:359,1,55.9999982910157,2|2,3:3|0:3,0:0:0:0:
213,306,15151,2,0,B|89:294|145:379|22:369,1,209.999993591309,2|0,0:3|0:0,0:0:0:0:
12,296,15871,6,0,B|18:237|18:237|58:194|58:194|67:131,1,180,2|0,0:0|0:0,0:0:0:0:
29,78,16351,6,0,P|79:66|125:98,1,102.000001945496,6|0,0:0|0:0,0:0:0:0:
105,189,16711,2,0,P|54:200|8:168,1,102.000001945496,2|0,0:0|0:0,0:0:0:0:
120,90,17071,2,0,B|177:99|177:99|219:138|219:138|281:149,1,180,2|0,0:0|0:0,0:0:0:0:
296,59,17551,2,0,P|270:101|283:150,1,102.000001945496,2|0,0:0|3:2,0:0:0:0:
354,308,18031,2,0,L|343:362,1,51.0000009727478,2|0,0:0|0:0,0:0:0:0:
276,314,18271,6,0,P|267:263|217:234,1,102.000001945496,2|0,3:2|0:0,0:0:0:0:
146,288,18631,2,0,P|158:338|207:365,1,102.000001945496,2|0,0:0|0:0,0:0:0:0:
227,236,18991,2,0,B|195:189|195:189|128:177|128:177|82:210,1,180,2|0,0:0|0:0,0:0:0:0:
25,282,19471,2,0,P|67:257|83:209,1,102.000001945496,2|0,0:0|3:2,0:0:0:0:
114,42,19951,2,0,L|103:103,1,51.0000009727478,2|0,0:0|0:0,0:0:0:0:
83,208,20191,6,0,L|92:146,1,51.0000009727478,2|0,3:2|0:0,0:0:0:0:
104,92,20431,1,0,0:0:0:0:
207,110,20671,1,0,3:2:0:0:
188,230,20911,1,0,0:0:0:0:
48,208,21151,1,0,3:2:0:0:
75,46,21391,1,0,0:0:0:0:
269,85,21631,2,0,P|266:139|206:174,1,102.000001945496,0|0,3:2|0:0,0:0:0:0:
136,136,22031,1,0,0:0:0:0:
136,136,22111,5,0,3:2:0:0:
248,13,22351,1,2,0:0:0:0:
314,23,22471,1,2,0:0:0:0:
379,36,22591,2,0,P|392:84|377:132,1,102.000001945496,2|2,3:2|0:0,0:0:0:0:
437,284,23071,2,0,P|423:235|438:187,1,102.000001945496,2|2,3:2|0:0,0:0:0:0:
352,374,23551,1,2,3:2:0:0:
281,363,23711,1,0,0:0:0:0:
281,363,23791,1,0,0:0:0:0:
208,342,23951,1,0,0:0:0:0:
208,342,24031,6,0,P|217:291|190:249,1,102.000001945496,2|0,3:2|0:0,0:0:0:0:
93,268,24391,2,0,P|83:315|110:357,1,102.000001945496,2|0,0:0|0:0,0:0:0:0:
191,250,24751,2,0,B|178:191|178:191|201:138|201:138|190:75,1,180,2|0,0:0|0:0,0:0:0:0:
99,97,25231,2,0,P|146:105|188:78,1,102.000001945496,2|0,0:0|3:2,0:0:0:0:
386,16,25711,2,0,L|435:7,1,51.0000009727478,2|0,0:0|0:0,0:0:0:0:
419,82,25951,6,0,P|374:108|364:163,1,102.000001945496,2|0,3:2|0:0,0:0:0:0:
438,213,26311,2,0,P|481:184|490:129,1,102.000001945496,2|0,0:0|0:0,0:0:0:0:
362,153,26671,2,0,B|329:198|329:198|340:264|340:264|387:297,1,180,2|0,0:0|0:0,0:0:0:0:
474,329,27151,2,0,P|435:295|385:298,1,102.000001945496,2|0,0:0|3:2,0:0:0:0:
191,331,27631,1,2,0:0:0:0:
256,320,27751,1,2,0:0:0:0:
321,308,27871,6,0,L|309:244,1,51.0000009727478,2|0,3:2|0:0,0:0:0:0:
297,176,28111,1,0,0:0:0:0:
436,146,28351,1,0,3:2:0:0:
464,265,28591,1,0,0:0:0:0:
323,292,28831,1,0,3:2:0:0:
292,131,29071,1,0,0:0:0:0:
478,95,29311,2,0,P|502:147|482:192,1,102.000001945496,0|0,3:2|0:0,0:0:0:0:
389,195,29711,1,0,0:0:0:0:
389,195,29791,5,0,3:2:0:0:
238,79,30031,2,0,L|251:128,1,51.0000009727478,2|0,0:0|0:0,0:0:0:0:
179,119,30271,2,0,L|166:168,1,51.0000009727478,2|0,3:2|0:0,0:0:0:0:
229,191,30511,2,0,L|242:240,1,51.0000009727478,2|0,0:0|0:0,0:0:0:0:
121,230,30751,2,0,L|180:237,1,51.0000009727478,2|0,3:2|0:0,0:0:0:0:
204,294,30991,2,0,L|217:343,1,51.0000009727478,2|0,0:0|0:0,0:0:0:0:
148,366,31231,2,0,P|135:315|80:292,1,102.000001945496,2|0,3:2|0:0,0:0:0:0:
3,311,31711,6,0,P|23:232|60:204,1,125.999996154785,6|2,3:2|0:0,0:0:0:0:
22,25,32431,2,0,B|57:79|57:79|128:89|128:89|166:150,1,204.000003890991,2|2,0:0|0:0,0:0:0:0:
247,137,33151,1,2,0:0:0:0:
330,128,33391,1,2,0:0:0:0:
429,41,33631,6,0,L|408:128,1,83.9999974365235,2|0,3:2|3:2,0:0:0:0:
438,67,33991,2,0,L|417:154,1,83.9999974365235,2|0,0:0|0:0,0:0:0:0:
443,86,34351,2,0,B|435:121|435:121|459:147|459:147|452:182|452:182|476:209|476:209|468:244|468:244|480:258,1,180,2|0,0:0|0:0,0:0:0:0:
418,312,35311,1,0,3:2:0:0:
340,344,35551,6,0,P|342:281|387:234,1,125.999996154785,2|2,3:2|0:0,0:0:0:0:
509,103,36271,2,0,B|449:134|449:134|382:108|382:108|325:137,1,204.000003890991,2|2,0:0|0:0,0:0:0:0:
240,133,36991,1,2,0:0:0:0:
156,129,37231,1,2,0:0:0:0:
64,37,37471,6,0,L|81:126,1,83.9999974365235,2|0,3:2|3:2,0:0:0:0:
57,60,37831,2,0,L|74:149,1,83.9999974365235,2|0,0:0|0:0,0:0:0:0:
48,93,38191,2,0,B|55:126|55:126|30:153|30:153|36:188|36:188|13:214|13:214|19:249|19:249,1,150,2|0,0:0|0:0,0:0:0:0:
2,289,38911,2,0,B|66:295|58:247|122:253,1,125.999996154785,0|0,3:2|0:0,0:0:0:0:
185,222,39391,6,0,P|189:261|254:324,1,125.999996154785,2|2,3:2|0:0,0:0:0:0:
314,326,39871,1,0,0:0:0:0:
442,284,40111,2,0,B|457:329|457:329|439:380,2,102.000001945496,2|8|2,0:0|0:0|0:0,0:0:0:0:
360,292,40831,1,2,0:0:0:0:
404,218,41071,1,2,0:0:0:0:
468,67,41311,6,0,L|456:156,1,83.9999974365235,2|0,3:2|3:2,0:0:0:0:
476,90,41671,2,0,L|464:179,1,83.9999974365235,2|0,0:0|0:0,0:0:0:0:
482,117,42031,2,0,B|476:162|476:162|495:197,2,83.9999974365235,2|8|0,0:0|0:0|0:0,0:0:0:0:
499,26,42751,1,0,0:0:0:0:
365,9,42991,1,2,3:2:0:0:
299,21,43111,1,2,0:0:0:0:
233,35,43231,6,0,B|228:52|224:77|224:77|237:99|248:114,1,83.9999974365235,2|0,3:2|0:0,0:0:0:0:
397,164,43711,2,0,B|400:146|404:121|404:121|391:98|381:84,1,83.9999974365235,2|0,3:2|0:0,0:0:0:0:
270,200,44191,2,0,B|265:216|261:241|261:241|273:263|283:278,1,83.9999974365235,10|0,0:0|0:0,0:0:0:0:
436,322,44671,1,0,0:0:0:0:
397,164,44911,1,2,0:0:0:0:
331,152,45031,1,2,0:0:0:0:
265,140,45151,6,0,B|249:137|228:117|228:117|201:128|186:126,1,83.9999974365235,2|0,3:2|3:2,0:0:0:0:
96,295,45631,2,0,B|120:300|139:317|139:317|163:308|187:313,1,96,2|0,0:0|0:0,0:0:0:0:
138,66,46111,2,0,B|132:93|112:114|112:114|123:140|119:166,1,107.999996704102,10|0,0:0|3:2,0:0:0:0:
375,268,46591,2,0,B|382:239|409:221|409:221|391:192|396:161,1,120,0|0,3:2|0:0,0:0:0:0:
256,192,47071,12,0,48511,0:0:0:0:
228,152,48751,5,2,0:0:0:0:
240,216,48871,1,2,0:0:0:0:
256,280,48991,6,0,P|326:282|384:257,1,120,6|0,3:2|0:0,0:0:0:0:
269,49,49471,2,0,P|199:47|141:72,1,120,10|0,3:2|0:0,0:0:0:0:
117,360,49951,2,0,B|96:227|96:227|59:201|59:201|37:74,1,300.000011444092,2|0,3:2|0:0,0:0:0:0:
38,82,50431,2,0,P|107:83|165:58,1,120,10|0,3:2|0:0,0:0:0:0:
332,13,50911,6,0,L|355:135,1,120,2|0,3:2|0:0,0:0:0:0:
395,181,51271,2,0,L|369:62,1,120,2|0,0:0|0:0,0:0:0:0:
412,3,51631,1,2,0:0:0:0:
460,220,51871,2,0,P|414:255|355:246,1,120,2|0,3:2|0:0,0:0:0:0:
310,176,52271,1,0,0:0:0:0:
310,176,52351,1,8,3:2:0:0:
378,9,52591,1,2,0:0:0:0:
442,21,52711,1,2,0:0:0:0:
506,35,52831,6,0,P|509:93|491:150,1,120,2|0,3:2|0:0,0:0:0:0:
508,342,53311,2,0,P|448:345|391:327,1,120,10|0,3:2|0:0,0:0:0:0:
204,342,53791,2,0,B|189:264|189:264|231:196,1,155.999992858887,2|0,3:2|0:0,0:0:0:0:
302,293,54191,1,0,0:0:0:0:
302,293,54271,1,8,3:2:0:0:
131,381,54511,1,2,0:0:0:0:
115,316,54631,1,2,0:0:0:0:
98,252,54751,6,0,P|94:193|112:136,1,120,2|0,3:2|0:0,0:0:0:0:
307,141,55231,2,0,P|248:144|191:126,1,120,10|0,3:2|0:0,0:0:0:0:
8,13,55711,6,0,P|3:72|23:189,1,180.000006866455,2|0,3:2|0:0,0:0:0:0:
40,223,56071,2,0,P|45:147|65:76,1,150,0|0,3:2|0:0,0:0:0:0:
78,49,56431,1,2,3:2:0:0:
140,27,56551,1,2,0:0:0:0:
202,8,56671,6,0,P|181:63|182:123,1,120,2|0,3:2|0:0,0:0:0:0:
412,165,57151,2,0,P|356:144|296:145,1,120,10|0,3:2|0:0,0:0:0:0:
138,375,57631,2,0,B|200:333|200:333|227:191|227:191|183:124,1,300.000011444092,2|0,3:2|0:0,0:0:0:0:
182,123,58111,2,0,P|237:145|297:145,1,120,10|0,3:2|0:0,0:0:0:0:
439,26,58591,6,0,L|415:147,1,120,2|0,3:2|0:0,0:0:0:0:
377,195,58951,2,0,L|398:74,1,120,2|0,0:0|0:0,0:0:0:0:
356,15,59311,1,2,0:0:0:0:
314,235,59551,2,0,P|358:268|417:259,1,120,2|0,3:2|0:0,0:0:0:0:
461,38,60031,2,0,P|413:4|356:15,1,120,8|0,3:2|0:0,0:0:0:0:
377,195,60511,5,0,3:2:0:0:
362,150,60631,1,0,0:0:0:0:
330,118,60751,1,2,0:0:0:0:
292,102,60871,1,0,0:0:0:0:
254,102,60991,1,10,3:2:0:0:
222,117,61111,1,0,0:0:0:0:
201,143,61231,1,2,0:0:0:0:
194,173,61351,1,0,0:0:0:0:
198,198,61471,1,2,3:2:0:0:
214,217,61591,1,0,0:0:0:0:
233,225,61711,1,2,0:0:0:0:
250,223,61831,1,0,0:0:0:0:
262,214,61951,1,10,3:2:0:0:
267,204,62071,1,0,0:0:0:0:
264,195,62191,1,2,0:0:0:0:
259,191,62311,1,0,0:0:0:0:
256,192,62431,5,2,0:0:0:0:
34,376,62671,1,8,3:2:0:0:
132,68,62911,1,8,3:2:0:0:
331,367,63151,1,8,3:2:0:0:
29,192,63391,1,8,3:2:0:0:
29,192,63871,2,0,P|15:215|13:248,1,60,2|0,0:0|0:0,0:0:0:0:
79,236,64111,1,2,0:0:0:0:
145,226,64231,1,2,0:0:0:0:
211,213,64351,6,0,P|185:147|188:84,1,120,6|0,3:2|0:0,0:0:0:0:
419,114,64831,2,0,P|444:179|441:242,1,120,10|0,3:2|0:0,0:0:0:0:
181,369,65311,2,0,B|308:340|308:340|345:366|345:366|471:343,1,300.000011444092,2|0,3:2|0:0,0:0:0:0:
468,344,65791,2,0,P|443:279|447:216,1,120,10|0,3:2|0:0,0:0:0:0:
495,59,66271,6,0,L|373:82,1,120,2|0,3:2|0:0,0:0:0:0:
327,122,66631,2,0,L|446:96,1,120,2|0,0:0|0:0,0:0:0:0:
505,139,66991,1,2,0:0:0:0:
288,187,67231,2,0,P|253:141|262:82,1,120,2|0,3:2|0:0,0:0:0:0:
332,37,67631,1,0,0:0:0:0:
332,37,67711,1,8,3:2:0:0:
505,7,67951,1,2,0:0:0:0:
493,71,68071,1,2,0:0:0:0:
479,136,68191,6,0,P|422:117|362:120,1,120,2|0,3:2|0:0,0:0:0:0:
190,32,68671,2,0,P|172:88|175:148,1,120,10|0,3:2|0:0,0:0:0:0:
89,316,69151,2,0,B|154:356|154:356|232:341,1,155.999992858887,2|0,3:2|0:0,0:0:0:0:
177,246,69551,1,0,0:0:0:0:
177,246,69631,1,8,3:2:0:0:
44,125,69871,1,2,0:0:0:0:
109,137,69991,1,2,0:0:0:0:
175,148,70111,6,0,P|234:144|291:162,1,120,2|0,3:2|0:0,0:0:0:0:
304,344,70591,2,0,P|300:284|318:227,1,120,10|0,3:2|0:0,0:0:0:0:
496,136,71071,6,0,P|501:195|481:312,1,180.000006866455,2|0,3:2|0:0,0:0:0:0:
464,346,71431,2,0,P|459:270|439:199,1,150,0|0,3:2|0:0,0:0:0:0:
426,172,71791,1,2,3:2:0:0:
411,236,71911,1,2,0:0:0:0:
389,299,72031,6,0,P|334:319|274:319,1,120,2|0,3:2|0:0,0:0:0:0:
232,89,72511,2,0,P|253:145|252:204,1,120,10|0,3:2|0:0,0:0:0:0:
27,369,72991,2,0,B|65:303|65:303|207:276|207:276|274:320,1,300.000011444092,2|0,3:2|0:0,0:0:0:0:
274,320,73471,2,0,P|252:265|252:205,1,120,10|0,3:2|0:0,0:0:0:0:
392,72,73951,6,0,L|271:96,1,120,2|0,3:2|0:0,0:0:0:0:
223,134,74311,2,0,L|344:113,1,120,2|0,0:0|0:0,0:0:0:0:
403,155,74671,1,2,0:0:0:0:
183,197,74911,2,0,P|150:153|159:94,1,120,2|0,3:2|0:0,0:0:0:0:
380,50,75391,2,0,P|414:98|403:155,1,120,8|0,3:2|0:0,0:0:0:0:
182,197,75871,5,0,3:2:0:0:
274,28,76111,1,2,3:2:0:0:
310,216,76351,1,10,3:2:0:0:
172,82,76591,1,2,3:2:0:0:
461,128,76831,2,0,B|492:161|492:161|481:226|481:226|436:247,1,155.999992858887,2|0,3:2|3:2,0:0:0:0:
374,226,77191,2,0,P|358:164|394:121,1,120,2|0,0:0|0:0,0:0:0:0:
423,182,77551,1,2,3:2:0:0:
390,296,77791,5,2,0:0:0:0:
235,51,78031,1,10,3:2:0:0:
502,233,78271,1,10,3:2:0:0:
143,201,78511,1,10,3:2:0:0:
474,60,78751,2,0,L|450:181,1,120,10|0,3:2|0:0,0:0:0:0:
409,240,79111,2,0,B|423:166|423:166|406:92,1,150,2|0,0:0|0:0,0:0:0:0:
384,23,79471,1,2,0:0:0:0:
256,192,79711,1,6,3:3:0:0:
256,192,79831,12,2,83071,3:3:0:0:
327,229,83551,6,0,P|336:204|334:174,1,55.9999982910157,6|2,3:3|0:3,0:0:0:0:
296,121,83791,2,0,P|271:112|241:114,1,55.9999982910157,2|2,0:3|0:3,0:0:0:0:
190,152,84031,2,0,P|182:178|183:208,1,55.9999982910157,2|2,3:3|0:3,0:0:0:0:
221,260,84271,2,0,P|246:269|282:270,1,56.3999991394043,2|0,0:3|3:2,0:0:0:0:
364,205,84671,1,2,0:3:0:0:
364,205,84751,2,0,P|391:204|418:212,1,55.9999982910157,2|2,0:3|0:3,0:0:0:0:
457,266,84991,2,0,P|459:295|440:340,1,55.9999982910157,2|2,3:3|0:3,0:0:0:0:
396,358,85231,1,2,0:3:0:0:
198,339,85471,6,0,B|189:282|189:282|133:243|133:243|123:188,1,180,0|0,3:2|0:0,0:0:0:0:
57,159,85951,2,0,B|83:125|83:125|177:108|177:108|214:130,1,180,0|0,3:2|0:0,0:0:0:0:
282,107,86431,2,0,B|337:176|337:176|310:260,1,180,0|0,3:2|0:0,0:0:0:0:
255,191,86911,1,0,3:2:0:0:
284,365,87151,1,0,3:2:0:0:
