osu file format v14

[General]
AudioFilename: audio.mp3
AudioLeadIn: 0
PreviewTime: 48511
Countdown: 0
SampleSet: Soft
StackLeniency: 0.8
Mode: 0
LetterboxInBreaks: 0
EpilepsyWarning: 1
WidescreenStoryboard: 1

[Editor]
Bookmarks: 16351,31711,48991,64351,79711
DistanceSpacing: 1.2
BeatDivisor: 4
GridSize: 8
TimelineZoom: 1.699999

[Metadata]
Title:shadowgraph (TV Size)
TitleUnicode:shadowgraph (TV Size)
Artist:MYTH & ROID
ArtistUnicode:MYTH & ROID
Creator:Involute
Version:Hard
Source:ブギーポップは笑わない
Tags:boogiepop doesn't laugh wa warawanai anime opening op kadokawa english japanese
BeatmapID:2371631
BeatmapSetID:1130427

[Difficulty]
HPDrainRate:5
CircleSize:4.2
OverallDifficulty:7
ApproachRate:8
SliderMultiplier:1.8
SliderTickRate:1

[Events]
//Background and Video events
0,0,"boogiepop.jpg",0,0
//Break Periods
//Storyboard Layer 0 (Background)
//Storyboard Layer 1 (Fail)
//Storyboard Layer 2 (Pass)
//Storyboard Layer 3 (Foreground)
//Storyboard Layer 4 (Overlay)
//Storyboard Sound Samples

[TimingPoints]
-929,480,4,2,1,40,1,0
751,-142.857142857143,4,2,1,40,0,0
8671,-125,4,2,1,40,0,0
15871,-125,4,2,1,60,0,0
16351,-111.111111111111,4,2,1,60,0,0
31711,-125,4,2,1,60,0,0
45151,-111.111111111111,4,2,1,60,0,0
48751,-100,4,2,1,90,0,0
48991,-100,4,2,2,90,0,1
63391,-100,4,2,2,90,0,0
64351,-100,4,2,2,90,0,1
79711,-100,4,2,2,90,0,0
79831,-100,4,2,2,40,0,0
79951,-125,4,2,2,40,0,0
85471,-125,4,2,2,40,0,0

[Colours]
Combo1 : 184,134,29
Combo2 : 75,51,162
Combo3 : 184,165,29
Combo4 : 51,98,162

[HitObjects]
505,175,751,5,2,0:0:0:0:
505,175,871,1,2,0:0:0:0:
505,175,991,6,0,P|462:188|437:187,1,62.9999980773926,6|0,0:0|0:0,0:0:0:0:
346,176,1471,2,0,P|348:207|359:236,1,62.9999980773926,2|0,0:0|0:0,0:0:0:0:
402,342,1951,2,0,B|348:373|348:373|278:363,1,125.999996154785,2|2,0:0|0:0,0:0:0:0:
252,195,2911,6,0,L|269:287,2,94.499997116089,2|2|2,0:0|0:0|0:0,0:0:0:0:
191,302,3871,2,0,P|224:353|285:364,1,125.999996154785,2|0,0:0|0:0,0:0:0:0:
401,231,4831,6,0,L|412:294,2,62.9999980773926,2|2|2,0:3|0:3|0:3,0:0:0:0:
387,143,5551,1,2,0:3:0:0:
271,9,6031,2,0,L|280:72,1,62.9999980773926,2|2,0:3|0:3,0:0:0:0:
296,155,6511,1,2,0:3:0:0:
281,242,6751,6,0,L|346:254,2,62.9999980773926,2|2|2,0:3|0:3|0:3,0:0:0:0:
197,213,7471,1,2,0:3:0:0:
25,255,7951,2,0,L|90:266,1,62.9999980773926,2|2,0:3|0:3,0:0:0:0:
24,187,8431,1,2,0:0:0:0:
24,187,8551,1,2,0:0:0:0:
24,187,8671,6,0,P|23:151|36:117,1,72,2|0,3:2|0:0,0:0:0:0:
148,101,9151,2,0,P|148:136|135:170,1,72,2|0,3:2|0:0,0:0:0:0:
95,15,9631,2,0,B|165:2|165:2|229:37,1,144,2|2,3:2|3:2,0:0:0:0:
258,273,10591,6,0,L|276:163,2,108,2|2|2,3:2|0:0|0:0,0:0:0:0:
350,199,11551,2,0,P|349:129|294:86,1,144,2|0,3:2|3:2,0:0:0:0:
181,270,12511,6,0,L|168:340,2,72,2|2|2,3:3|0:3|3:3,0:0:0:0:
204,164,13231,2,0,P|256:159|286:141,1,72,2|0,0:3|3:2,0:0:0:0:
364,92,13711,2,0,L|351:162,1,72,2|2,0:3|3:3,0:0:0:0:
326,268,14191,1,2,0:3:0:0:
433,262,14431,6,0,L|419:185,2,72,2|2|2,3:3|0:3|3:3,0:0:0:0:
450,368,15151,2,0,P|397:363|327:278,1,144,2|2,0:3|0:3,0:0:0:0:
350,162,15871,6,0,B|310:165|310:165|292:142|292:142|252:146,1,108,2|0,0:0|0:0,0:0:0:0:
170,139,16351,6,0,P|188:179|177:226,1,80.9999975280763,6|0,0:0|0:0,0:0:0:0:
117,189,16711,2,0,P|97:148|107:100,1,80.9999975280763,2|0,0:0|0:0,0:0:0:0:
183,214,17071,2,0,B|195:283|195:283|184:307|184:307|197:379,1,161.999995056153,2|2,0:0|0:0,0:0:0:0:
453,343,18031,2,0,L|443:291,1,40.4999987640381,2|0,0:0|0:0,0:0:0:0:
434,232,18271,6,0,P|437:187|411:146,1,80.9999975280763,2|0,3:2|0:0,0:0:0:0:
367,202,18631,2,0,P|362:246|388:288,1,80.9999975280763,2|0,0:0|0:0,0:0:0:0:
421,155,18991,2,0,B|389:125|389:125|316:138|316:138|295:186,1,161.999995056153,2|2,0:0|0:0,0:0:0:0:
65,328,19951,2,0,L|56:280,1,40.4999987640381,2|0,0:0|0:0,0:0:0:0:
126,267,20191,5,2,3:2:0:0:
42,205,20431,1,0,0:0:0:0:
136,184,20671,1,0,3:2:0:0:
27,117,20911,1,0,0:0:0:0:
145,100,21151,1,0,3:2:0:0:
10,28,21391,1,0,0:0:0:0:
155,17,21631,2,0,P|203:38|225:75,1,80.9999975280763,0|0,3:2|0:0,0:0:0:0:
217,152,22111,5,0,3:2:0:0:
216,288,22351,1,2,0:0:0:0:
216,288,22471,1,2,0:0:0:0:
216,288,22591,2,0,P|255:282|291:300,1,80.9999975280763,2|2,3:2|0:0,0:0:0:0:
428,353,23071,2,0,P|388:358|352:340,1,80.9999975280763,2|2,3:2|0:0,0:0:0:0:
411,204,23551,2,0,L|395:291,1,80.9999975280763,2|0,3:2|0:0,0:0:0:0:
241,354,24031,6,0,P|201:358|166:339,1,80.9999975280763,2|0,3:2|0:0,0:0:0:0:
216,288,24391,2,0,P|255:283|290:302,1,80.9999975280763,2|0,0:0|0:0,0:0:0:0:
166,339,24751,2,0,B|101:327|101:327|77:338|77:338|8:326,1,161.999995056153,2|2,0:0|0:0,0:0:0:0:
28,51,25711,2,0,L|80:59,1,40.4999987640381,2|0,0:0|0:0,0:0:0:0:
54,129,25951,6,0,P|35:170|46:217,1,80.9999975280763,2|0,3:2|0:0,0:0:0:0:
107,180,26311,2,0,P|126:140|116:92,1,80.9999975280763,2|0,0:0|0:0,0:0:0:0:
39,204,26671,2,0,B|58:243|58:243|131:255|131:255|168:217,1,161.999995056153,2|2,0:0|0:0,0:0:0:0:
141,20,27631,1,2,0:0:0:0:
141,20,27751,1,2,0:0:0:0:
141,20,27871,5,2,3:2:0:0:
5,39,28111,1,0,0:0:0:0:
25,150,28351,1,0,3:2:0:0:
84,82,28591,1,0,0:0:0:0:
107,193,28831,1,0,3:2:0:0:
193,84,29071,1,0,0:0:0:0:
221,235,29311,2,0,P|203:270|172:297,1,80.9999975280763,0|0,3:2|0:0,0:0:0:0:
107,193,29791,5,0,3:2:0:0:
85,347,30031,1,2,0:0:0:0:
219,372,30271,1,2,3:2:0:0:
169,276,30511,1,2,0:0:0:0:
328,304,30751,1,2,3:2:0:0:
279,201,30991,1,2,0:0:0:0:
414,223,31231,2,0,P|435:254|443:295,1,80.9999975280763,2|0,3:2|0:0,0:0:0:0:
315,301,31711,6,0,P|261:305|213:282,1,108,6|2,3:2|0:0,0:0:0:0:
351,157,32431,2,0,B|295:113|295:113|224:134,1,144,2|2,0:0|0:0,0:0:0:0:
278,211,33151,1,2,0:0:0:0:
367,237,33391,1,2,0:0:0:0:
477,269,33631,6,0,P|480:214|456:167,1,108,2|2,3:2|0:0,0:0:0:0:
310,4,34351,2,0,B|312:36|312:36|298:67|298:67|301:99|301:99|287:130|287:130|290:162|290:162|276:193|276:193|278:225,1,216,2|0,0:0|0:0,0:0:0:0:
275,304,35311,1,0,3:2:0:0:
175,234,35551,6,0,P|197:283|192:336,1,108,2|2,3:2|0:0,0:0:0:0:
27,250,36271,2,0,B|4:317|4:317|48:377,1,144,2|2,0:0|0:0,0:0:0:0:
103,300,36991,1,2,0:0:0:0:
96,206,37231,1,2,0:0:0:0:
188,137,37471,6,0,P|211:185|207:238,1,108,2|2,3:2|0:0,0:0:0:0:
66,69,38191,2,0,B|80:98|80:98|78:131|78:131|93:161|93:161|91:194|91:194|104:223|104:223|104:232,1,144,2|0,0:0|3:2,0:0:0:0:
164,187,38911,2,0,P|131:201|95:204,1,72,0|0,3:2|0:0,0:0:0:0:
13,269,39391,6,0,P|59:301|127:303,1,108,2|2,3:2|0:0,0:0:0:0:
153,323,39871,2,0,P|185:307|209:281,1,72,0|2,0:0|0:0,0:0:0:0:
293,323,40351,2,0,P|304:289|303:253,1,72,8|2,0:0|0:0,0:0:0:0:
394,227,40831,2,0,P|378:194|352:170,1,72,2|2,0:0|0:0,0:0:0:0:
277,81,41311,6,0,P|245:127|243:195,1,108,2|2,3:2|0:0,0:0:0:0:
278,202,41791,2,0,P|293:234|319:258,1,72,0|2,0:0|0:0,0:0:0:0:
371,180,42271,2,0,P|403:164|427:138,1,72,8|0,0:0|0:0,0:0:0:0:
345,93,42751,1,0,0:0:0:0:
344,12,42991,1,2,3:2:0:0:
344,12,43111,1,2,0:0:0:0:
344,12,43231,6,0,B|311:7|311:7|270:27,1,72,2|0,3:2|0:0,0:0:0:0:
206,125,43711,2,0,B|238:129|238:129|278:109,1,72,2|0,3:2|0:0,0:0:0:0:
175,39,44191,2,0,B|142:34|142:34|101:54,1,72,10|0,0:0|0:0,0:0:0:0:
46,159,44671,1,0,0:0:0:0:
182,169,44911,1,2,0:0:0:0:
182,169,45031,1,2,0:0:0:0:
182,169,45151,6,0,B|184:184|172:207|172:207|191:224|194:239,1,80.9999975280763,2|0,3:2|3:2,0:0:0:0:
330,216,45631,2,0,B|327:200|339:177|339:177|320:160|317:145,1,80.9999975280763,2|0,0:0|0:0,0:0:0:0:
239,302,46111,2,0,B|254:299|277:311|277:311|294:292|309:289,1,80.9999975280763,10|0,0:0|3:2,0:0:0:0:
274,84,46591,2,0,B|258:86|235:74|235:74|218:93|203:96,1,80.9999975280763,0|0,3:2|0:0,0:0:0:0:
256,192,47071,12,0,48031,0:0:0:0:
387,8,48751,5,2,0:0:0:0:
387,8,48871,1,2,0:0:0:0:
387,8,48991,6,0,P|402:50|402:94,1,90,6|0,3:2|0:0,0:0:0:0:
311,207,49471,2,0,P|295:164|295:120,1,90,10|0,3:2|0:0,0:0:0:0:
497,73,49951,2,0,B|503:110|503:110|479:163|479:163|486:202,1,135,2|0,3:2|0:0,0:0:0:0:
398,190,50431,2,0,P|353:190|310:206,1,90,10|0,3:2|0:0,0:0:0:0:
175,269,50911,6,0,L|157:179,1,90,2|0,3:2|0:0,0:0:0:0:
92,238,51271,2,0,L|108:330,1,90,2|0,0:0|0:0,0:0:0:0:
42,375,51631,1,2,0:0:0:0:
11,207,51871,2,0,P|77:152|158:181,1,180,2|8,3:2|3:2,0:0:0:0:
203,27,52591,1,2,0:0:0:0:
203,27,52711,1,2,0:0:0:0:
203,27,52831,6,0,P|260:34|300:22,1,90,2|0,3:2|0:0,0:0:0:0:
410,106,53311,2,0,P|351:97|311:109,1,90,10|0,3:2|0:0,0:0:0:0:
158,181,53791,2,0,B|222:157|222:157|285:182,1,135,2|0,3:2|0:0,0:0:0:0:
349,214,54271,1,8,3:2:0:0:
465,291,54511,1,2,0:0:0:0:
465,291,54631,1,2,0:0:0:0:
465,291,54751,6,0,P|487:329|495:373,1,90,2|0,3:2|0:0,0:0:0:0:
364,286,55231,2,0,P|386:247|420:218,1,90,10|0,3:2|0:0,0:0:0:0:
409,375,55711,2,0,L|298:357,1,90,2|0,3:2|0:0,0:0:0:0:
251,349,56071,2,0,L|140:331,1,90,0|0,3:2|0:0,0:0:0:0:
93,324,56431,1,2,3:2:0:0:
93,324,56551,1,2,0:0:0:0:
93,324,56671,6,0,P|74:268|76:227,1,90,2|0,3:2|0:0,0:0:0:0:
162,122,57151,2,0,P|179:176|176:217,1,90,10|0,3:2|0:0,0:0:0:0:
52,54,57631,2,0,B|74:22|74:22|128:12|128:12|162:35,1,135,2|0,3:2|0:0,0:0:0:0:
162,122,58111,2,0,P|204:107|249:108,1,90,10|0,3:2|0:0,0:0:0:0:
343,217,58591,6,0,L|329:126,1,90,2|0,3:2|0:0,0:0:0:0:
410,160,58951,2,0,L|426:251,1,90,2|0,0:0|0:0,0:0:0:0:
504,271,59311,1,2,0:0:0:0:
476,103,59551,2,0,P|395:73|328:128,1,180,2|8,3:2|3:2,0:0:0:0:
105,315,60511,5,0,3:2:0:0:
124,207,60751,1,2,0:0:0:0:
53,364,60991,2,0,P|92:384|136:379,1,90,10|2,3:2|0:0,0:0:0:0:
124,207,61471,1,2,3:2:0:0:
15,189,61711,1,2,0:0:0:0:
174,260,61951,2,0,P|194:220|189:176,1,90,10|2,3:2|0:0,0:0:0:0:
147,75,62431,5,2,0:0:0:0:
343,170,62671,1,8,3:2:0:0:
124,207,62911,1,8,3:2:0:0:
280,51,63151,1,8,3:2:0:0:
255,272,63391,1,8,3:2:0:0:
255,272,63871,1,2,0:0:0:0:
203,147,64111,1,2,0:0:0:0:
203,147,64231,1,2,0:0:0:0:
203,147,64351,6,0,P|161:132|116:132,1,90,6|0,3:2|0:0,0:0:0:0:
7,223,64831,2,0,P|49:238|93:239,1,90,10|0,3:2|0:0,0:0:0:0:
138,37,65311,2,0,B|101:31|101:31|48:55|48:55|9:48,1,135,2|0,3:2|0:0,0:0:0:0:
21,136,65791,2,0,P|21:181|5:224,1,90,10|0,3:2|0:0,0:0:0:0:
150,200,66271,6,0,L|168:110,1,90,2|0,3:2|0:0,0:0:0:0:
234,170,66631,2,0,L|218:262,1,90,2|0,0:0|0:0,0:0:0:0:
284,306,66991,1,2,0:0:0:0:
315,139,67231,2,0,P|249:84|167:113,1,180,2|8,3:2|3:2,0:0:0:0:
315,226,67951,1,2,0:0:0:0:
315,226,68071,1,2,0:0:0:0:
315,226,68191,6,0,P|322:169|310:129,1,90,2|0,3:2|0:0,0:0:0:0:
394,19,68671,2,0,P|385:78|397:118,1,90,10|0,3:2|0:0,0:0:0:0:
469,271,69151,2,0,B|445:207|445:207|470:144,1,135,2|0,3:2|0:0,0:0:0:0:
502,80,69631,1,8,3:2:0:0:
392,106,69871,1,2,0:0:0:0:
392,106,69991,1,2,0:0:0:0:
392,106,70111,6,0,P|414:66|422:22,1,90,2|0,3:2|0:0,0:0:0:0:
290,110,70591,2,0,P|311:148|346:178,1,90,10|0,3:2|0:0,0:0:0:0:
335,20,71071,2,0,L|224:36,1,90,2|0,3:2|0:0,0:0:0:0:
177,47,71431,2,0,L|66:65,1,90,0|0,3:2|0:0,0:0:0:0:
20,72,71791,1,2,3:2:0:0:
20,72,71911,1,2,0:0:0:0:
20,72,72031,6,0,P|20:131|36:168,1,90,2|0,3:2|0:0,0:0:0:0:
153,241,72511,2,0,P|150:183|133:146,1,90,10|0,3:2|0:0,0:0:0:0:
73,341,72991,2,0,B|103:362|103:362|157:353|157:353|181:320,1,135,2|0,3:2|0:0,0:0:0:0:
153,241,73471,2,0,P|197:240|239:224,1,90,10|0,3:2|0:0,0:0:0:0:
334,115,73951,6,0,L|351:205,1,90,2|0,3:2|0:0,0:0:0:0:
416,145,74311,2,0,L|399:54,1,90,2|0,0:0|0:0,0:0:0:0:
466,9,74671,1,2,0:0:0:0:
497,176,74911,2,0,P|431:231|349:203,1,180,2|8,3:2|3:2,0:0:0:0:
139,51,75871,1,0,3:2:0:0:
283,76,76111,1,2,3:2:0:0:
152,140,76351,1,10,3:2:0:0:
220,11,76591,1,2,3:2:0:0:
241,156,76831,2,0,B|251:222|251:222|314:255,2,135,2|2|2,3:2|0:0|3:2,0:0:0:0:
349,153,77791,5,2,0:0:0:0:
192,304,78031,1,10,3:2:0:0:
232,86,78271,1,10,3:2:0:0:
326,286,78511,1,10,3:2:0:0:
126,187,78751,1,10,3:2:0:0:
126,187,79231,2,0,B|148:149|196:146|196:146|247:169|284:134,1,180,0|6,0:0|3:3,0:0:0:0:
256,192,79951,12,2,83071,3:3:0:0:
403,204,83551,6,0,L|416:134,2,72,6|2|2,3:3|0:3|3:3,0:0:0:0:
379,309,84271,2,0,P|327:314|297:332,1,72,2|0,0:3|3:2,0:0:0:0:
219,380,84751,2,0,L|232:310,1,72,2|2,0:3|3:3,0:0:0:0:
257,205,85231,1,2,0:3:0:0:
143,197,85471,6,0,B|147:158|147:158|168:130,1,72,0|0,3:2|0:0,0:0:0:0:
305,93,85951,2,0,B|269:109|269:109|234:104,1,72,0|0,3:2|0:0,0:0:0:0:
132,5,86431,2,0,B|163:27|163:27|177:60,1,72,0|0,3:2|0:0,0:0:0:0:
39,101,86911,1,0,3:2:0:0:
166,131,87151,1,0,3:2:0:0:
