osu file format v14

[General]
AudioFilename: audio.mp3
AudioLeadIn: 0
PreviewTime: 48511
Countdown: 0
SampleSet: Soft
StackLeniency: 0.8
Mode: 0
LetterboxInBreaks: 0
EpilepsyWarning: 1
WidescreenStoryboard: 1

[Editor]
Bookmarks: 16351,31711,48991,64351,79711
DistanceSpacing: 1
BeatDivisor: 2
GridSize: 8
TimelineZoom: 1.1

[Metadata]
Title:shadowgraph (TV Size)
TitleUnicode:shadowgraph (TV Size)
Artist:MYTH & ROID
ArtistUnicode:MYTH & ROID
Creator:Involute
Version:Easy
Source:ブギーポップは笑わない
Tags:boogiepop doesn't laugh wa warawanai anime opening op kadokawa english japanese
BeatmapID:2378190
BeatmapSetID:1130427

[Difficulty]
HPDrainRate:3
CircleSize:3
OverallDifficulty:2
ApproachRate:3
SliderMultiplier:1
SliderTickRate:1

[Events]
//Background and Video events
0,0,"boogiepop.jpg",0,0
//Break Periods
2,4071,7231
//Storyboard Layer 0 (Background)
//Storyboard Layer 1 (Fail)
//Storyboard Layer 2 (Pass)
//Storyboard Layer 3 (Foreground)
//Storyboard Layer 4 (Overlay)
//Storyboard Sound Samples

[TimingPoints]
-929,480,4,2,1,40,1,0
751,-100,4,2,1,40,0,0
15871,-100,4,2,1,60,0,0
48751,-100,4,2,1,90,0,0
48991,-100,4,2,2,90,0,1
63391,-100,4,2,2,90,0,0
64351,-100,4,2,2,90,0,1
79711,-100,4,2,2,90,0,0
79831,-100,4,2,2,40,0,0
83551,-100,4,2,2,40,0,0

[Colours]
Combo1 : 184,134,29
Combo2 : 75,51,162
Combo3 : 184,165,29
Combo4 : 51,98,162

[HitObjects]
17,75,991,6,0,P|68:54|120:60,1,100,6|2,0:0|0:0,0:0:0:0:
180,133,1951,2,0,B|158:176|158:176|112:199,1,100,2|2,0:0|0:0,0:0:0:0:
14,221,2911,2,0,L|30:322,2,100,2|0|2,0:0|0:0|0:0,0:0:0:0:
481,41,8671,6,0,P|482:96|459:142,1,100,2|2,3:2|3:2,0:0:0:0:
388,200,9631,2,0,B|352:232|352:232|341:282,1,100,2|2,3:2|3:2,0:0:0:0:
392,368,10591,2,0,L|493:367,2,100,2|0|2,3:2|3:2|3:2,0:0:0:0:
292,373,12031,1,0,3:2:0:0:
194,350,12511,6,0,B|215:285|248:289|261:266|310:275|310:275|359:234|342:209|368:182|337:137,1,300,2|2,3:3|3:3,0:0:0:0:
259,85,14431,2,0,P|187:100|143:158,2,150,2|2|2,3:3|0:3|0:0,0:0:0:0:
242,183,16351,6,0,P|207:238|129:263,1,150,6|2,0:0|0:0,0:0:0:0:
142,164,17551,1,2,0:0:0:0:
269,84,18271,2,0,P|338:60|407:87,1,150,2|2,3:2|0:0,0:0:0:0:
457,173,19471,1,2,0:0:0:0:
492,319,20191,6,0,B|371:330|371:330|236:245|236:245|116:255,1,400,2|0,3:2|3:2,0:0:0:0:
59,174,22591,1,2,3:2:0:0:
102,82,23071,1,2,3:2:0:0:
202,69,23551,1,2,3:2:0:0:
268,149,24031,6,0,P|246:218|185:258,1,150,2|2,3:2|0:0,0:0:0:0:
170,160,25231,1,2,0:0:0:0:
235,24,25951,2,0,P|308:22|365:68,1,150,2|2,3:2|0:0,0:0:0:0:
416,154,27151,1,2,0:0:0:0:
389,301,27871,6,0,B|290:355|290:355|120:307|120:307|66:208,1,400,2|0,3:2|3:2,0:0:0:0:
76,110,30271,1,2,3:2:0:0:
171,76,30751,1,2,3:2:0:0:
251,138,31231,1,2,3:2:0:0:
241,241,31711,6,0,P|176:274|105:259,2,150,6|2|2,3:2|0:0|0:0,0:0:0:0:
244,141,33631,1,2,3:2:0:0:
392,118,34351,2,0,B|399:167|399:167|374:212|374:212|382:262,1,150,2|0,0:0|0:0,0:0:0:0:
398,359,35551,6,0,P|467:341|511:282,2,150,2|2|2,3:2|0:0|0:0,0:0:0:0:
311,308,37471,1,2,3:2:0:0:
192,215,38191,2,0,B|165:258|165:258|170:308|170:308|144:351,1,150,2|0,0:0|3:2,0:0:0:0:
55,297,39391,6,0,P|37:233|61:169,1,100,2|0,3:2|0:0,0:0:0:0:
123,141,40351,2,0,P|171:149|211:178,1,100,8|2,0:0|0:0,0:0:0:0:
219,278,41311,1,2,3:2:0:0:
80,334,42031,2,0,B|59:288|59:288|71:239|71:239|51:193,1,150,2|0,0:0|0:0,0:0:0:0:
47,93,43231,6,0,P|74:55|126:37,1,100,2|2,3:2|3:2,0:0:0:0:
217,71,44191,2,0,P|237:114|226:167,1,100,10|0,0:0|0:0,0:0:0:0:
151,227,45151,1,2,3:2:0:0:
60,184,45631,1,2,0:0:0:0:
43,85,46111,2,0,B|72:46|72:46|121:31,1,100,10|0,0:0|3:2,0:0:0:0:
16,175,48991,6,0,P|11:125|33:81,1,100,6|10,3:2|3:2,0:0:0:0:
110,144,49951,2,0,B|117:194|117:194|93:238,1,100,2|10,3:2|3:2,0:0:0:0:
106,336,50911,2,0,L|209:353,1,100,2|8,3:2|3:2,0:0:0:0:
304,370,51871,1,2,3:2:0:0:
399,339,52351,1,8,3:2:0:0:
364,245,52831,5,2,3:2:0:0:
327,151,53311,1,10,3:2:0:0:
299,54,53791,2,0,B|336:48|336:48|354:62|354:62|393:55,1,100,2|8,3:2|3:2,0:0:0:0:
493,40,54751,1,2,3:2:0:0:
475,138,55231,1,10,3:2:0:0:
453,235,55711,2,0,B|415:238|415:238|398:223|398:223|359:228,1,100,2|8,3:2|0:0,0:0:0:0:
259,239,56671,6,0,P|209:238|168:211,1,100,2|10,3:2|3:2,0:0:0:0:
96,141,57631,2,0,B|53:117|53:117|2:124,1,100,2|10,3:2|3:2,0:0:0:0:
30,219,58591,1,2,3:2:0:0:
55,315,59071,1,8,3:2:0:0:
153,333,59551,1,2,3:2:0:0:
251,348,60031,1,8,3:2:0:0:
329,285,60511,6,0,P|367:235|368:180,1,100,0|10,3:2|3:2,0:0:0:0:
385,101,61471,2,0,P|405:57|446:29,1,100,2|10,3:2|3:2,0:0:0:0:
482,122,62431,2,0,B|494:193|494:193|470:246|470:246|483:317,1,200,2|8,0:0|3:2,0:0:0:0:
288,360,64351,6,0,P|242:339|215:298,1,100,6|10,3:2|3:2,0:0:0:0:
167,210,65311,2,0,B|127:177|127:177|78:176,1,100,2|10,3:2|3:2,0:0:0:0:
7,247,66271,2,0,L|25:345,1,100,2|8,3:2|3:2,0:0:0:0:
122,321,67231,1,2,3:2:0:0:
216,355,67711,1,8,3:2:0:0:
273,273,68191,5,2,3:2:0:0:
327,189,68671,1,10,3:2:0:0:
374,100,69151,2,0,B|412:102|412:102|427:119|427:119|467:120,1,100,2|8,3:2|3:2,0:0:0:0:
471,19,70111,1,2,3:2:0:0:
371,12,70591,1,10,3:2:0:0:
271,9,71071,2,0,B|239:29|239:29|234:51|234:51|200:72,1,100,2|8,3:2|0:0,0:0:0:0:
156,162,72031,6,0,P|166:210|201:245,1,100,2|10,3:2|3:2,0:0:0:0:
289,292,72991,2,0,B|338:301|338:301|371:340,1,100,2|10,3:2|3:2,0:0:0:0:
469,353,73951,1,2,3:2:0:0:
505,259,74431,1,8,3:2:0:0:
463,167,74911,1,2,3:2:0:0:
424,74,75391,1,8,3:2:0:0:
326,49,75871,6,0,P|265:58|226:98,1,100,0|10,3:2|3:2,0:0:0:0:
172,158,76831,2,0,P|102:189|17:150,1,150,2|2,3:2|3:2,0:0:0:0:
99,91,78031,2,0,B|137:56|137:56|186:57|186:57|226:21,1,150,10|10,3:2|3:2,0:0:0:0:
322,34,79231,1,0,0:0:0:0:
256,192,79711,12,6,83551,3:3:0:0:
183,32,85471,6,0,B|208:128|208:128|292:182|292:182|317:279|317:279|360:306|360:306|375:364,1,400,0|0,3:2|0:0,0:0:0:0:
